#TITLE:I'm Screaming LOVE;
#SUBTITLE:;
#ARTIST:Creative Life;
#TITLETRANSLIT:;
#SUBTITLETRANSLIT:;
#ARTISTTRANSLIT:;
#GENRE:;
#CREDIT:Graphics by xynn;
#BANNER:screaminglovebn.png;
#BACKGROUND:screaminglovebg.png;
#LYRICSPATH:;
#CDTITLE:cdtitle.png;
#MUSIC:I'm Screaming LOVE.ogg;
#OFFSET:1.554;
#SAMPLESTART:63.915;
#SAMPLELENGTH:16.440;
#SELECTABLE:YES;
#BPMS:0.000=147.000;
#STOPS:;
#TIMESIGNATURES:0.000=4=4
;
#BGCHANGES:;
#KEYSOUNDS:;

//---------------dance-single - Kyzentun----------------
#NOTES:
     dance-single:
     Kyzentun:
     Challenge:
     9:
     0.555,0.795,0.036,0.681,0.188,348.000,4.000,76.000,0.000,22.000,49.000,0.555,0.795,0.036,0.681,0.188,348.000,4.000,76.000,0.000,22.000,49.000:
0000
0000
0000
0000
,
0000
0000
0000
0000
,
0000
0000
0000
0000
,
0000
0000
0000
0000
,
0000
0000
0000
0000
,
1000
0100
1000
0000
0100
0000
0100
0000
0100
0000
0100
0000
0100
0000
0100
0010
,
0000
0010
0001
0000
0001
0000
0001
0000
0001
0000
0001
0000
0001
0000
0001
0000
,
2000
0000
0000
0000
0200
0000
0000
0020
,
0000
0000
0000
0000
3330
1000
1000
1000
,
0001
0100
0001
0000
0100
0000
0100
0000
0100
0000
0100
0000
0100
0000
0100
0010
,
0000
0010
1000
0000
1000
0000
1000
0000
1000
0000
1000
0000
1000
0000
1000
0000
,
0002
0000
0000
0000
0200
0000
0000
0020
,
0000
0000
0000
0000
0000
0000
0000
0000
0000
0000
0000
0000
0000
0000
0000
0333
0444
0000
0000
0000
0333
0000
0000
0000
0000
0000
0000
0000
0001
0000
0100
0000
,
0001
0000
1000
0100
0000
0100
1000
0000
0002
0000
0023
0000
0032
0000
2003
0000
,
0000
3020
0230
0000
0300
0020
2030
3100
,
0000
0000
0200
0000
0320
0000
0032
0000
2003
0000
3020
0230
0320
0030
2000
0000
,
0000
0000
0000
0000
0000
0000
0000
3000
4000
0000
0000
0000
0000
0000
0000
0000
0004
0000
0000
3000
2003
0000
0000
0000
3200
0000
0000
0000
0320
0000
0000
0000
,
0230
0000
2300
3020
2030
3000
0020
0000
0230
0000
0320
0000
2030
0000
3002
0000
,
0000
0023
0032
0000
0000
0000
0000
0003
,
2000
0000
0000
0000
0002
0000
0000
0020
,
0000
0000
0000
0000
0000
0000
0000
0000
0000
0000
0000
0000
0000
0000
0000
3033
4044
0000
0000
0000
3033
0000
0000
0000
2000
0000
0000
0000
3200
0000
0000
0000
,
0320
0000
0032
0103
0000
0002
0200
0000
,
0000
0000
0000
0000
0000
0000
0010
1000
0010
0000
2000
0000
0000
0000
3010
0000
,
0020
1000
0000
1000
,
0000
0000
0000
0000
0000
0000
0000
0000
1000
0000
0000
0000
0000
0000
0000
0000
0000
0333
4444
0000
0000
0000
0000
0000
0000
0000
3333
0000
0000
0000
0000
0000
,
0001
1000
0100
0010
0100
1000
0010
1000
,
0200
0000
0000
0000
0000
0000
0000
0300
0100
0000
0010
0000
0100
0000
1000
0000
,
0001
1000
0100
0010
0100
0010
0001
0010
,
0100
1000
0010
1000
0100
0010
0100
1000
,
0001
1000
0010
0100
0010
1000
0100
1000
,
0020
0030
0000
0000
0010
0100
0010
1000
,
0002
0003
1000
0100
0000
0100
0000
0100
,
0000
1000
0001
0100
0001
0000
0010
0001
,
4000
0040
0000
0000
0000
0000
0000
0000
0000
0000
0000
0000
0000
0000
0000
3000
,
0430
0004
0000
0000
0000
0000
0000
0000
0000
0000
0303
0000
0100
0000
0001
0000
,
0040
0400
0000
0000
0000
0000
0000
0000
0000
0000
0330
0000
0010
0000
0001
0000
,
4000
0040
0000
0000
0000
0000
0000
0000
0000
0000
3030
0000
1000
0000
0100
0000
,
0040
0004
0000
0000
0000
0000
0000
0000
0000
0000
0033
0000
0010
0000
0100
0000
,
4000
0400
0000
0000
0000
0000
0000
0000
0000
0000
3300
0000
1000
0000
0010
0000
,
0010
0000
0100
0200
0000
0002
0000
2000
,
0000
0000
0010
0000
0010
0000
0010
0000
0020
0000
0000
3333
1211
0000
0000
0000
,
0000
0000
0301
0000
1000
0100
0100
0200
,
0000
0000
0310
0000
0040
0000
0000
0000
0034
4003
3000
0040
0000
0030
0200
0000
,
0000
0000
0301
0000
1000
0001
0001
0002
,
0000
0000
0103
0000
0040
0000
0000
0000
0430
0304
0003
4000
0000
3000
0100
0000
,
0010
0000
0100
0000
1000
0000
0010
0000
0100
0000
0010
0000
1000
0001
0000
0001
,
0100
0000
0001
0000
0010
0000
0001
0000
1000
0000
0010
0000
0100
0010
0000
0010
,
0200
0000
0302
0000
1003
0100
1000
0200
,
0000
0310
0040
0000
0034
0000
0403
0020
,
0300
0000
1030
0000
0001
1000
1000
2000
,
0000
0000
3010
0000
0400
0000
0000
0000
0304
4003
3000
0400
0000
0300
0020
0000
,
0000
0000
0130
0000
1000
0010
0010
0020
,
0000
0000
1030
0000
0004
0000
0000
0000
4003
3040
0030
0400
0000
0300
0020
0000
,
0000
0000
0030
0000
0100
0000
0001
0000
1000
0000
1000
0000
0010
0100
0000
0100
,
0010
0000
1000
0000
0002
0000
0000
0000
1003
0000
1000
0000
0010
0100
0000
0100
,
0010
1000
0001
0100
0001
1000
0100
2000
,
0000
3001
0004
0000
0403
0000
0340
0000
,
2030
0000
0000
0000
0002
0000
0000
0020
,
0000
0000
0000
0000
3033
0000
1000
0010
,
0100
0000
0100
0000
0100
0010
1000
0200
,
0000
0310
0002
0000
4000
0000
0003
0001
,
3001
0000
0001
0100
0000
0100
0001
0000
1000
0000
0010
0000
0100
0000
0010
0000
,
1000
0000
0001
0000
0010
0100
0000
0100
0010
0000
0010
0001
0000
0001
1000
0000
,
0000
0010
0100
0010
1000
0001
0010
0400
,
0000
0310
0004
0000
0000
0000
1003
0010
,
2000
0000
3010
0100
0000
0100
0020
0000
,
0000
0000
0000
0000
0000
0000
0130
0001
0100
0000
0001
0000
0000
0000
1000
0000
,
0200
0000
0000
0000
,
0000
0300
0000
0000
;

//---------------dance-single - Kyzentun----------------
#NOTES:
     dance-single:
     Kyzentun:
     Hard:
     9:
     0.559,0.764,0.063,0.663,0.206,356.000,7.000,74.000,23.000,0.000,43.000,0.559,0.764,0.063,0.663,0.206,356.000,7.000,74.000,23.000,0.000,43.000:
0000
0000
0000
0000
,
0000
0000
0000
0000
,
0000
0000
0000
0000
,
0000
0000
0000
0000
,
0000
0000
0000
0000
,
0001
0010
0001
0000
0010
0000
0100
0000
0010
0000
1000
0000
0010
0000
0001
0100
,
0000
0100
0010
0000
0100
0000
1000
0000
0100
0000
0001
0000
1000
0000
0010
0000
,
0200
0000
0000
0000
0320
0000
0000
2030
,
0000
0000
0000
0000
3000
0001
0100
0001
,
1000
0010
1000
0000
0010
0000
0001
0000
0010
0000
0100
0000
0010
0000
1000
0100
,
0000
0100
0010
0000
0100
0000
0001
0000
0100
0000
1000
0000
0100
0000
0010
0000
,
0002
0000
0000
0000
2003
0000
0000
3200
,
0000
0000
0000
0000
0000
0000
0000
0000
0000
0000
0000
0000
0000
0000
0000
0300
4004
0000
0000
0000
3003
0000
0000
0000
0000
0000
0000
0000
1000
0000
0010
0000
,
1000
0000
0M01
0010
0000
0010
0001
0000
20M0
0000
3200
0000
2300
0000
3M02
0000
,
0000
02M3
0320
0000
003M
0200
M302
0013
,
0000
0000
002M
0000
0230
0000
2300
0000
30M2
0000
0203
0320
0230
0300
00M2
0000
,
0000
0000
0000
0000
0000
0000
0000
0003
0M04
0000
0000
0000
0000
0000
0000
0000
M000
0000
0000
0003
0002
0000
0000
0000
0M23
0000
0000
0000
0230
0000
0000
0000
,
0320
0000
M032
0203
0302
0003
0200
0000
032M
0000
0230
0000
0302
0000
2M03
0000
,
0000
32M0
2300
0000
000M
00M0
0000
3000
,
0002
0000
0000
0000
0203
0000
0000
0002
,
0000
0000
0000
0000
0000
0000
0000
0000
0000
0000
0000
0000
0000
0000
0000
0303
0404
0000
0000
0000
0303
0000
0000
0000
0002
0000
0000
0000
0023
0000
0000
0000
,
0230
0000
2300
3010
0000
2000
0020
0000
,
0000
0000
0000
0000
3030
0000
1000
0001
1000
0000
0002
0000
0000
0000
0103
0000
,
0200
0001
0000
0001
,
0000
0000
0000
0000
0000
0000
0000
0000
0001
0000
0000
0000
0000
0000
0000
0000
0000
0300
0004
0000
0000
0000
0000
0000
0000
0000
0003
0000
0000
0000
0000
0000
,
1000
0001
0010
1000
0010
0001
0100
0001
,
0020
0000
0000
0000
0000
0000
0000
0030
0010
0000
1000
0000
0010
0000
0001
0000
,
0100
0001
0010
1000
0010
0100
0001
0100
,
0010
0001
0100
0001
0010
1000
0010
0001
,
1000
0001
0100
1000
0100
0001
0010
0001
,
0200
0300
0000
0000
0100
1000
0100
0001
,
2000
3000
0001
0010
0000
0010
0000
0010
,
0000
0001
1000
0010
1000
0000
0100
1000
,
0004
0400
0000
0000
0000
0000
0000
0000
0000
0000
0000
0000
0000
0000
0000
0003
,
0340
4000
0000
0000
0000
0000
0000
0000
0000
0000
3030
0000
0010
0000
1000
0000
,
0400
0040
0000
0000
0000
0000
0000
0000
0000
0000
0330
0000
0100
0000
1000
0000
,
0004
0400
0000
0000
0000
0000
0000
0000
0000
0000
0303
0000
0001
0000
0010
0000
,
0400
4000
0000
0000
0000
0000
0000
0000
0000
0000
3300
0000
0100
0000
0010
0000
,
0004
0040
0000
0000
0000
0000
0000
0000
0000
0000
0033
0000
0001
0000
0100
0000
,
0100
0000
0010
0010
00M0
1000
M000
0001
,
000M
0000
0110
0000
0110
0000
0110
0000
0220
0000
0000
0330
2MM1
0000
0000
0000
,
3000
0000
1000
0000
0001
0010
0010
0020
,
0000
0000
0130
0000
0400
0000
0000
0000
4300
3004
0003
0400
0000
0300
0020
0000
,
0000
0000
1030
0000
0001
1000
1000
2000
,
0000
0000
3010
0000
0400
0000
0000
0000
0340
4030
3000
0004
0000
0003
0010
0000
,
1000
0000
0010
0000
0001
0000
0100
0000
1000
0000
0100
0000
0001
1000
0000
1000
,
0010
0000
1000
0000
0100
0000
1000
0000
0001
0000
0100
0000
0010
0100
0000
0100
,
0020
0000
2030
0000
3001
0010
1000
0020
,
0000
0130
0400
0000
4300
0000
3040
0200
,
0030
0000
0301
0000
1000
0001
0001
0002
,
0000
0000
0103
0000
0040
0000
0000
0000
4030
3004
0003
0040
0000
0030
0200
0000
,
0000
0000
0310
0000
0001
0100
0100
0200
,
0000
0000
0301
0000
4000
0000
0000
0000
3004
0403
0300
0040
0000
0030
0200
0000
,
0000
0000
0300
0000
0010
0000
1000
0000
0001
0000
0001
0000
0100
0010
0000
0010
,
0100
0000
0001
0000
2000
0000
0000
0000
3001
0000
0001
0000
0100
0010
0000
0010
,
0100
0001
1000
0010
1000
0001
0010
0002
,
0000
1003
4000
0000
3040
0000
0430
0000
,
0301
0000
0001
1000
0100
1000
0000
1000
0010
0000
0001
0000
0010
0000
2000
0000
,
0000
3020
0230
0000
0000
0300
0001
0100
,
0010
0000
0010
0000
0010
0100
0001
0020
,
0000
0130
2000
0000
0004
0000
3000
1000
,
1003
0000
1000
0010
0000
0010
1000
0000
0001
0000
0100
0000
0010
0000
0100
0000
,
0001
0000
1000
0000
0100
0010
0000
0010
0100
0000
0100
1000
0000
1000
0001
0000
,
0000
0100
0010
0100
0001
1000
0100
0040
,
0000
0000
0130
0000
0000
4000
0000
0000
0000
0000
0000
0000
3001
0000
0100
0000
,
0002
0000
0103
0010
0000
0010
0200
0000
,
0000
0000
0000
0000
0000
0000
0310
1000
0010
0000
1000
0000
0000
0000
0001
0000
,
0020
0000
0000
0000
,
0000
0030
0000
0000
;

//---------------dance-double - Kyzentun----------------
#NOTES:
     dance-double:
     Kyzentun:
     Challenge:
     9:
     0.556,0.795,0.036,0.698,0.188,347.000,4.000,78.000,0.000,28.000,49.000,0.556,0.795,0.036,0.698,0.188,347.000,4.000,78.000,0.000,28.000,49.000:
00000000
00000000
00000000
00000000
,
00000000
00000000
00000000
00000000
,
00000000
00000000
00000000
00000000
,
00000000
00000000
00000000
00000000
,
00000000
00000000
00000000
00000000
,
00000100
00010000
00000100
00000000
00010000
00000000
00010000
00000000
00010000
00000000
00010000
00000000
00010000
00000000
00010000
00001000
,
00000000
00001000
01000000
00000000
01000000
00000000
01000000
00000000
01000000
00000000
01000000
00000000
01000000
00000000
01000000
00000000
,
00002000
00000000
00000000
00000000
02000000
00000000
00000000
00020000
,
00000000
00000000
00000000
00000000
03033000
00001000
00001000
00001000
,
01000000
00100000
01000000
00000000
00100000
00000000
00100000
00000000
00100000
00000000
00100000
00000000
00100000
00000000
00100000
10000000
,
00000000
10000000
01000000
00000000
01000000
00000000
01000000
00000000
01000000
00000000
01000000
00000000
01000000
00000000
01000000
00000000
,
00200000
00000000
00000000
00000000
02000000
00000000
00000000
00020000
,
00000000
00000000
00000000
00000000
00000000
00000000
00000000
00000000
00000000
00000000
00000000
00000000
00000000
00000000
00000000
03330000
04440000
00000000
00000000
00000000
03330000
00000000
00000000
00000000
00000000
00000000
00000000
00000000
00100000
00000000
00010000
00000000
,
00100000
00000000
00001000
00010000
00000000
00010000
00001000
00000000
00020000
00000000
00032000
00000000
00003020
00000000
00000032
00000000
,
00000000
00000023
00000230
00000000
00000300
00000020
00002030
00013000
,
00000000
00000000
00002000
00000000
02003000
00000000
03200000
00000000
00320000
00000000
00032000
00023000
00032000
00000000
02003000
00000000
,
00000000
00000000
00000000
00000000
00000000
00000000
00000000
03000000
04000000
00000000
00000000
00000000
00000000
00000000
00000000
00000000
00004000
00000000
00000000
03000000
02003000
00000000
00000000
00000000
03200000
00000000
00000000
00000000
20300000
00000000
00000000
00000000
,
32000000
00000000
03200000
00320000
00230000
00300000
00002000
00000000
00003020
00000000
00000032
00000000
00000023
00000000
00002030
00000000
,
00000000
00023000
00030200
00000000
00000000
00000000
00000000
00000300
,
00020000
00000000
00000000
00000000
00000200
00000000
00000000
00000002
,
00000000
00000000
00000000
00000000
00000000
00000000
00000000
00000000
00000000
00000000
00000000
00000000
00000000
00000000
00000000
00030303
00040404
00000000
00000000
00000000
00030303
00000000
00000000
00000000
00020000
00000000
00000000
00000000
00030200
00000000
00000000
00000000
,
00000320
00000000
00000230
00010300
00000000
00020000
00002000
00000000
,
00000000
00000000
00000000
00000000
00000000
00000000
00100000
00000010
00100000
00000000
00000020
00000000
00000000
00000000
00100030
00000000
,
00200000
00000010
00000000
00000010
,
00000000
00000000
00000000
00000000
00000000
00000000
00000000
00000000
00000010
00000000
00000000
00000000
00000000
00000000
00000000
00000000
00000000
00333000
00444040
00000000
00000000
00000000
00000000
00000000
00000000
00000000
00333030
00000000
00000000
00000000
00000000
00000000
,
00010000
00001000
00000100
00000001
00000100
00000010
00010000
00000010
,
00000200
00000000
00000000
00000300
00000100
00000001
00000100
00001000
,
00010000
00001000
00000100
00000001
00000100
00000010
00000001
00000010
,
00000200
00000300
00000001
00000001
00000100
00000001
00000100
00001000
,
00010000
00001000
00000100
00000001
00000100
00000001
00000010
00000001
,
00000200
00000300
00000000
00000000
00000100
00000001
00000100
00001000
,
00020000
00030000
01000000
00100000
00000000
00100000
00000000
00100000
,
00000000
00010000
10000000
00100000
01000000
00000000
00100000
01000000
,
00040000
04000000
00000000
00000000
00000000
00000000
00000000
00000000
00000000
00000000
00000000
00000000
00000000
00000000
00000000
00030000
,
03004000
00040000
00000000
00000000
00000000
00000000
00000000
00000000
00000000
00000000
00033000
00000000
00001000
00000000
00000010
00000000
,
00000400
00000040
00000000
00000000
00000000
00000000
00000000
00000000
00000000
00000000
00000330
00000000
00000100
00000000
00001000
00000000
,
00000004
00000400
00000000
00000000
00000000
00000000
00000000
00000000
00000000
00000000
00000303
00000000
00000001
00000000
00000100
00000000
,
00004000
00040000
00000000
00000000
00000000
00000000
00000000
00000000
00000000
00000000
00033000
00000000
00001000
00000000
00010000
00000000
,
00400000
04000000
00000000
00000000
00000000
00000000
00000000
00000000
00000000
00000000
03300000
00000000
00100000
00000000
01000000
00000000
,
01000000
00000000
00010000
00020000
00000000
02000000
00000000
20000000
,
00000000
00000000
00001000
00000000
00001000
00000000
00001000
00000000
00002000
00000000
00000000
33033000
12011000
00000000
00000000
00000000
,
00000000
00000000
03010000
00000000
10000000
01000000
01000000
02000000
,
00000000
00000000
03010000
00000000
00040000
00000000
00000000
00000000
00034000
00043000
00030000
00000400
00000000
00000300
00000020
00000000
,
00000000
00000000
00000130
00000000
00001000
00000001
00000001
00000002
,
00000000
00000000
00000013
00000000
00004000
00000000
00000000
00000000
00043000
00034000
00003000
00000400
00000000
00000300
00000010
00000000
,
00000001
00000000
00000010
00000000
00001000
00000000
00010000
00000000
01000000
00000000
00100000
00000000
10000000
00010000
00000000
00010000
,
00100000
00000000
01000000
00000000
00010000
00000000
00001000
00000000
00000010
00000000
00000100
00000000
00001000
00000001
00000000
00000001
,
00000200
00000000
00020300
00000000
10030000
00100000
10000000
00200000
,
00000000
01300000
04000000
00000000
03004000
00000000
00043000
00002000
,
00030000
00000000
00013000
00000000
00000100
00000010
00000010
00000020
,
00000000
00000000
00001030
00000000
00040000
00000000
00000000
00000000
00034000
00043000
00030000
00400000
00000000
00300000
20000000
00000000
,
00000000
00000000
31000000
00000000
10000000
00100000
00100000
00200000
,
00000000
00000000
00310000
00000000
00004000
00000000
00000000
00000000
00003040
00000430
00000300
00004000
00000000
00003000
00000002
00000000
,
00000000
00000000
00000003
00000000
00000001
00000000
00001000
00000000
00000001
00000000
00000001
00000000
00000100
00001000
00000000
00001000
,
00010000
00000000
00100000
00000000
00020000
00000000
00000000
00000000
00031000
00000000
00001000
00000000
00010000
01000000
00000000
01000000
,
10000000
01000000
00010000
00001000
00010000
00100000
01000000
20000000
,
00000000
31000000
04000000
00000000
03040000
00000000
00430000
00000000
,
00302000
00000000
00000000
00000000
00020000
00000000
00000000
00000200
,
00000000
00000000
00000000
00000000
00033300
00000000
00001000
00010000
,
00000100
00000000
00000100
00000000
00000100
00000001
00000100
00020000
,
00000000
00130000
02000000
00000000
00400000
00000000
03000000
10000000
,
10300000
00000000
10000000
00100000
00000000
00100000
00010000
00000000
00001000
00000000
00100000
00000000
01000000
00000000
00100000
00000000
,
00001000
00000000
00010000
00000000
00100000
00010000
00000000
00010000
00001000
00000000
00001000
00000010
00000000
00000010
00000100
00000000
,
00000000
00000100
00001000
00000010
00000001
00000010
00001000
00000004
,
00000000
00000013
00000400
00000000
00000000
00000000
00000310
00001000
,
00020000
00000000
01030000
00100000
00000000
00200000
02000000
00000000
,
00000000
00000000
00000000
00000000
00000000
00000000
00000100
00000010
00000100
00000000
00001000
00000000
00000000
00000000
00010000
00000000
,
00020000
00000000
00000000
00000000
,
00000000
03330000
00000000
00000000
;

//---------------dance-single - Expert----------------
#NOTES:
     dance-single:
     Kyzentun:
     Medium:
     7:
     0.548,0.705,0.090,0.788,0.049,325.000,10.000,88.000,0.000,26.000,14.000,0.548,0.705,0.090,0.788,0.049,325.000,10.000,88.000,0.000,26.000,14.000: // measure 1
0000
0000
0000
0000
,  // measure 2
0000
0000
0000
0000
,  // measure 3
0000
0000
0000
0000
,  // measure 4
0000
0000
0000
0000
,  // measure 5
0000
0000
0000
0000
0000
0000
0000
2000
,  // measure 6
0000
0000
3001
0000
0101
0000
0100
0200
,  // measure 7
0000
0301
1000
0100
0010
0001
0010
0001
,  // measure 8
2000
0000
0000
0000
0200
0000
0000
0020
,  // measure 9
0000
0000
0000
0000
3330
1000
0001
0020
,  // measure 10
0000
0000
0130
0000
1100
0000
1000
0002
,  // measure 11
0000
0103
0010
0100
0010
1000
0010
1000
,  // measure 12
0002
0000
0000
0000
0200
0000
0000
0020
,  // measure 13
0000
0000
0000
0000
0000
0000
0000
0000
0000
0000
0000
0000
0000
0000
0000
0333
0444
0000
0000
0000
0333
0000
0000
0000
0000
0000
0000
0000
0100
0000
0000
0000
,  // measure 14
0001
0010
0000
0010
0002
0203
2300
3200
,  // measure 15
0000
0320
0230
0000
0300
0020
2030
3001
,  // measure 16
0000
0002
0023
0032
2003
3020
0032
0023
,  // measure 17
0000
0000
0000
0000
0400
0332
2003
3020
,  // measure 18
0230
2300
3200
0302
0203
0320
2030
3002
,  // measure 19
0000
0023
0032
0000
0000
0000
0000
0003
,  // measure 20
2000
0000
0000
0000
0002
0000
0000
0020
,  // measure 21
0000
0000
0000
0000
0000
0000
0000
0000
0000
0000
0000
0000
0000
0000
0000
3033
4044
0000
0000
0000
3033
0000
0000
0000
2000
0000
0000
0000
3200
0000
0000
0000
,  // measure 22
0320
0000
0032
0103
0000
0002
0200
0000
,  // measure 23
0000
0000
0000
0010
0010
2000
0000
3010
,  // measure 24
0020
1000
0000
1000
,  // measure 25
0000
0000
0000
0000
0000
0000
0000
0000
1000
0000
0000
0000
0000
0000
0000
0000
0000
0333
4444
0000
3333
0000
0000
0000
0000
0000
0000
0000
0000
0000
0000
0000
,  // measure 26
0001
1000
0100
0010
0100
1000
0010
1000
,  // measure 27
0200
0000
0000
0000
0000
0000
0000
0300
0100
0000
0010
0000
0100
0000
1000
0000
,  // measure 28
0001
1000
0100
0010
0100
0010
0001
0010
,  // measure 29
0100
1000
0010
1000
0100
0010
0100
1000
,  // measure 30
0001
1000
0010
0100
0010
1000
0100
1000
,  // measure 31
0020
0030
0000
0000
0010
0100
0010
1000
,  // measure 32
0002
0003
1000
0100
0000
0100
0000
0100
,  // measure 33
0000
1000
0001
0100
0001
0000
0010
0001
,  // measure 34
1000
0000
0010
0000
0000
0000
0010
0000
0100
0000
0010
1000
0000
0000
0000
0000
,  // measure 35
0001
0000
0010
0000
0100
0000
0010
0000
0001
0000
1000
0010
0000
0000
0000
0000
,  // measure 36
1000
0100
0010
0100
0001
0100
1000
0100
,  // measure 37
0000
0100
1000
0010
0000
0000
0000
0010
,  // measure 38
0100
0000
1000
0000
0100
0000
0001
0000
1000
0000
0010
0100
0000
0000
0010
0000
,  // measure 39
0100
0000
0010
0000
0001
0000
0010
0000
1000
0000
0001
0010
0000
0000
0010
0000
,  // measure 40
0010
0000
0001
0001
0000
2000
0000
0200
,  // measure 41
0000
0000
0000
0000
0010
0000
0000
0000
0010
0000
0000
0000
0010
0000
0000
0000
0020
0000
0000
0000
0000
0000
0030
3300
1210
0000
0000
0000
0000
0000
0000
0000
,  // measure 42
0000
0000
1300
0000
1001
0000
0001
0002
,  // measure 43
0000
0013
0001
0100
0000
0100
0010
2000
,  // measure 44
0000
0000
3001
0000
0011
0000
0001
0002
,  // measure 45
0000
0103
1000
0100
0000
0000
0000
0100
,  // measure 46
0010
0100
0001
0010
0002
0003
0000
0010
,  // measure 47
0100
1000
0010
0100
0010
0000
0000
0100
,  // measure 48
0200
0000
0302
0000
1003
0100
1000
0200
,  // measure 49
0000
0310
0010
0000
0000
0010
0001
0200
,  // measure 50
0000
0000
0310
0000
1010
0000
1000
2000
,  // measure 51
0000
3010
0100
0001
0000
0001
0010
0200
,  // measure 52
0000
0000
1300
0000
0011
0000
0010
0020
,  // measure 53
0000
0230
0000
2300
0000
3100
1000
0002
,  // measure 54
0000
0003
0000
0001
0100
1000
0100
0020
,  // measure 55
0000
0000
1030
0000
0002
0000
0000
0000
1003
0000
0010
0000
0100
0001
0000
0001
,  // measure 56
0000
0100
0010
1000
0001
0010
0001
0002
,  // measure 57
0000
1003
4000
0000
3400
0000
0340
0000
,  // measure 58
0032
0000
0000
0000
2000
0000
0000
0020
,  // measure 59
0000
0000
0000
0000
3033
0000
0001
0100
,  // measure 60
0010
0000
0010
0000
0010
0100
0001
0020
,  // measure 61
0000
0130
2000
0000
0000
0000
3000
0001
,  // measure 62
0000
0001
0000
0001
1000
0010
0100
0010
,  // measure 63
1000
0000
0001
0000
0010
0001
0000
0010
0001
0000
0010
0001
0000
0010
0001
0000
,  // measure 64
0000
0010
0001
1000
0001
0100
0010
0200
,  // measure 65
0000
0310
2000
0000
0000
3000
0020
0230
,  // measure 66
0302
0000
2003
3010
0000
2000
0200
0000
,  // measure 67
0000
0000
0000
0010
0010
0002
0000
0013
,  // measure 68
0020
0000
0000
0000
,  // measure 69
0000
0000
3330
0000
;
