#TITLE:Freeze;
#SUBTITLE:Tales of Phantasia OC Remix;
#ARTIST:Spongemop;
#TITLETRANSLIT:;
#SUBTITLETRANSLIT:;
#ARTISTTRANSLIT:;
#GENRE:Game;
#CREDIT:Steps, Kyzentun - Sync, x0_000;
#BANNER:;
#BACKGROUND:freeze-bg.png;
#LYRICSPATH:;
#CDTITLE:cdtitle.png;
#MUSIC:Tales_of_Phantasia_Freeze_OC_ReMix.ogg;
#OFFSET:-0.610;
#SAMPLESTART:60.009;
#SAMPLELENGTH:10.000;
#SELECTABLE:YES;
#BPMS:0.000=72.494;
#STOPS:;
#TIMESIGNATURES:0.000=4=4
;
#BGCHANGES:;
#KEYSOUNDS:;

//---------------dance-single - Kyzentun----------------
#NOTES:
     dance-single:
     Kyzentun:
     Hard:
     7:
     0.526,0.547,0.000,0.702,1.000,394.000,0.000,93.000,81.000,0.000,0.000,0.526,0.547,0.000,0.702,1.000,394.000,0.000,93.000,81.000,0.000,0.000:
0000
0000
M000
0000
0000
0000
0000
0000
M000
0000
0000
0000
,
0000
0000
M000
0000
0000
0000
0000
0000
M000
0000
0000
0000
,
0010
0001
M010
0001
0100
0010
1000
0010
1M00
0010
0100
0001
,
0100
0010
010M
0010
1000
0100
0010
0001
M010
0001
1000
0010
,
1000
1000
010M
0100
0010
0010
0001
0001
1M00
0010
0100
0001
,
1000
0000
010M
0000
0010
0000
0001
0000
M000
0000
0000
0000
,
1000
0100
10M0
0100
0010
0001
0010
0100
100M
0001
0100
0001
,
1000
0000
0000
0000
0100
0000
0000
0000
001M
0000
0000
0000
0100
0000
0000
0000
1000
0000
0000
0000
0001
0000
0000
0000
0010
0000
0000
0000
0000
0000
0000
0000
M100
0000
0000
0000
0000
0000
0000
0000
0010
0000
0000
0000
0000
0000
0001
0010
,
0001
0000
0M00
0000
0000
1000
0010
1000
001M
0100
0001
0010
,
0100
0000
M010
0000
0001
0000
1000
0000
0M00
0000
0000
0000
,
0002
0000
M203
0000
0320
0000
2030
0000
320M
0000
0000
0000
,
0320
0000
M000
0000
0000
0000
0000
0000
000M
0000
0000
0000
,
M130
0010
0100
1000
0001
1000
001M
0100
0010
1000
0001
1000
,
010M
0010
0100
1000
0001
1000
001M
0100
0010
1000
0100
1000
,
0M01
0010
0100
1000
0100
0010
M001
0100
0010
0100
1000
0100
,
001M
1000
0001
0010
0100
1000
010M
0010
0100
0001
0100
1000
,
00M1
0100
0010
1000
0001
1000
001M
0100
1000
0100
0010
1000
,
0M02
0013
0010
0020
0031
0001
0M02
0103
0100
0200
0310
0001
,
M020
0130
1000
0200
0301
0010
M002
0013
1000
2000
3010
0001
,
0M20
0130
0001
0100
1000
0100
M001
0100
1000
0100
0001
0100
,
200M
3010
0100
0001
0001
0001
0M02
1003
1000
0010
0010
0010
,
1000
1000
1M00
0010
0100
0010
1000
1000
10M0
0100
0010
0100
,
1000
0010
1000
0100
10M0
0010
1000
0100
1000
0010
1000
0100
,
0020
0031
M020
0031
2000
3100
0020
0031
2M00
3010
0200
0310
,
2000
0000
3001
0000
M020
0000
0130
0000
0002
0003
0001
0000
0200
0000
1300
0000
020M
0000
1300
0000
0010
0000
0100
0000
,
0002
0000
0013
0000
M200
0000
0310
0000
0002
0000
1003
0000
0020
0000
1030
0000
020M
0000
1300
0000
0200
0300
0100
0000
,
0002
0003
0001
0000
M200
0000
0310
0000
0002
0000
1003
0000
0020
0000
1030
0000
002M
0000
0130
0000
0002
0000
0103
0000
,
0002
0000
1003
0000
010M
0000
0010
0000
2000
3000
1000
0000
0020
0000
0130
0000
M010
0000
0100
0000
0002
0003
0002
0000
,
0203
0310
0M01
1000
0200
0320
0031
1000
001M
0100
0020
1030
,
0020
0130
002M
1030
0200
0310
0200
1300
020M
0310
0200
1300
,
0002
0000
0013
0000
0M02
0000
1003
0000
0020
0030
0010
0000
2000
0000
3100
0000
200M
0000
3010
0000
0100
0000
0001
0000
,
0020
0000
0031
0000
20M0
0000
3100
0000
0020
0000
0130
0000
2000
0000
3001
0000
0M20
0000
0031
0000
0020
0030
0010
0000
,
0200
0300
0100
0000
002M
0000
0130
0000
2000
0000
3100
0000
2000
0000
3010
0000
020M
0000
0310
0000
0200
0000
0310
0000
,
2000
0000
3100
0000
001M
0000
0100
0000
0020
0030
0010
0000
0002
0000
0103
0000
00M2
0000
1003
0000
0200
0300
0100
0000
,
0020
0031
M010
0010
0200
2300
3002
0103
002M
1030
0020
1030
,
0002
0023
0M32
2003
3020
0130
0001
1000
02M0
1300
0002
0013
,
0200
0310
M001
0010
0100
0010
0001
0100
M010
0100
0001
0100
,
0020
0130
00M1
1000
0100
1000
0001
0100
0001
1000
0100
0010
,
0002
0000
0000
0000
0000
0000
0000
0000
0000
0000
0000
0000
0003
0000
0000
0000
0000
0000
0000
0000
0000
M000
0M00
00M0
,
000M
00M0
0M00
M000
0000
0000
0000
0000
0000
0000
0000
0000
0000
0000
0000
0000
0000
0000
0000
0000
0000
0000
0000
0000
;

//---------------dance-single - Kyzentun----------------
#NOTES:
     dance-single:
     Kyzentun:
     Beginner:
     1:
     0.002,0.029,0.000,0.008,0.000,1.000,0.000,1.000,0.000,0.000,0.000,0.002,0.029,0.000,0.008,0.000,1.000,0.000,1.000,0.000,0.000,0.000:
0020
0000
0000
0000
,
0000
0000
0000
0000
,
0000
0000
0000
0000
,
0000
0000
0000
0000
,
0000
0000
0000
0000
,
0000
0000
0000
0000
,
0000
0000
0000
0000
,
0000
0000
0000
0000
,
0000
0000
0000
0000
,
0000
0000
0000
0000
,
0000
0000
0000
0000
,
0000
0000
0000
0000
,
0000
0000
0000
0000
,
0000
0000
0000
0000
,
0000
0000
0000
0000
,
0000
0000
0000
0000
,
0000
0000
0000
0000
,
0000
0000
0000
0000
,
0000
0000
0000
0000
,
0000
0000
0000
0000
,
0000
0000
0000
0000
,
0000
0000
0000
0000
,
0000
0000
0000
0000
,
0000
0000
0000
0000
,
0000
0000
0000
0000
,
0000
0000
0000
0000
,
0000
0000
0000
0000
,
0000
0000
0000
0000
,
0000
0000
0000
0000
,
0000
0000
0000
0000
,
0000
0000
0000
0000
,
0000
0000
0000
0000
,
0000
0000
0000
0000
,
0000
0000
0000
0000
,
0000
0000
0000
0000
,
0000
0000
0000
0000
,
0000
0000
0000
0000
,
0000
0000
0000
0000
,
0000
0030
0000
0000
;

//---------------dance-single - Kyzentun----------------
#NOTES:
     dance-single:
     Kyzentun:
     Easy:
     1:
     0.009,0.116,0.008,0.030,0.000,1.000,1.000,4.000,0.000,1.000,0.000,0.009,0.116,0.008,0.030,0.000,1.000,1.000,4.000,0.000,1.000,0.000:
2222
0000
0000
0000
,
0000
0000
0000
0000
,
0000
0000
0000
0000
,
0000
0000
0000
0000
,
0000
0000
0000
0000
,
0000
0000
0000
0000
,
0000
0000
0000
0000
,
0000
0000
0000
0000
,
0000
0000
0000
0000
,
0000
0000
0000
0000
,
0000
0000
0000
0000
,
0000
0000
0000
0000
,
0000
0000
0000
0000
,
0000
0000
0000
0000
,
0000
0000
0000
0000
,
0000
0000
0000
0000
,
0000
0000
0000
0000
,
0000
0000
0000
0000
,
0000
0000
0000
0000
,
0000
0000
0000
0000
,
0000
0000
0000
0000
,
0000
0000
0000
0000
,
0000
0000
0000
0000
,
0000
0000
0000
0000
,
0000
0000
0000
0000
,
0000
0000
0000
0000
,
0000
0000
0000
0000
,
0000
0000
0000
0000
,
0000
0000
0000
0000
,
0000
0000
0000
0000
,
0000
0000
0000
0000
,
0000
0000
0000
0000
,
0000
0000
0000
0000
,
0000
0000
0000
0000
,
0000
0000
0000
0000
,
0000
0000
0000
0000
,
0000
0000
0000
0000
,
0000
0000
0000
0000
,
0000
3333
0000
0000
;

//---------------dance-single - Doublestep----------------
#NOTES:
     dance-single:
     Doublestep:
     Edit:
     8:
     0.526,0.547,0.000,0.702,1.000,394.000,0.000,93.000,81.000,0.000,0.000,0.526,0.547,0.000,0.702,1.000,394.000,0.000,93.000,81.000,0.000,0.000: // measure 1
0000
0000
M000
0000
0000
0000
0000
0000
M000
0000
0000
0000
,  // measure 2
0000
0000
M000
0000
0000
0000
0000
0000
M000
0000
0000
0000
,  // measure 3
0010
0001
M010
0001
0100
0010
1000
0010
1M00
0010
0100
0001
,  // measure 4
0100
0010
010M
0010
1000
0100
0010
0001
M010
0001
1000
0010
,  // measure 5
1000
1000
010M
0100
0010
0010
0001
0001
1M00
0010
0100
0001
,  // measure 6
1000
0000
010M
0000
0010
0000
0001
0000
M000
0000
0000
0000
,  // measure 7
1000
0100
10M0
0100
0010
0001
0010
0100
100M
0001
0100
0001
,  // measure 8
1000
0000
0000
0000
0100
0000
0000
0000
001M
0000
0000
0000
0100
0000
0000
0000
1000
0000
0000
0000
0001
0000
0000
0000
0010
0000
0000
0000
0000
0000
0000
0000
M100
0000
0000
0000
0000
0000
0000
0000
0010
0000
0000
0000
0000
0000
0001
0010
,  // measure 9
0001
0000
0M00
0000
0000
1000
0010
1000
001M
0100
0001
0010
,  // measure 10
0100
0000
M010
0000
0001
0000
1000
0000
0M00
0000
0000
0000
,  // measure 11
0002
0000
M203
0000
0320
0000
2030
0000
320M
0000
0000
0000
,  // measure 12
0320
0000
M000
0000
0000
0000
0000
0000
000M
0000
0000
0000
,  // measure 13
M130
0010
0100
1000
0001
1000
001M
0100
0010
1000
0001
1000
,  // measure 14
010M
0010
0100
1000
0001
1000
001M
0100
0010
1000
0100
1000
,  // measure 15
0M01
0010
0100
1000
0100
0010
M001
0100
0010
0100
1000
0100
,  // measure 16
001M
1000
0001
0010
0100
1000
010M
0010
0100
0001
0100
1000
,  // measure 17
00M1
0100
0010
1000
0001
1000
001M
0100
1000
0100
0010
1000
,  // measure 18
0M02
0010
0010
0023
0001
0001
M032
0100
0100
0203
0010
0001
,  // measure 19
032M
0100
1000
0230
0001
0010
M302
0010
1000
2003
0010
0001
,  // measure 20
302M
0100
0001
0100
1000
0100
M001
0100
1000
0100
0001
0100
,  // measure 21
2M30
0010
0100
0001
0001
0001
3M02
1000
1000
0010
0010
0010
,  // measure 22
1000
1000
1M00
0010
0100
0010
1000
1000
10M0
0100
0010
0100
,  // measure 23
1000
0010
1000
0100
10M0
0010
1000
0100
1000
0010
1000
0100
,  // measure 24
0023
0001
023M
0010
2300
0100
3020
0001
203M
0010
3200
0010
,  // measure 25
2300
0001
302M
0100
2030
0010
3020
1000
203M
0100
0010
0100
,  // measure 26
3002
0010
02M3
0010
0302
1000
0023
1000
M230
1000
0320
0100
,  // measure 27
0032
0100
M203
0010
0302
1000
0023
0100
023M
1000
2300
0100
,  // measure 28
3002
0100
1M00
0010
2003
0001
3020
0100
0M01
0100
0230
2300
,  // measure 29
3200
0010
00M1
1000
2300
3002
0100
1000
M010
0100
0023
0100
,  // measure 30
0032
0100
2M03
0001
3200
0010
0320
1000
M230
0010
0320
0001
,  // measure 31
0032
0010
02M3
1000
0320
0100
2030
0100
320M
1000
0010
0001
,  // measure 32
0320
0001
203M
0010
3020
0100
0032
0010
0M23
0001
0230
0010
,  // measure 33
2300
0100
3M20
0100
2030
0100
3002
0010
02M3
0010
0302
0010
,  // measure 34
2003
0100
0M01
0010
3020
0100
0230
1000
M302
1000
0203
1000
,  // measure 35
0320
0100
M001
0001
0230
0320
2030
0100
3M02
1000
0023
0001
,  // measure 36
0032
0023
0M32
2003
3020
0100
0001
1000
M230
1000
0302
0010
,  // measure 37
0203
0010
00M1
0010
1000
0010
0001
1000
M010
0001
0010
1000
,  // measure 38
0320
0100
0M01
1000
0100
1000
0001
0100
0001
1000
0100
1000
,  // measure 39
0230
0000
0000
0000
0000
0000
0000
0000
0000
0000
0000
0000
0300
0000
0000
0000
0000
0000
0000
0000
0000
M000
0M00
00M0
,  // measure 40
000M
00M0
0M00
M000
0000
0000
0000
0000
0000
0000
0000
0000
0000
0000
0000
0000
0000
0000
0000
0000
0000
0000
0000
0000
;
