#TITLE:Forever;
#SUBTITLE:(short);
#ARTIST:The Veronicas;
#TITLETRANSLIT:;
#SUBTITLETRANSLIT:;
#ARTISTTRANSLIT:;
#GENRE:;
#CREDIT:;
#BANNER:;
#BACKGROUND:;
#LYRICSPATH:;
#CDTITLE:cdtitle.png;
#MUSIC:01 The Veronicas - 4ever.ogg;
#OFFSET:0.159;
#SAMPLESTART:100.006;
#SAMPLELENGTH:12.000;
#SELECTABLE:YES;
#BPMS:0.000=73.002,9.000=146.006,136.000=73.002,140.000=146.005,323.000=73.002;
#STOPS:;
#TIMESIGNATURES:0.000=4=4
;
#BGCHANGES:;
#KEYSOUNDS:;

//---------------dance-single - Blank----------------
#NOTES:
     dance-single:
     Blank:
     Hard:
     9:
     0.548,0.665,0.072,0.265,0.132,489.000,10.000,37.000,54.000,0.000,0.000,0.548,0.665,0.072,0.265,0.132,489.000,10.000,37.000,54.000,0.000,0.000: // measure 1
0000
0000
00M0
0000
00M0
0000
0M00
0M00
0000
000M
0000
000M
0000
000M
0000
M000
,  // measure 2
M000
M000
M000
0000
0M00
0000
00M0
00M0
0000
0M00
0000
0M00
0000
0M00
0000
M000
,  // measure 3
M000
M000
M000
0000
0001
0000
0100
0000
0010
0000
0100
0000
0001
0000
1000
0000
,  // measure 4
0200
0000
0310
0100
0000
1000
1000
1000
,  // measure 5
1000
0000
0010
0100
0001
1000
0100
1000
,  // measure 6
0001
0000
0100
0010
0000
0010
0010
0010
,  // measure 7
0010
0000
0100
1000
0100
0001
1000
0100
,  // measure 8
0020
0000
0130
0010
0000
0001
1000
0010
,  // measure 9
0100
0000
0100
0000
0000
0010
1000
0002
,  // measure 10
0000
0103
1000
0100
0010
0000
0010
0000
,  // measure 11
1000
0000
100M
0100
0010
0100
1000
0001
,  // measure 12
0100
0000
0010
0010
0000
0100
0100
0100
,  // measure 13
0100
001M
0100
0001
,  // measure 14
0010
0000
0100
1000
0000
1000
1000
1000
,  // measure 15
1000
0000
0M01
0010
2000
0000
3010
0100
,  // measure 16
0020
0000
0031
1000
0000
0010
0100
0001
,  // measure 17
0100
0000
M100
0000
0100
0001
1000
0002
,  // measure 18
0000
0013
0100
0010
0001
0001
0010
0010
,  // measure 19
1100
0100
0001
0100
0010
0001
0100
0010
,  // measure 20
0001
0000
0001
0010
0000
0100
0010
0100
,  // measure 21
0010
0100
0001
0100
0010
0001
0010
1000
,  // measure 22
0100
0000
0100
0010
0000
0010
0000
0010
,  // measure 23
0100
0010
0100
0010
1000
0010
0100
1000
,  // measure 24
0001
0000
0100
0010
0000
0010
0100
0010
,  // measure 25
0100
1000
0100
0000
0001
0000
1000
0000
,  // measure 26
0100
0000
0000
0000
0010
0000
0010
0001
0010
0000
0001
1000
0001
1000
0001
1000
,  // measure 27
0001
0000
0100
0000
0001
0000
0100
0000
0020
0000
0100
0030
0010
0000
2000
0000
,  // measure 28
0010
3000
1000
0000
0010
0000
1000
0000
0010
0000
0100
0000
0000
0000
0001
0000
,  // measure 29
0000
0000
0010
0000
0001
0000
0010
0000
0200
0000
0010
0300
0100
0000
2000
0000
,  // measure 30
0100
3000
1000
0000
0100
0000
1000
0000
0100
0000
1000
0000
0001
0000
0000
0000
,  // measure 31
1000
0100
0010
0100
1000
0000
0001
0010
,  // measure 32
0100
0010
0001
0000
1000
0000
0001
0010
,  // measure 33
0000
0020
0100
0000
0000
0000
0100
0000
,  // measure 34
0230
0000
1000
0000
0000
1300
0000
1000
,  // measure 35
000M
0000
000M
0000
0M00
0M00
0000
00M0
0000
00M0
0000
00M0
0000
0M00
0M00
0M00
,  // measure 36
0M00
0001
1M00
0010
0001
0010
0100
0000
,  // measure 37
0001
0010
1000
0020
0000
0130
0100
0100
,  // measure 38
0100
0000
001M
1000
0010
0001
0100
0000
,  // measure 39
0010
0000
0100
0100
0000
0100
0000
0000
,  // measure 40
0002
0100
M100
0100
0203
0010
0010
0010
,  // measure 41
0320
0000
1000
1000
0030
0000
0001
0001
,  // measure 42
0000
0000
M100
0000
0100
0100
0010
0100
,  // measure 43
0000
0100
0000
0100
0001
0000
0001
0000
,  // measure 44
0001
0000
00M1
1000
0100
0001
1000
0010
,  // measure 45
0001
0100
1000
0100
0000
0010
0010
0010
,  // measure 46
0010
100M
0001
0010
,  // measure 47
0001
0000
0100
0000
0010
1000
1000
1000
,  // measure 48
1000
0000
001M
0100
0001
0000
0010
0100
,  // measure 49
1000
0000
0001
0001
0000
0100
0010
1000
,  // measure 50
0000
0000
0M01
0000
0000
1000
0100
0020
,  // measure 51
0000
0130
1000
0002
0010
0013
0100
0100
,  // measure 52
1001
0001
0010
1000
0010
0100
0001
0100
,  // measure 53
1000
0000
0000
0000
0001
0000
0100
0000
0000
0000
0200
0000
0010
0300
0100
0000
,  // measure 54
0010
0100
1000
0100
0001
1000
0100
0010
,  // measure 55
1000
0000
0001
0100
0000
1000
0000
0001
,  // measure 56
1000
0001
1000
0010
0100
1000
0100
0001
,  // measure 57
1000
0000
0010
0100
0000
0100
0010
0100
,  // measure 58
0010
0000
1000
0000
0100
0000
0000
0000
0010
0000
0000
0000
0100
0000
1000
0100
,  // measure 59
1000
0000
0100
0000
0100
0000
0010
0001
0010
0001
0010
0001
0010
0001
1000
0000
,  // measure 60
1001
0000
0001
0000
0100
0000
0001
0000
2000
0000
0001
3000
1000
0000
0020
0000
,  // measure 61
1000
0030
0010
0000
1000
0000
0010
0000
1000
0000
0020
0000
0100
0030
0002
0000
,  // measure 62
0100
0003
0010
0000
0100
0000
0010
0000
2000
0000
0010
3000
1000
0000
0002
0000
,  // measure 63
1000
0003
0001
0000
1000
0000
0001
0000
1000
0000
0010
1000
0010
1000
0010
1000
,  // measure 64
0010
0100
1000
0100
0010
0000
0100
0010
,  // measure 65
0001
0010
0100
0000
0001
0000
1000
0002
,  // measure 66
0000
0000
0203
0000
0000
0000
0000
0000
0310
0000
0000
0000
1000
0000
0010
1000
,  // measure 67
0010
1000
0010
0000
0010
0000
1000
0010
1000
0010
1000
0010
1000
0000
0010
0000
,  // measure 68
0000
0000
1000
M000
0000
0010
00M0
0000
,  // measure 69
0100
0M00
0000
0001
000M
0000
1000
M000
,  // measure 70
0001
0010
0001
1000
0010
0000
0010
1000
,  // measure 71
0001
0010
0001
0000
0100
0000
0010
0000
,  // measure 72
0000
0000
0100
0M00
0000
0010
00M0
0000
,  // measure 73
1000
M000
0000
0001
000M
0000
0100
0M00
,  // measure 74
0001
0100
1000
0100
0001
0000
1000
0010
,  // measure 75
0001
0000
0010
0000
1000
0000
0000
0000
0001
0000
0000
0000
1000
0100
1000
0100
,  // measure 76
2000
0000
0001
0000
0001
0000
0001
0000
0001
0000
0001
3000
1000
0000
1000
0000
,  // measure 77
1000
1000
1000
0010
0000
0100
0000
0001
,  // measure 78
0000
0010
0000
0100
0000
0010
0000
0002
,  // measure 79
1000
1000
1000
1003
0001
0001
0001
0100
,  // measure 80
0220
0000
0000
0000
0000
0330
2002
0000
0000
0000
0000
3003
2200
0000
0000
0000
,  // measure 81
0000
3300
0202
0000
0000
0000
0000
0303
0011
0000
0110
0000
0011
0000
0000
0000
;

//---------------dance-single - Hard----------------
#NOTES:
     dance-single:
     Hard:
     Challenge:
     9:
     0.581,0.723,0.215,0.351,0.132,489.000,30.000,49.000,44.000,27.000,0.000,0.581,0.723,0.215,0.351,0.132,489.000,30.000,49.000,44.000,27.000,0.000:
0000
0000
00M0
0000
00M0
0000
0M00
0M00
0000
000M
0000
000M
0000
000M
0000
M000
,
M000
M000
M000
0000
0M00
0000
00M0
00M0
0000
0M00
0000
0M00
0000
0M00
0000
M000
,
M000
M000
M000
0000
0001
0000
0100
0000
0010
0000
0100
0000
0001
0000
1000
0000
,
0200
0000
0310
0100
0000
1000
1000
1000
,
1000
0000
0010
0100
0001
1000
0100
1000
,
0001
0000
0100
0010
0000
0010
0010
0010
,
0010
0000
0100
1000
0100
0001
1000
0100
,
0020
0000
0130
0010
0000
0001
1000
0010
,
0100
0000
0100
0000
0000
0010
1000
0002
,
0000
0103
1000
0100
0010
0000
0010
0000
,
1000
0000
100M
0100
0010
0100
1000
0001
,
0100
0000
0010
0010
0000
0100
0100
0100
,
0100
001M
0100
0001
,
0010
0000
0100
1000
0000
1000
1000
1000
,
1000
0000
0M01
0010
2000
0000
3010
0100
,
0020
0000
0031
1000
0000
0010
0100
0001
,
0100
0000
M100
0000
0100
0001
1000
0002
,
0000
0013
0100
0010
0001
0001
0010
0010
,
1100
0100
0001
0100
0010
0001
0100
0010
,
0001
0000
0001
0010
0000
0100
0010
0100
,
0010
0100
0001
0100
0010
0001
0010
1000
,
0100
0000
0100
0010
0000
0010
0000
0010
,
0100
0010
0100
0010
1000
0010
0100
1000
,
0001
0000
0100
0010
0000
0010
0100
0010
,
0100
1000
0100
0000
0001
0000
1000
0000
,
0100
0000
0000
0000
0010
0000
0010
0001
0010
0000
0001
1000
0001
1000
0001
1000
,
0001
0000
0100
0000
0001
0000
0100
0000
0020
0000
0100
0030
0010
0000
2000
0000
,
0010
3000
1000
0000
0010
0000
1000
0000
0010
0000
0100
0000
0000
0000
0001
0000
,
0000
0000
0010
0000
0001
0000
0010
0000
0200
0000
0010
0300
0100
0000
2000
0000
,
0100
3000
1000
0000
0100
0000
1000
0000
0100
0000
1000
0000
0001
0000
0000
0000
,
1100
0011
1100
0011
1100
0000
0011
1100
,
0011
1100
0011
0000
1000
0000
0001
0010
,
0000
0020
0100
0000
0000
0000
0100
0000
,
0230
0000
1000
0000
0000
1300
0000
1000
,
000M
0000
000M
0000
0M00
0M00
0000
00M0
0000
00M0
0000
00M0
0000
0M00
0M00
0M00
,
0M00
0001
1M00
0010
0001
0010
0100
0000
,
0001
0010
1000
0020
0000
0130
0100
0100
,
0100
0000
001M
1000
0010
0001
0100
0000
,
0010
0000
0100
0100
0000
0100
0000
0000
,
0002
0100
M100
0100
0203
0010
0010
0010
,
0320
0000
1000
1000
0030
0000
0001
0001
,
0000
0000
M100
0000
0100
0100
0010
0100
,
0000
0100
0000
0100
0001
0000
0001
0000
,
0001
0000
00M1
1000
0100
0001
1000
0010
,
0001
0100
1000
0100
0000
0010
0010
0010
,
0010
100M
0001
0010
,
0001
0000
0100
0000
0010
1000
1000
1000
,
1000
0000
001M
0100
0001
0000
0010
0100
,
1000
0000
0001
0001
0000
0100
0010
1000
,
0000
0000
0M01
0000
0000
1000
0100
0020
,
0000
0130
1000
0002
0010
0013
0100
0100
,
1001
0001
0010
1000
0010
0100
0001
0100
,
1000
0000
0000
0000
0001
0000
0100
0000
0000
0000
0200
0000
0010
0300
0100
0000
,
0010
0100
1000
0100
0001
1000
0100
0010
,
1000
0000
0001
0100
0000
1000
0000
0001
,
1000
0001
1000
0010
0100
1000
0100
0001
,
1000
0000
0010
0100
0000
0100
0010
0100
,
0010
0000
1000
0000
0100
0000
0000
0000
0010
0000
0000
0000
0100
0000
1000
0100
,
1000
0000
0100
0000
0100
0000
0010
0001
0010
0001
0010
0001
0010
0001
1000
0000
,
1001
0000
0001
0000
0100
0000
0001
0000
2000
0000
0001
3000
1000
0000
0020
0000
,
1000
0030
0010
0000
1000
0000
0010
0000
1000
0000
0020
0000
0100
0030
0002
0000
,
0100
0003
0010
0000
0100
0000
0010
0000
2000
0000
0010
3000
1000
0000
0002
0000
,
1000
0003
0001
0000
1000
0000
0001
0000
1000
0000
0010
1000
0010
1000
0010
1000
,
0011
1100
0011
1100
0011
0000
1100
0011
,
1100
0011
1100
0000
0001
0000
1000
0002
,
0000
0000
0200
0000
0000
0000
0000
0000
0010
0000
0000
0000
1000
0000
0010
1000
,
0010
1000
0010
0000
0010
0000
1000
0010
1000
0010
1000
0010
1000
0000
0010
0000
,
0000
0000
0020
0000
0300
2000
0000
0003
,
0200
0030
0000
0002
0000
3000
0020
0303
,
0130
0010
0001
1000
0010
0000
0010
1000
,
0001
0020
0200
0000
0001
0000
1000
0000
,
0000
0000
0002
0000
0030
2000
0003
0300
,
0002
0000
0000
0020
0000
3000
0200
0033
,
0301
0100
1000
0100
0001
0000
1000
0010
,
0001
0000
0010
0000
1000
0000
0000
0000
0001
0000
0000
0000
1000
0100
1000
0100
,
2000
0000
0001
0000
0001
0000
0001
0000
0001
0000
0001
3000
1000
0000
1000
0000
,
1000
1000
1000
0010
0000
0100
0000
0001
,
0000
0010
0000
0100
0000
0010
0000
0002
,
1000
1000
1000
1003
0001
0001
0001
0100
,
2200
0000
0000
0000
0000
3300
0022
0000
0000
0000
0000
0033
2200
0000
0000
0000
,
0000
3300
0022
0000
0000
0000
0000
0033
1100
0000
0011
0000
1100
0000
0000
0000
;
