#TITLE:Forever;
#SUBTITLE:;
#ARTIST:The Veronicas;
#TITLETRANSLIT:;
#SUBTITLETRANSLIT:;
#ARTISTTRANSLIT:;
#GENRE:;
#CREDIT:;
#BANNER:;
#BACKGROUND:;
#LYRICSPATH:;
#CDTITLE:;
#MUSIC:01 The Veronicas - 4ever.ogg;
#OFFSET:0.159;
#SAMPLESTART:100.006;
#SAMPLELENGTH:12.000;
#SELECTABLE:YES;
#BPMS:0.000=146.005;
#STOPS:;
#TIMESIGNATURES:0.000=4=4
;
#BGCHANGES:;
#KEYSOUNDS:;

//---------------dance-single - Blank----------------
#NOTES:
     dance-single:
     Blank:
     Hard:
     9:
     0.543,0.650,0.067,0.238,0.083,735.000,14.000,50.000,80.000,3.000,0.000,0.543,0.650,0.067,0.238,0.083,735.000,14.000,50.000,80.000,3.000,0.000:
0000
0000
00M0
0000
00M0
0000
0M00
0M00
,
0000
000M
0000
000M
0000
000M
0000
M000
,
M000
M000
M000
0000
0M00
0000
00M0
00M0
,
0000
0M00
0000
0M00
0000
0M00
0000
M000
,
M000
M000
M000
0000
0001
0100
0010
0100
,
0001
1000
0200
0000
0310
0100
0000
1000
,
1000
1000
1000
0000
0010
0100
0001
1000
,
0100
1000
0001
0000
0100
0010
0000
0010
,
0010
0010
0010
0000
0100
1000
0100
0001
,
1000
0100
0020
0000
0130
0010
0000
0001
,
1000
0010
0100
0000
0100
0000
0000
0010
,
1000
0002
0000
0103
1000
0100
0010
0000
,
0010
0000
1000
0000
100M
0100
0010
0100
,
1000
0001
0100
0000
0010
0010
0000
0100
,
0100
0100
0100
0000
001M
0000
0100
0000
,
0001
0000
0010
0000
0100
1000
0000
1000
,
1000
1000
1000
0000
0M01
0010
2000
0000
,
3010
0100
0020
0000
0031
1000
0000
0010
,
0100
0001
0100
0000
M100
0000
0100
0001
,
1000
0002
0000
0013
0100
0010
0001
0001
,
0010
0010
1100
0100
0001
0100
0010
0001
,
0100
0010
0001
0000
0001
0010
0000
0100
,
0010
0100
0010
0100
0001
0100
0010
0001
,
0010
1000
0100
0000
0100
0010
0000
0010
,
0000
0010
0100
0010
0100
0010
1000
0010
,
0100
1000
0001
0000
0100
0010
0000
0010
,
0100
0010
0100
1000
0100
0000
0001
0000
,
1000
0000
0000
0000
0100
0000
0000
0000
0010
0000
0010
0001
0010
0000
0001
1000
,
0001
1000
0001
1000
0001
0000
0100
0000
0001
0000
0100
0000
0020
0000
0100
0030
,
0010
0000
2000
0000
0010
3000
1000
0000
0010
0000
1000
0000
0010
0000
0100
0000
,
0000
0000
0001
0000
0000
0000
0010
0000
0001
0000
0010
0000
0200
0000
0010
0300
,
0100
0000
2000
0000
0100
3000
1000
0000
0100
0000
1000
0000
0100
0000
1000
0000
,
0001
0000
1000
0100
0010
0100
1000
0000
,
0001
0010
0100
0010
0001
0000
1000
0000
,
0001
0010
0000
0020
0100
0000
0000
0000
,
0100
0000
0230
0000
1000
0000
0000
1300
,
0000
1000
000M
0000
000M
0000
0M00
0M00
,
0000
00M0
0000
00M0
0000
00M0
0000
0M00
,
0M00
0M00
0M00
0001
1M00
0010
0001
0010
,
0100
0000
0001
0010
1000
0020
0000
0130
,
0100
0100
0100
0000
001M
1000
0010
0001
,
0100
0000
0010
0000
0100
0100
0000
0100
,
0000
0000
0002
0100
M100
0100
0203
0010
,
0010
0010
0320
0000
1000
1000
0030
0000
,
0001
0001
0000
0000
M100
0000
0100
0100
,
0010
0100
0000
0100
0000
0100
0001
0000
,
0001
0000
0001
0000
00M1
1000
0100
0001
,
1000
0010
0001
0100
1000
0100
0000
0010
,
0010
0010
0010
0000
100M
0000
0001
0000
,
0010
0000
0001
0000
0100
0000
0010
1000
,
1000
1000
1000
0000
001M
0100
0001
0000
,
0010
0100
1000
0000
0001
0001
0000
0100
,
0010
1000
0000
0000
0M01
0000
0000
1000
,
0100
0020
0000
0130
1000
0002
0010
0013
,
0100
0100
1001
0001
0010
1000
0010
0100
,
0001
0100
1000
0000
0001
0100
0000
0200
,
0010
0300
0100
0000
0010
0000
0100
0000
1000
0000
0100
0000
0001
0000
1000
0000
,
0100
0010
1000
0000
0001
0100
0000
1000
,
0000
0001
1000
0001
1000
0010
0100
1000
,
0100
0001
1000
0000
0010
0100
0000
0100
,
0010
0100
0010
1000
0100
0000
0010
0000
,
0100
0000
1000
0100
1000
0000
0100
0000
0100
0000
0010
0001
0010
0001
0010
0001
,
0010
0001
1000
0000
1001
0000
0001
0000
0100
0000
0001
0000
2000
0000
0001
3000
,
1000
0000
0020
0000
1000
0030
0010
0000
1000
0000
0010
0000
1000
0000
0020
0000
,
0100
0030
0002
0000
0100
0003
0010
0000
0100
0000
0010
0000
2000
0000
0010
3000
,
1000
0000
0002
0000
1000
0003
0001
0000
1000
0000
0001
0000
1000
0000
0010
1000
,
0010
1000
0010
1000
0010
0000
0100
0000
1000
0000
0100
0000
0010
0000
0000
0000
,
0100
0010
0001
0010
0100
0000
0001
0000
,
1000
0002
0000
0203
0000
0000
0310
0000
,
1000
0000
0010
1000
0010
1000
0010
0000
0010
0000
1000
0010
1000
0010
1000
0010
,
1000
0010
0000
0000
1000
M000
0000
0010
,
00M0
0000
0100
0M00
0000
0001
000M
0000
,
1000
M000
0001
0010
0001
1000
0010
0000
,
0010
1000
0001
0010
0001
0000
0100
0000
,
0010
0000
0000
0000
0100
0M00
0000
0010
,
00M0
0000
1000
M000
0000
0001
000M
0000
,
0100
0M00
0001
0100
1000
0100
0001
0000
,
1000
0010
0001
0010
1000
0000
0001
0000
,
1000
0100
1000
0100
2000
0000
0001
0000
0001
0000
0001
0000
0001
0000
0001
3000
,
1000
1000
1000
1000
1000
0010
0000
0100
,
0000
0001
0000
0010
0000
0100
0000
0010
,
0000
0002
1000
1000
1000
1003
0001
0001
,
0001
0000
0100
0000
0220
0000
0000
0000
0000
0330
2002
0000
0000
0000
0000
3003
,
2200
0000
0000
0000
0000
3300
0202
0000
0000
0000
0000
0303
0011
0000
0110
0000
,
0011
0000
0010
0000
0010
0000
0100
0100
,
0000
0001
0000
0001
0000
0001
0000
1000
,
1000
1000
1000
0000
0010
0000
0100
0100
,
0000
0001
0000
0001
0000
0001
0000
0010
,
0010
0010
0M10
0000
M001
0000
01M0
01M0
,
0000
0M10
0000
0M10
0000
0M10
0000
100M
,
100M
100M
100M
0000
01M0
0000
0M10
0M10
,
0000
0000
M001
0000
0000
0000
M001
0000
0000
0000
M001
0000
0100
0000
010M
0010
,
010M
0010
010M
0000
101M
0000
1000
0000
0001
0000
0100
0000
0001
0000
0010
0000
,
0100
1000
0100
0000
0010
0010
0000
0100
,
0010
0100
0010
0100
0010
0001
1000
0010
,
1000
0001
0010
0000
0100
0100
0000
1000
,
0000
0010
1000
0010
1000
0001
0100
0001
,
1000
0100
1000
0000
0001
0001
0000
0100
,
0001
0100
0001
1000
0010
0000
0100
0000
,
1000
0000
0100
1000
0100
0010
0100
0000
0100
0000
0001
0010
0001
0010
0001
0000
,
0010
1000
0010
0100
0010
0000
0010
0000
0010
0000
0010
0000
M010
0000
0010
0000
,
0001
0M01
0001
0001
0001
0001
0001
0002
,
0000
1003
1000
1000
1000
1000
10M0
1000
,
0010
001M
0010
0010
0010
0010
0010
0010
,
0100
0000
0101
0001
0010
1000
0010
0000
,
0100
0001
0100
1000
0010
0000
0001
0000
,
0010
0200
0000
0302
0000
0000
1003
0000
,
0010
0000
0000
0000
1000
0000
0000
0000
0010
1000
0010
1000
0010
1000
0010
1000
,
0010
0000
0101
0100
1000
0100
0010
0001
,
1000
0100
0001
0000
0100
0100
0000
0010
,
0100
0010
0100
0010
1000
0010
0001
1000
,
0100
0010
0001
0000
0010
0010
0000
0100
,
0000
0001
0100
0001
0100
0010
1000
0100
,
0010
1000
0010
0000
0001
0001
0000
0100
,
0010
1000
0000
0100
0100
0000
0001
0000
,
0100
0000
0000
0000
0010
0001
0010
0000
0010
0000
0001
1000
0001
0000
0001
0000
,
1000
0010
1000
0010
1000
0000
0000
0000
0001
0000
0100
0000
0020
0000
0000
0000
,
0000
2030
0000
0000
3000
1010
0000
0002
,
0000
2003
0000
3002
0000
0003
0020
0000
,
0000
0230
0000
0000
0000
0000
0300
0000
,
1000
0000
1000
0100
0001
1000
0010
0000
,
0001
0100
1000
0001
0010
0000
1000
0000
,
0001
0002
0000
0200
0000
0000
0000
2000
,
0000
0000
0000
0000
0000
0000
0000
0010
,
0000
3010
M303
0000
0000
0000
0000
0000
;

//---------------dance-single - Hard----------------
#NOTES:
     dance-single:
     Hard:
     Challenge:
     9:
     0.566,0.738,0.209,0.304,0.083,725.000,44.000,64.000,90.000,49.000,0.000,0.566,0.738,0.209,0.304,0.083,725.000,44.000,64.000,90.000,49.000,0.000:
0000
0000
00M0
0000
00M0
0000
0M00
0M00
,
0000
000M
0000
000M
0000
000M
0000
M000
,
M000
M000
M000
0000
0M00
0000
00M0
00M0
,
0000
0M00
0000
0M00
0000
0M00
0000
M000
,
M000
M000
M000
0000
0001
0100
0010
0100
,
0001
1000
0200
0000
0310
0100
0000
1000
,
1000
1000
1000
0000
0010
0100
0001
1000
,
0100
1000
0001
0000
0100
0010
0000
0010
,
0010
0010
0010
0000
0100
1000
0100
0001
,
1000
0100
0020
0000
0130
0010
0000
0001
,
1000
0010
0100
0000
0100
0000
0000
0010
,
1000
0002
0000
0103
1000
0100
0010
0000
,
0010
0000
1000
0000
100M
0100
0010
0100
,
1000
0001
0100
0000
0010
0010
0000
0100
,
0100
0100
0100
0000
001M
0000
0100
0000
,
0001
0000
0010
0000
0100
1000
0000
1000
,
1000
1000
1000
0000
0M01
0010
2000
0000
,
3010
0100
0020
0000
0031
1000
0000
0010
,
0100
0001
0100
0000
M100
0000
0100
0001
,
1000
0002
0000
0013
0100
0010
0001
0001
,
0010
0010
1100
0100
0001
0100
0010
0001
,
0100
0010
0001
0000
0001
0010
0000
0100
,
0010
0100
0010
0100
0001
0100
0010
0001
,
0010
1000
0100
0000
0100
0010
0000
0010
,
0000
0010
0100
0010
0100
0010
1000
0010
,
0100
1000
0001
0000
0100
0010
0000
0010
,
0100
0010
0100
1000
0100
0000
0001
0000
,
1000
0000
0000
0000
0100
0000
0000
0000
0010
0000
0010
0001
0010
0000
0001
1000
,
0001
1000
0001
1000
0001
0000
0100
0000
0001
0000
0100
0000
0020
0000
0100
0030
,
0010
0000
2000
0000
0010
3000
1000
0000
0010
0000
1000
0000
0010
0000
0100
0000
,
0000
0000
0001
0000
0000
0000
0010
0000
0001
0000
0010
0000
0200
0000
0010
0300
,
0100
0000
2000
0000
0100
3000
1000
0000
0100
0000
1000
0000
0100
0000
1000
0000
,
0001
0000
1100
0011
1100
0011
1100
0000
,
0011
1100
0011
1100
0011
0000
1000
0000
,
0001
0010
0000
0020
0100
0000
0000
0000
,
0100
0000
0230
0000
1000
0000
0000
1300
,
0000
1000
000M
0000
000M
0000
0M00
0M00
,
0000
00M0
0000
00M0
0000
00M0
0000
0M00
,
0M00
0M00
0M00
0001
1M00
0010
0001
0010
,
0100
0000
0001
0010
1000
0020
0000
0130
,
0100
0100
0100
0000
001M
1000
0010
0001
,
0100
0000
0010
0000
0100
0100
0000
0100
,
0000
0000
0002
0100
M100
0100
0203
0010
,
0010
0010
0320
0000
1000
1000
0030
0000
,
0001
0001
0000
0000
M100
0000
0100
0100
,
0010
0100
0000
0100
0000
0100
0001
0000
,
0001
0000
0001
0000
00M1
1000
0100
0001
,
1000
0010
0001
0100
1000
0100
0000
0010
,
0010
0010
0010
0000
100M
0000
0001
0000
,
0010
0000
0001
0000
0100
0000
0010
1000
,
1000
1000
1000
0000
001M
0100
0001
0000
,
0010
0100
1000
0000
0001
0001
0000
0100
,
0010
1000
0000
0000
0M01
0000
0000
1000
,
0100
0020
0000
0130
1000
0002
0010
0013
,
0100
0100
1001
0001
0010
1000
0010
0100
,
0001
0100
1000
0000
0001
0100
0000
0200
,
0010
0300
0100
0000
0010
0000
0100
0000
1000
0000
0100
0000
0001
0000
1000
0000
,
0100
0010
1000
0000
0001
0100
0000
1000
,
0000
0001
1000
0001
1000
0010
0100
1000
,
0100
0001
1000
0000
0010
0100
0000
0100
,
0010
0100
0010
1000
0100
0000
0010
0000
,
0100
0000
1000
0100
1000
0000
0100
0000
0100
0000
0010
0001
0010
0001
0010
0001
,
0010
0001
1000
0000
1001
0000
0001
0000
0100
0000
0001
0000
2000
0000
0001
3000
,
1000
0000
0020
0000
1000
0030
0010
0000
1000
0000
0010
0000
1000
0000
0020
0000
,
0100
0030
0002
0000
0100
0003
0010
0000
0100
0000
0010
0000
2000
0000
0010
3000
,
1000
0000
0002
0000
1000
0003
0001
0000
1000
0000
0001
0000
1000
0000
0010
1000
,
0010
1000
0010
1000
0011
0000
1100
0000
0011
0000
1100
0000
0011
0000
0000
0000
,
1100
0011
1100
0011
1100
0000
0001
0000
,
1000
0002
0000
0200
0000
0000
0010
0000
,
1000
0000
0010
1000
0010
1000
0010
0000
0010
0000
1000
0010
1000
0010
1000
0010
,
1000
0010
0000
0000
0020
0000
0300
2000
,
0000
0003
0200
0030
0000
0002
0000
3000
,
0020
0303
0130
0010
0001
1000
0010
0000
,
0010
1000
0001
0020
0200
0000
0001
0000
,
1000
0000
0000
0000
0002
0000
0030
2000
,
0003
0300
0002
0000
0000
0020
0000
3000
,
0200
0033
0301
0100
1000
0100
0001
0000
,
1000
0010
0001
0010
1000
0000
0001
0000
,
1000
0100
1000
0100
2000
0000
0001
0000
0001
0000
0001
0000
0001
0000
0001
3000
,
1000
1000
1000
1000
1000
0010
0000
0100
,
0000
0001
0000
0010
0000
0100
0000
0010
,
0000
0002
1000
1000
1000
1003
0001
0001
,
0001
0000
0100
0000
2200
0000
0000
0000
0000
3300
0022
0000
0000
0000
0000
0033
,
2200
0000
0000
0000
0000
3300
0022
0000
0000
0000
0000
0033
1100
0000
0011
0000
,
1100
0000
00M0
0000
00M0
0000
0M00
0M00
,
0000
000M
0000
000M
0000
000M
0000
M000
,
M000
M000
M001
0000
00M1
0000
1M00
0M00
,
1000
000M
0010
000M
0010
000M
0100
00M0
,
01M0
00M0
M001
0000
M001
0000
01M0
01M0
,
0000
M010
0000
M010
0000
M010
0000
100M
,
100M
100M
100M
0000
01M0
0000
001M
001M
,
0000
0000
M001
0000
0000
0000
M001
0000
0000
0000
M001
0000
0100
0000
010M
0010
,
010M
0010
010M
0000
101M
0000
1000
0000
0001
0000
0100
0000
0001
0000
0010
0000
,
0100
1000
0100
0000
0010
0010
0000
0100
,
0010
0100
0010
0100
0010
0001
1000
0010
,
1000
0001
0010
0000
0100
0100
0000
1000
,
0000
0010
1000
0010
1000
0001
0100
0001
,
1000
0100
1000
0000
0001
0001
0000
0100
,
0001
0100
0001
1000
0010
0000
0100
0000
,
1000
0000
0100
1000
0100
0010
0100
0000
0100
0000
0001
0010
0001
0010
0001
0000
,
0010
1000
0010
0100
0010
0000
0010
0000
0010
0000
0010
0000
M010
0000
0010
0000
,
0001
0M01
0001
0001
0001
0001
0001
0002
,
0000
1003
1000
1000
1000
1000
10M0
1000
,
0010
001M
0010
0010
0010
0010
0010
0010
,
0100
0000
0101
0001
0010
1000
0010
0000
,
0100
0001
0100
1000
0010
0000
0001
0000
,
0010
0200
0000
0002
0000
0000
1000
0000
,
0010
0000
0000
0000
1000
0000
0000
0000
0010
1000
0010
1000
0010
1000
0010
1000
,
0313
0000
0101
0100
1000
0100
0010
0001
,
1000
0100
0001
0000
0100
0100
0000
0010
,
0100
0010
0100
0010
1000
0010
0001
1000
,
0100
0010
0001
0000
0010
0010
0000
0100
,
0000
0001
0100
0001
0100
0010
1000
0100
,
0010
1000
0010
0000
0001
0001
0000
0100
,
0010
1000
0000
0100
0100
0000
0001
0000
,
0100
0000
0000
0000
0010
0001
0010
0000
0010
0000
0001
1000
0001
0000
0001
0000
,
1000
0010
1000
0010
1000
0000
0000
0000
0002
0000
0200
0000
0020
0000
0000
0000
,
0000
2030
0000
0000
3000
1010
0303
0002
,
0000
2003
0000
0002
0000
0000
0020
0000
,
0000
0230
0000
0000
0000
0000
0300
3000
,
1003
0000
1010
0101
1010
0101
1010
0000
,
0101
1010
0101
1010
0101
0000
1000
0000
,
0001
0002
0000
0200
0010
0010
0000
2000
,
0000
0000
0000
0000
0000
0000
0000
0010
,
0000
3010
M303
0000
0000
0000
0000
0000
;

//---------------dance-double - Expert----------------
#NOTES:
     dance-double:
     Expert:
     Challenge:
     9:
     0.566,0.738,0.209,0.304,0.083,725.000,44.000,64.000,90.000,49.000,0.000,0.566,0.738,0.209,0.304,0.083,725.000,44.000,64.000,90.000,49.000,0.000: // measure 1
00000000
00000000
000000M0
00000000
000000M0
00000000
00M00000
00M00000
,  // measure 2
00000000
0000000M
00000000
0000000M
00000000
0000000M
00000000
M0000000
,  // measure 3
M0000000
M0000000
M0000000
00000000
00000M00
00000000
0M000000
0M000000
,  // measure 4
00000000
000000M0
00000000
000000M0
00000000
000000M0
00000000
00M00000
,  // measure 5
00M00000
00M00000
00M00000
00000000
00010000
01000000
00100000
01000000
,  // measure 6
00010000
10000000
02000000
00000000
03100000
01000000
00000000
10000000
,  // measure 7
10000000
10000000
10000000
00000000
00100000
01000000
00010000
10000000
,  // measure 8
01000000
10000000
00010000
00000000
01000000
00100000
00000000
00100000
,  // measure 9
00100000
00100000
00100000
00000000
01000000
10000000
01000000
00010000
,  // measure 10
10000000
01000000
00200000
00000000
01300000
00100000
00000000
00010000
,  // measure 11
10000000
00100000
01000000
00000000
01000000
00000000
00000000
00100000
,  // measure 12
10000000
00020000
00000000
01030000
10000000
01000000
00100000
00000000
,  // measure 13
00100000
00000000
10000000
00000000
100M0000
01000000
00100000
01000000
,  // measure 14
10000000
00010000
01000000
00000000
00100000
00100000
00000000
01000000
,  // measure 15
01000000
01000000
01000000
00000000
001M0000
00000000
01000000
00000000
,  // measure 16
00010000
00000000
00100000
00000000
01000000
10000000
00000000
10000000
,  // measure 17
10000000
10000000
10000000
00000000
0M010000
00100000
20000000
00000000
,  // measure 18
30100000
01000000
00200000
00000000
00310000
10000000
00000000
00100000
,  // measure 19
01000000
00010000
01000000
00000000
M1000000
00000000
01000000
00010000
,  // measure 20
10000000
00020000
00000000
00130000
01000000
00100000
00010000
00010000
,  // measure 21
00100000
00100000
11000000
01000000
00010000
01000000
00100000
00010000
,  // measure 22
01000000
00100000
00010000
00000000
00010000
00100000
00000000
01000000
,  // measure 23
00100000
01000000
00100000
01000000
00010000
01000000
00100000
00010000
,  // measure 24
00100000
10000000
01000000
00000000
01000000
00100000
00000000
00100000
,  // measure 25
00000000
00100000
01000000
00100000
01000000
00100000
10000000
00100000
,  // measure 26
01000000
10000000
00010000
00000000
01000000
00100000
00000000
00100000
,  // measure 27
01000000
00100000
01000000
10000000
01000000
00000000
00010000
00000000
,  // measure 28
10000000
00000000
00000000
00000000
01000000
00000000
00000000
00000000
00100000
00000000
00100000
00010000
00100000
00000000
00010000
10000000
,  // measure 29
00010000
10000000
00010000
10000000
00010000
00000000
01000000
00000000
00010000
00000000
01000000
00000000
00200000
00000000
01000000
00300000
,  // measure 30
00100000
00000000
20000000
00000000
00100000
30000000
10000000
00000000
00100000
00000000
10000000
00000000
00100000
00000000
01000000
00000000
,  // measure 31
00000000
00000000
00010000
00000000
00000000
00000000
00100000
00000000
00010000
00000000
00100000
00000000
02000000
00000000
00100000
03000000
,  // measure 32
01000000
00000000
20000000
00000000
01000000
30000000
10000000
00000000
01000000
00000000
10000000
00000000
01000000
00000000
10000000
00000000
,  // measure 33
00010000
00000000
11000000
00110000
11000000
00110000
11000000
00000000
,  // measure 34
00110000
11000000
00110000
11000000
00110000
00000000
10000000
00000000
,  // measure 35
00010000
00100000
00000000
00200000
01000000
00000000
00000000
00000000
,  // measure 36
01000000
00000000
02300000
00000000
10000000
00000000
00000000
13000000
,  // measure 37
00000000
10000000
000M0000
00000000
000M0000
00000000
0M000000
0M000000
,  // measure 38
00000000
00M00000
00000000
00M00000
00000000
00M00000
00000000
0M000000
,  // measure 39
0M000000
0M000000
0M000000
00010000
1M000000
00100000
00010000
00100000
,  // measure 40
01000000
00000000
00010000
00100000
10000000
00200000
00000000
01300000
,  // measure 41
01000000
01000000
01000000
00000000
001M0000
10000000
00100000
00010000
,  // measure 42
01000000
00000000
00100000
00000000
01000000
01000000
00000000
01000000
,  // measure 43
00000000
00000000
00020000
01000000
M1000000
01000000
02030000
00100000
,  // measure 44
00100000
00100000
03200000
00000000
10000000
10000000
00300000
00000000
,  // measure 45
00010000
00010000
00000000
00000000
M1000000
00000000
01000000
01000000
,  // measure 46
00100000
01000000
00000000
01000000
00000000
01000000
00010000
00000000
,  // measure 47
00010000
00000000
00010000
00000000
00M10000
10000000
01000000
00010000
,  // measure 48
10000000
00100000
00010000
01000000
10000000
01000000
00000000
00100000
,  // measure 49
00100000
00100000
00100000
00000000
100M0000
00000000
00010000
00000000
,  // measure 50
00100000
00000000
00010000
00000000
01000000
00000000
00100000
10000000
,  // measure 51
10000000
10000000
10000000
00000000
001M0000
01000000
00010000
00000000
,  // measure 52
00100000
01000000
10000000
00000000
00010000
00010000
00000000
01000000
,  // measure 53
00100000
10000000
00000000
00000000
0M010000
00000000
00000000
10000000
,  // measure 54
01000000
00200000
00000000
01300000
10000000
00020000
00100000
00130000
,  // measure 55
01000000
01000000
10010000
00010000
00100000
10000000
00100000
01000000
,  // measure 56
00010000
01000000
10000000
00000000
00010000
01000000
00000000
02000000
,  // measure 57
00100000
03000000
01000000
00000000
00100000
00000000
01000000
00000000
10000000
00000000
01000000
00000000
00010000
00000000
10000000
00000000
,  // measure 58
01000000
00100000
10000000
00000000
00010000
01000000
00000000
10000000
,  // measure 59
00000000
00010000
10000000
00010000
10000000
00100000
01000000
10000000
,  // measure 60
01000000
00010000
10000000
00000000
00100000
01000000
00000000
01000000
,  // measure 61
00100000
01000000
00100000
10000000
01000000
00000000
00100000
00000000
,  // measure 62
01000000
00000000
10000000
01000000
10000000
00000000
01000000
00000000
01000000
00000000
00100000
00010000
00100000
00010000
00100000
00010000
,  // measure 63
00100000
00010000
10000000
00000000
10010000
00000000
00010000
00000000
01000000
00000000
00010000
00000000
20000000
00000000
00010000
30000000
,  // measure 64
10000000
00000000
00200000
00000000
10000000
00300000
00100000
00000000
10000000
00000000
00100000
00000000
10000000
00000000
00200000
00000000
,  // measure 65
01000000
00300000
00020000
00000000
01000000
00030000
00100000
00000000
01000000
00000000
00100000
00000000
20000000
00000000
00100000
30000000
,  // measure 66
10000000
00000000
00020000
00000000
10000000
00030000
00010000
00000000
10000000
00000000
00010000
00000000
10000000
00000000
00100000
10000000
,  // measure 67
00100000
10000000
00100000
10000000
00110000
00000000
11000000
00000000
00110000
00000000
11000000
00000000
00110000
00000000
00000000
00000000
,  // measure 68
11000000
00110000
11000000
00110000
11000000
00000000
00010000
00000000
,  // measure 69
10000000
00020000
00000000
02000000
00000000
00000000
00100000
00000000
,  // measure 70
10000000
00000000
00100000
10000000
00100000
10000000
00100000
00000000
00100000
00000000
10000000
00100000
10000000
00100000
10000000
00100000
,  // measure 71
10000000
00100000
00000000
00000000
00200000
00000000
03000000
20000000
,  // measure 72
00000000
00030000
02000000
00300000
00000000
00020000
00000000
30000000
,  // measure 73
00200000
03030000
01300000
00100000
00010000
10000000
00100000
00000000
,  // measure 74
00100000
10000000
00010000
00200000
02000000
00000000
00010000
00000000
,  // measure 75
10000000
00000000
00000000
00000000
00020000
00000000
00300000
20000000
,  // measure 76
00030000
03000000
00020000
00000000
00000000
00200000
00000000
30000000
,  // measure 77
02000000
00330000
03010000
01000000
10000000
01000000
00010000
00000000
,  // measure 78
10000000
00100000
00010000
00100000
10000000
00000000
00010000
00000000
,  // measure 79
10000000
01000000
10000000
01000000
20000000
00000000
00010000
00000000
00010000
00000000
00010000
00000000
00010000
00000000
00010000
30000000
,  // measure 80
10000000
10000000
10000000
10000000
10000000
00100000
00000000
01000000
,  // measure 81
00000000
00010000
00000000
00100000
00000000
01000000
00000000
00100000
,  // measure 82
00000000
00020000
10000000
10000000
10000000
10030000
00010000
00010000
,  // measure 83
00010000
00000000
01000000
00000000
22000000
00000000
00000000
00000000
00000000
33000000
00220000
00000000
00000000
00000000
00000000
00330000
,  // measure 84
22000000
00000000
00000000
00000000
00000000
33000000
00220000
00000000
00000000
00000000
00000000
00330000
11000000
00000000
00110000
00000000
,  // measure 85
11000000
00000000
00M00000
00000000
00M00000
00000000
0M000000
0M000000
,  // measure 86
00000000
000M0000
00000000
000M0000
00000000
000M0000
00000000
M0000000
,  // measure 87
M0000000
M0000000
M0010000
00000000
00M10000
00000000
1M000000
0M000000
,  // measure 88
10000000
000M0000
00100000
000M0000
00100000
000M0000
01000000
00M00000
,  // measure 89
01M00000
00M00000
M0010000
00000000
M0010000
00000000
01M00000
01M00000
,  // measure 90
00000000
M0100000
00000000
M0100000
00000000
M0100000
00000000
100M0000
,  // measure 91
100M0000
100M0000
100M0000
00000000
01M00000
00000000
001M0000
001M0000
,  // measure 92
00000000
00000000
M0010000
00000000
00000000
00000000
M0010000
00000000
00000000
00000000
M0010000
00000000
01000000
00000000
010M0000
00100000
,  // measure 93
010M0000
00100000
010M0000
00000000
101M0000
00000000
10000000
00000000
00010000
00000000
01000000
00000000
00010000
00000000
00100000
00000000
,  // measure 94
01000000
10000000
01000000
00000000
00100000
00100000
00000000
01000000
,  // measure 95
00100000
01000000
00100000
01000000
00100000
00010000
10000000
00100000
,  // measure 96
10000000
00010000
00100000
00000000
01000000
01000000
00000000
10000000
,  // measure 97
00000000
00100000
10000000
00100000
10000000
00010000
01000000
00010000
,  // measure 98
10000000
01000000
10000000
00000000
00010000
00010000
00000000
01000000
,  // measure 99
00010000
01000000
00010000
10000000
00100000
00000000
01000000
00000000
,  // measure 100
10000000
00000000
01000000
10000000
01000000
00100000
01000000
00000000
01000000
00000000
00010000
00100000
00010000
00100000
00010000
00000000
,  // measure 101
00100000
10000000
00100000
01000000
00100000
00000000
00100000
00000000
00100000
00000000
00100000
00000000
M0100000
00000000
00100000
00000000
,  // measure 102
00010000
0M010000
00010000
00010000
00010000
00010000
00010000
00020000
,  // measure 103
00000000
10030000
10000000
10000000
10000000
10000000
10M00000
10000000
,  // measure 104
00100000
001M0000
00100000
00100000
00100000
00100000
00100000
00100000
,  // measure 105
01000000
00000000
01010000
00010000
00100000
10000000
00100000
00000000
,  // measure 106
01000000
00010000
01000000
10000000
00100000
00000000
00010000
00000000
,  // measure 107
00100000
02000000
00000000
00020000
00000000
00000000
10000000
00000000
,  // measure 108
00100000
00000000
00000000
00000000
10000000
00000000
00000000
00000000
00100000
10000000
00100000
10000000
00100000
10000000
00100000
10000000
,  // measure 109
03130000
00000000
01010000
01000000
10000000
01000000
00100000
00010000
,  // measure 110
10000000
01000000
00010000
00000000
01000000
01000000
00000000
00100000
,  // measure 111
01000000
00100000
01000000
00100000
10000000
00100000
00010000
10000000
,  // measure 112
01000000
00100000
00010000
00000000
00100000
00100000
00000000
01000000
,  // measure 113
00000000
00010000
01000000
00010000
01000000
00100000
10000000
01000000
,  // measure 114
00100000
10000000
00100000
00000000
00010000
00010000
00000000
01000000
,  // measure 115
00100000
10000000
00000000
01000000
01000000
00000000
00010000
00000000
,  // measure 116
01000000
00000000
00000000
00000000
00100000
00010000
00100000
00000000
00100000
00000000
00010000
10000000
00010000
00000000
00010000
00000000
,  // measure 117
10000000
00100000
10000000
00100000
10000000
00000000
00000000
00000000
00020000
00000000
02000000
00000000
00200000
00000000
00000000
00000000
,  // measure 118
00000000
20300000
00000000
00000000
30000000
10100000
03030000
00020000
,  // measure 119
00000000
20030000
00000000
00020000
00000000
00000000
00200000
00000000
,  // measure 120
00000000
02300000
00000000
00000000
00000000
00000000
03000000
30000000
,  // measure 121
10030000
00000000
10100000
01010000
10100000
01010000
10100000
00000000
,  // measure 122
01010000
10100000
01010000
10100000
01010000
00000000
10000000
00000000
,  // measure 123
00010000
00020000
00000000
02000000
00100000
00100000
00000000
20000000
,  // measure 124
00000000
00000000
00000000
00000000
00000000
00000000
00000000
00100000
,  // measure 125
00000000
30100000
M3030000
00000000
00000000
00000000
00000000
00000000
;
