#TITLE:Forever;
#SUBTITLE:(cut);
#ARTIST:The Veronicas;
#TITLETRANSLIT:;
#SUBTITLETRANSLIT:;
#ARTISTTRANSLIT:;
#GENRE:;
#CREDIT:;
#BANNER:;
#BACKGROUND:;
#LYRICSPATH:;
#CDTITLE:;
#MUSIC:4ever.ogg;
#OFFSET:0.159;
#SAMPLESTART:10.126;
#SAMPLELENGTH:10.000;
#SELECTABLE:YES;
#DISPLAYBPM:146.005;
#BPMS:0.000=146.005,85.000=160.000,157.000=146.005,233.000=160.000;
#STOPS:;
#TIMESIGNATURES:0.000=4=4
;
#BGCHANGES:;
#KEYSOUNDS:;

//---------------dance-single - Blank----------------
#NOTES:
     dance-single:
     Blank:
     Challenge:
     9:
     0.934,1.000,0.008,0.186,1.000,749.000,1.000,22.000,85.000,2.000,0.000,0.934,1.000,0.008,0.186,1.000,749.000,1.000,22.000,85.000,2.000,0.000: // measure 1
0000
0000
00M0
0000
00M0
0000
0M00
0M00
,  // measure 2
0000
000M
0000
000M
0000
000M
0000
M000
,  // measure 3
M000
M000
M000
0000
0M00
0000
00M0
00M0
,  // measure 4
0000
0M00
0000
0M00
0000
0M00
0000
M000
,  // measure 5
M000
M000
M000
0000
0001
0100
0010
0100
,  // measure 6
0001
1000
0200
0000
0310
0100
0000
1000
,  // measure 7
1000
1000
1000
0000
0010
0100
0001
1000
,  // measure 8
0100
1000
0001
0000
0100
0010
0000
0010
,  // measure 9
0010
0010
0010
0000
0100
1000
0100
0001
,  // measure 10
1000
0100
0020
0000
0130
0010
0000
0001
,  // measure 11
1000
0010
0100
0000
0100
0000
0000
0010
,  // measure 12
1000
0002
0000
0103
1000
0100
0010
0000
,  // measure 13
0010
0000
1000
0000
100M
0100
0010
0100
,  // measure 14
1000
0001
0100
0000
0010
0010
0000
0100
,  // measure 15
0100
0100
0100
0000
001M
0000
0100
0000
,  // measure 16
0001
0000
0010
0000
0100
1000
0000
1000
,  // measure 17
1000
1000
1000
0000
0M01
0010
2000
0000
,  // measure 18
3010
0100
0020
0000
0031
1000
0000
0010
,  // measure 19
0100
0001
0100
0000
M100
0000
0100
0001
,  // measure 20
1000
0000
0002
0003
0001
0000
0002
0000
0010
0000
0023
0000
0100
0000
0230
0000
,  // measure 21
1000
1300
1001
0000
0002
0000
2000
0000
,  // measure 22
3013
0000
0000
0000
0001
0010
0001
0010
0001
0010
0001
0010
0100
0010
0100
0010
,  // measure 23
0100
0010
0001
1000
0001
1000
0001
0100
0001
1000
0001
1000
0010
0100
0010
0100
,  // measure 24
0010
1000
0010
1000
0100
0010
0100
0010
0100
0010
0001
0010
0001
0010
0001
0100
,  // measure 25
0001
0100
0001
1000
0001
0100
0001
0100
0001
1000
0001
1000
0010
0100
0010
0100
,  // measure 26
0010
1000
0010
1000
0100
0010
0100
0010
0100
0010
0100
0010
0001
0010
0001
0010
,  // measure 27
0001
0010
0001
1000
0001
1000
0001
0100
0001
1000
0001
1000
0010
0100
0010
0100
,  // measure 28
0010
1000
0010
1000
0001
0010
0001
0010
0001
0010
0001
0010
0100
0010
0100
0010
,  // measure 29
0100
0010
0100
0010
0001
0010
0001
0010
0100
1000
0100
1000
0001
0010
0001
0010
,  // measure 30
0001
0100
0001
0100
0010
1000
0010
1000
0010
1000
0010
1000
0010
0100
0010
0100
,  // measure 31
0010
0100
0001
0100
0001
0100
0001
1000
0001
1000
0001
1000
0001
0010
0001
0010
,  // measure 32
0001
0100
0001
0100
0010
0100
0010
0100
0010
0100
0010
1000
0010
1000
0010
0100
,  // measure 33
0010
1000
0001
0010
0100
0010
0100
0010
0001
0010
0001
0010
0001
0100
0001
0100
,  // measure 34
0001
1000
0001
1000
0010
1000
0010
1000
0010
1000
0010
1000
0010
0100
0010
0100
,  // measure 35
0010
0100
0001
1000
0001
1000
0001
0010
0001
0100
0001
0100
0001
0010
0001
0010
,  // measure 36
0001
0100
0001
0100
0010
0100
0010
0100
0010
0100
0010
0100
0001
1000
0001
1000
,  // measure 37
0001
1000
0001
1000
0001
0100
0010
1000
0001
0100
0010
1000
0001
0010
0100
1000
,  // measure 38
0001
0010
0100
1000
0001
1000
0001
1000
0001
1000
0001
1000
0001
1000
0001
1000
,  // measure 39
0001
1000
0001
1000
0001
1000
0001
1000
0001
1000
0001
1000
0001
1000
0001
1000
,  // measure 40
0001
1000
0010
0100
0001
0000
0000
0000
000M
0000
0000
0000
0M00
0000
0M00
0000
,  // measure 41
0000
00M0
0000
00M0
0000
00M0
0000
0M00
,  // measure 42
0M00
0M00
0M00
0001
1M00
0010
0001
0010
,  // measure 43
0100
0000
0001
0010
1000
0020
0000
0130
,  // measure 44
0100
0100
0100
0000
001M
1000
0010
0001
,  // measure 45
0100
0000
0010
0000
0100
0100
0000
0100
,  // measure 46
0000
0000
0002
0100
M100
0100
0203
0010
,  // measure 47
0010
0010
0320
0000
1000
1000
0030
0000
,  // measure 48
0001
0001
0000
0000
M100
0000
0100
0100
,  // measure 49
0010
0100
0000
0100
0000
0100
0001
0000
,  // measure 50
0001
0000
0001
0000
00M1
1000
0100
0001
,  // measure 51
1000
0010
0001
0100
1000
0100
0000
0010
,  // measure 52
0010
0010
0010
0000
100M
0000
0001
0000
,  // measure 53
0010
0000
0001
0000
0100
0000
0010
1000
,  // measure 54
1000
1000
1000
0000
001M
0100
0001
0000
,  // measure 55
0010
0100
1000
0000
0001
0001
0000
0100
,  // measure 56
0010
1000
0000
0000
0M01
0000
0000
1000
,  // measure 57
1000
0002
0010
0023
0100
0230
1000
2300
,  // measure 58
0010
3010
0100
0000
0002
0000
2000
0000
,  // measure 59
3013
0000
0000
0000
0001
0010
0001
0010
0001
0010
0001
0010
0100
0010
0100
0010
,  // measure 60
0100
0010
0001
1000
0001
1000
0010
0100
0001
1000
0001
1000
0001
0100
0001
0100
,  // measure 61
0001
0010
0001
0010
0100
0010
0100
0010
0100
0010
0001
0010
0001
0010
0100
1000
,  // measure 62
0001
0100
0010
1000
0001
0100
0001
0100
0001
0010
0001
0010
0100
0010
0100
0010
,  // measure 63
0001
1000
0001
1000
0010
0100
0010
0100
0010
0100
0010
0100
0001
0100
0001
0100
,  // measure 64
0001
0100
0001
1000
0001
1000
0001
0010
0001
0010
0001
0010
0001
0010
0001
0010
,  // measure 65
0100
0010
0100
0010
0001
0010
0001
0010
0001
0010
0001
0010
0001
0100
0001
0100
,  // measure 66
0001
0100
0010
1000
0010
0100
0010
0100
0010
1000
0010
1000
0001
0100
0001
0100
,  // measure 67
0001
0010
0001
0010
0001
0100
0001
0100
0001
0100
0001
0100
0010
0100
0010
0100
,  // measure 68
0010
0100
0010
1000
0010
1000
0100
0010
0001
0100
0001
0100
0001
0010
0001
0010
,  // measure 69
0001
0100
0001
0100
0010
1000
0001
0100
0010
1000
0001
0100
0001
0010
0001
0100
,  // measure 70
0001
0010
0001
0100
0001
0010
0100
1000
0001
0010
0100
1000
0001
0100
0010
1000
,  // measure 71
0001
0100
0010
1000
0100
0010
0100
0010
0100
0010
0100
0010
0001
0010
0001
0010
,  // measure 72
0001
0010
0100
0010
0100
0010
0001
1000
0001
0100
0001
0100
0001
1000
0001
1000
,  // measure 73
0001
0100
0001
0100
0010
0100
0010
0100
0010
0100
0010
0100
0010
1000
0010
1000
,  // measure 74
0010
1000
0010
1000
0100
1000
0100
0010
0001
1000
0100
0010
0001
0100
0010
1000
,  // measure 75
0001
0000
0010
0000
0100
0000
1000
0000
0001
0000
0100
0000
0001
0000
0100
0000
0001
0000
0000
0000
0000
0000
0000
0000
2000
000M
00M0
0M00
0M00
0M00
3M00
00M0
,  // measure 76
000M
0000
MM00
M0M0
M00M
M00M
M00M
M00M
MMM0
0000
0000
MM00
M0M0
M00M
M00M
MMM0
M0M0
M00M
M00M
M00M
0000
0000
0000
0000
0000
0000
0000
0000
0000
0000
0000
0000
;
