#TITLE:Emotions Lost In Time;
#SUBTITLE:Tales of Phantasia OC Remix;
#ARTIST:Ghetto Lee Lewis;
#TITLETRANSLIT:;
#SUBTITLETRANSLIT:;
#ARTISTTRANSLIT:;
#GENRE:Game;
#CREDIT:Steps, Kyzentun - Sync, x0_000;
#BANNER:;
#BACKGROUND:;
#LYRICSPATH:;
#CDTITLE:;
#MUSIC:Tales_of_Phantasia_Emotions_Lost_in_Time_OC_ReMix.ogg;
#OFFSET:-1.762;
#SAMPLESTART:60.009;
#SAMPLELENGTH:9.960;
#SELECTABLE:YES;
#BPMS:0.000=142.005,856.000=131.850,864.000=120.002,920.000=103.810,924.000=101.008,926.000=83.799,928.000=79.838;
#STOPS:;
#TIMESIGNATURES:0.000=4=4
;
#BGCHANGES:;
#KEYSOUNDS:;

//---------------dance-single - Kyzentun----------------
#NOTES:
     dance-single:
     Kyzentun:
     Hard:
     10:
     0.643,1.000,0.096,0.747,0.491,1493.000,39.000,305.000,73.000,47.000,16.000,0.643,1.000,0.096,0.747,0.491,1493.000,39.000,305.000,73.000,47.000,16.000:
2000
0000
0000
0000
,  // measure 2
3200
0000
0320
0000
,  // measure 3
0032
0000
0000
0000
,  // measure 4
0023
0000
0000
0000
,  // measure 5
0032
0000
0000
0000
,  // measure 6
0000
0000
0000
0000
,  // measure 7
0203
0000
0320
0000
,  // measure 8
0230
0000
0302
0000
,  // measure 9
2003
0000
0000
0000
,  // measure 10
3020
0000
2030
0000
,  // measure 11
3200
0000
0000
0000
,  // measure 12
0320
0000
0000
0000
,  // measure 13
0032
0000
0000
0000
,  // measure 14
0200
0000
0000
0000
,
0000
0000
0000
0000
,
0000
0000
0000
0000
0000
0000
0000
0000
0303
0000
0200
0000
0000
0302
0000
0000
,
2003
0000
0000
0000
,
0000
0000
0000
0000
0000
0000
0000
0000
0000
0000
0000
0000
0000
0000
0000
0000
0000
0000
0000
0000
0000
0000
0000
0000
0000
0000
0000
0000
0000
0000
0200
0000
3000
0000
0000
0000
0000
0000
0000
0020
0300
0000
0000
0000
0000
0000
0000
0000
,
0032
0000
0000
0000
0000
0000
0000
0000
0003
0020
0000
0000
0000
0000
0000
0000
0000
0000
0230
0000
0000
0000
0000
0000
0000
0000
0000
0000
0000
0000
0000
0000
0000
0000
0000
0000
0000
0000
0000
0000
0000
0000
0000
0000
0000
0000
0000
0000
,
0000
0000
0000
0000
0000
0000
0000
0000
0000
0000
0000
0000
0000
0000
0000
0000
0000
0000
0000
0000
0000
0000
0000
0000
0000
0000
0000
0000
0000
0000
0320
0000
0000
0000
0000
0000
0000
0000
0000
0002
0030
0000
0000
0000
0000
0000
0000
0000
,
0023
0000
0000
0000
,
0000
0000
0030
0200
0000
0000
2300
0000
,
3002
0000
0000
0000
0003
0000
2000
0000
3000
0002
0000
0000
0000
0000
0000
0000
0000
0000
0000
0000
0000
0000
0000
0000
,
0000
0000
0000
0000
0000
0000
0000
0000
0000
0000
0000
0000
0000
0000
0000
0203
0000
0000
0320
0000
0030
2000
0000
0000
,
3002
0000
0000
0000
0000
0000
2003
3200
,
2300
0000
3200
0320
,
0032
0000
2003
0000
,
3020
0000
0230
0000
,
0302
0000
0000
0000
0000
0000
0203
2300
,
3200
0000
0000
0000
,
0000
0000
0000
0000
,
0300
0000
0000
0000
0000
0000
0000
0000
0000
0001
0000
0000
0100
0000
0000
0002
,
0000
0000
0000
0000
,
0003
0000
0000
0000
0000
0000
0000
0000
0000
0000
1000
0000
0000
0100
0000
0000
,
1000
0000
0000
0100
0000
0000
2000
0000
0000
0000
0000
0000
0000
0000
0000
0000
,
0000
0000
0000
0000
0000
0000
0000
0000
3000
0000
0010
0000
0000
0100
0000
0000
,
0020
0000
0000
0000
,
0030
0000
0000
0100
0000
0000
0001
0000
,
0010
0000
0100
2000
0000
0000
0000
0000
,
0000
0000
0000
0000
3000
0100
1000
0100
,
0020
0000
0000
0000
0000
0000
0031
0100
,
0020
0000
0230
2300
,
3200
0000
0320
0000
,
0230
0000
0302
0000
,
2003
0000
0000
0000
0000
0000
3100
0001
,
0200
0000
0000
0000
,
0300
0000
0000
0000
,
0000
0000
0000
0000
,
1000
0100
0010
0001
1000
0100
0010
0001
,
1000
0100
0010
0001
1000
0100
0010
0001
,
1000
0010
0100
0001
1000
0010
0100
0001
,
1000
0010
0100
0001
1000
0010
0100
0001
,
0010
0100
1000
0001
0010
0100
1000
0001
,
0010
0100
1000
0001
0010
0100
1000
0001
,
0100
0010
1000
0001
0100
0010
1000
0001
,
0100
0010
1000
0001
0100
0010
1000
0001
,
1000
0100
0010
0001
1000
0100
0010
0001
,
1000
0100
0010
0001
1000
0100
0010
0001
,
1000
0010
0100
0001
1000
0010
0100
0001
,
1000
0010
0100
0001
1000
0010
0100
0001
,
0010
0100
1000
0001
0010
0100
1000
0001
,
0010
0100
1000
0001
0010
0100
1000
0001
,
0100
0010
1000
0001
0100
0010
1000
0001
,
0100
0010
1000
0001
0100
0010
1000
0001
,
0010
0001
0010
0000
0000
0000
0000
0000
0000
0000
0000
0000
0000
0000
0000
0000
0000
0000
0000
0000
0000
0000
0000
0000
0001
0000
0000
0000
1000
0000
0000
0000
,
0010
0000
0100
0010
,
1000
0010
1000
0000
0000
0000
0000
0000
0000
0000
0000
0000
0000
0000
0000
0000
0010
0000
0000
0000
0100
0000
0000
0000
0001
0000
0000
0000
1000
0000
0000
0000
,
0100
0000
0000
0000
0000
0000
1000
0100
,
0010
0100
0010
0000
0000
0000
0000
0000
0000
0000
0000
0000
0000
0000
0000
0000
0100
0000
0000
0000
0000
0000
0000
0000
0000
0000
0000
0000
0010
0000
0000
0000
,
0001
0000
0100
0010
,
1000
0100
1000
0000
0000
0000
0000
0000
0100
0000
0000
0000
0010
0000
0000
0000
0000
0000
0000
0000
0000
0000
0000
0000
0000
0000
0000
0000
0000
0000
0000
0000
,
0000
0000
0000
0000
0100
1000
0010
1000
,
0010
0100
0010
0000
0000
0000
0000
0000
0000
0000
0000
0000
0000
0000
0000
0000
0000
0000
0000
0000
0000
0000
0000
0000
0100
0000
0000
0000
0001
0000
0000
0000
,
0010
0000
0001
1000
,
0001
1000
0001
0000
0000
0000
0000
0000
0000
0000
0000
0000
0000
0000
0000
0000
0000
0000
0000
0000
0000
0000
0000
0000
1000
0000
0000
0000
0000
0000
0000
0000
,
0010
0000
0000
0000
0000
0010
0100
0010
,
0400
0010
0000
0000
0304
0100
0000
0000
0043
0001
0000
0000
0430
0010
0000
0000
,
4300
0100
0000
0000
3004
1000
0000
0000
0403
0001
0000
0000
0340
0100
0000
0000
,
4030
0010
0000
0000
3004
0010
0000
0000
0403
0010
0000
0000
0304
0010
0000
0000
,
4003
0000
0010
0000
0000
0000
0000
0000
3400
0000
0010
0000
0000
0000
0000
0000
4300
0000
0010
0000
0000
0000
0000
0000
3004
0000
0010
0000
0000
0000
0000
0003
,
MM22
0000
0000
0000
,
0000
0000
0000
0000
0000
0000
0000
0000
0033
0000
0010
0000
0000
0100
0000
0000
,
1000
0000
0000
0001
0000
0000
0200
0000
0000
0000
0000
0000
0000
0000
0000
0000
,
0000
0000
0000
0000
0000
0000
0300
0000
0000
0000
0010
0000
0000
0100
0000
0000
,
0020
0000
0000
0000
,
0030
0000
0000
0100
0000
0000
0001
0000
,
1000
0000
0001
2000
0000
0000
0000
0000
,
0000
0000
0000
3000
0000
0100
0010
0001
,
2000
0000
0000
0000
3000
0000
0010
0100
,
0002
0000
1003
0100
,
0020
0000
0230
0000
,
2300
0000
3200
0000
,
0320
0000
0000
0000
0000
0000
0031
0100
,
0002
0000
0000
0000
,
0003
0000
0000
0000
,
0000
0000
0000
0000
0000
0000
0000
0000
0000
0000
0001
0000
0000
0100
0000
0000
,
M1M1
0000
0000
0000
0001
0100
0001
0100
0001
1000
0001
1000
0100
1000
0100
1000
,
0100
0010
0100
0010
0001
0010
0001
0010
0001
1000
0001
1000
0010
1000
0010
1000
,
0010
0100
0010
0100
1000
0100
1000
0100
1000
0100
1000
0100
0010
0100
0010
0100
,
0010
1000
0010
1000
0001
1000
0001
1000
0001
0010
0001
0010
0100
0010
0100
0010
,
0100
0001
0100
0001
0100
0001
0100
0001
0100
0010
0100
0010
0001
0010
0001
0010
,
0001
1000
0001
1000
0010
1000
0010
1000
0010
0100
0010
0000
0110
0000
0100
0001
,
0100
0001
0100
0000
0101
0000
0001
1000
0001
1000
0001
0000
1001
0000
1000
0100
,
1000
0100
1000
0000
1100
0000
0000
0000
0100
0000
0010
0100
0010
0000
0001
0000
,
0001
0000
1000
0010
1000
0000
0001
0000
0001
0000
0100
0010
0100
0000
0001
0000
,
0001
0000
1000
0100
1000
0000
0010
0000
0010
0000
0100
0001
0100
0000
0010
0000
,
0010
0000
1000
0001
1000
0000
0010
0000
0010
0000
1000
0100
1000
0000
0001
0000
,
1000
0100
1000
0100
1000
0100
1000
0100
1000
0001
1000
0001
1000
0001
1000
0001
,
0100
0001
0100
0001
0100
0001
0100
0001
0100
0010
0100
0010
0100
0010
0100
0010
,
0001
0010
0001
0010
0001
0010
0001
0010
0001
0010
0001
0010
0001
0010
0001
0010
,
0100
0010
0100
0010
0100
0010
0100
0010
0100
0001
0100
0001
0100
0001
0100
0001
,
1000
0001
1000
0001
1000
0001
1000
0001
1000
0001
1000
0001
1000
0001
1000
0000
,
1MM1
0000
0000
0000
0001
0100
0001
0000
0100
0010
0100
0000
0010
1000
0010
0000
,
1000
0100
1000
0000
0100
0010
0100
0000
0010
0001
0010
0000
0001
0100
0001
0000
,
0100
0010
0100
0000
0010
1000
0010
0000
1000
0100
1000
0000
0100
0010
0100
0000
,
0010
0001
1000
0000
0001
1000
0010
0000
1000
0010
0100
0000
0010
0100
0001
0000
,
0100
0001
0010
0000
0001
0010
0100
0000
0010
0100
0001
0000
0100
0010
0001
0000
,
0010
0001
1000
0000
0001
1000
0010
0000
1000
0010
0100
0000
0010
0100
1000
0000
,
0100
0010
1000
0000
0010
1000
0001
0000
1000
0100
0001
0000
0001
0100
1000
0000
,
0001
0100
1000
0000
1000
0100
0001
0000
0010
0001
0100
0000
0010
1000
0100
0000
,
0010
0100
0010
0000
0100
1000
0100
0000
1000
0001
1000
0000
0001
0100
0001
0000
,
0100
0010
0100
0000
0010
1000
0010
0000
1000
0100
1000
0000
0100
0001
0100
0000
,
0001
0100
0001
0000
0100
1000
0100
0000
1000
0001
1000
0000
0001
0100
0001
0000
,
0100
1000
0100
0000
1000
0100
1000
0000
0100
0001
0100
0000
0001
1000
0001
0000
,
1000
0010
1000
0000
0010
0100
0010
0000
0100
0001
0100
0000
0001
0010
0001
0000
,
1000
0010
1000
0000
0001
0010
0001
0000
1000
0010
1000
0000
0001
0010
0001
0000
,
1MM1
0000
M11M
0000
,
1MM1
M11M
1MM1
M11M
,
1MM1
0000
0001
0100
0010
0100
1000
0100
,
0010
0000
0100
0000
0001
1000
0000
0001
0100
0000
0010
0000
1000
0000
0010
0000
,
0100
0010
0001
0010
0100
0010
1000
0100
,
0010
0000
0100
0000
0001
0000
0100
0000
0010
0000
0100
0000
1000
0000
0001
1000
,
0000
0010
0001
0010
0100
0010
1000
0100
,
0010
0000
0100
0000
0001
1000
0000
0001
0100
0000
0010
0000
1000
0000
0010
0000
,
0100
0010
0001
0100
0010
0100
1000
0100
,
0010
0000
0100
0000
0001
0000
0010
0000
0100
0000
0010
0000
1000
0000
0001
1000
,
0000
0010
0001
0100
0010
0100
1000
0100
,
0010
0000
0100
0000
0001
1000
0000
0001
0100
0000
0010
0000
1000
0000
0010
0000
,
0100
0010
0001
0010
0100
0010
1000
0100
,
0010
0000
0100
0000
0001
0000
0100
0000
0010
0000
0100
0000
1000
0000
0001
1000
,
0000
0000
0010
0000
0001
0000
0010
0000
1000
0010
1000
0010
1000
0001
1000
0001
,
0100
0001
0100
0001
0100
0010
0100
0010
0001
0010
0001
0010
0001
0010
0001
0010
,
0100
0010
0100
0010
0100
0001
0100
0001
1000
0001
1000
0001
1000
0100
1000
0100
,
0010
0100
0010
0100
0010
0001
0010
0001
1000
0001
1000
0001
1000
0010
1000
0000
,
1M1M
0000
0000
0000
0010
1000
0010
0000
1000
0001
1000
0000
0001
0010
0001
0000
,
0010
0100
0010
0000
0100
0001
0100
0000
0001
0100
0001
0000
0100
0010
0100
0000
,
0010
0001
0010
0000
0001
1000
0001
0000
1000
0010
1000
0000
0010
0100
0010
0000
,
0100
1000
0100
0000
1000
0100
1000
0000
0100
0010
0100
0000
0010
1000
0010
0000
,
1000
0001
1000
0000
0001
0010
0001
0000
1000
0010
1000
0000
0001
0010
0001
0000
,
1000
1000
0000
0001
1000
1000
0000
0001
,
0101
0001
0000
0100
0001
0001
0000
0100
,
0110
0100
0000
0010
1010
0010
0101
0100
,
0220
0000
0330
0000
,
0002
0000
2003
0000
,
3200
0000
0000
0000
0300
0000
0010
0001
,
0200
0300
0010
0000
1000
0000
0100
0000
,
0020
0030
0000
0000
0000
0000
0000
0000
,
0002
0003
0000
0000
0100
0000
0020
0030
,
0020
0030
0000
0000
2000
3000
0000
0000
,
0200
0300
0000
0000
0020
0030
0000
0000
,
0200
0300
0000
0000
0000
0000
1000
0001
,
0200
0300
0000
0000
0020
0030
0000
0000
,
2000
3000
0000
0000
0000
0000
0000
0000
,
0002
0000
0003
0000
0000
0000
0000
0000
0000
0000
0000
0000
1000
0100
0010
0001
,
2000
3000
0100
0000
0010
0000
0001
0000
,
2000
3000
0000
0000
0010
0000
0100
0000
,
0002
0000
0003
0000
0000
0000
0000
0000
0000
0000
0000
0000
0001
0100
0001
1000
,
0200
0000
0300
0000
0000
0000
0000
0000
0000
0000
2000
0000
0000
3200
0000
0300
,
0220
0000
0330
0000
0010
0001
0010
0000
0001
1000
0001
0000
1000
0010
1000
0000
,
0002
0103
0001
0000
0010
0001
0010
0000
0100
1000
0200
0000
0310
0200
0010
0300
,
0002
1003
0001
2000
3100
0010
0200
0000
0320
0031
0010
0000
0001
0010
0001
0000
,
2000
3010
1000
0000
0001
0010
0001
0000
1000
0010
2000
0000
3001
0200
0001
0300
,
2000
3100
1000
0000
0001
0100
0001
0000
1000
0100
1000
0000
0001
1000
0001
0000
,
0200
1300
0100
0000
0001
1000
0002
0000
0103
1000
0100
0000
0002
0103
0001
0000
,
2000
3001
1000
0000
0200
0301
0200
0000
1300
0001
1000
0000
0100
0001
0100
0000
,
0020
0130
0010
0000
0001
0010
0001
0000
1000
0001
2000
0000
3020
0031
0020
0000
,
2030
3001
1000
0000
0010
0001
0010
0000
1000
0010
1000
0000
0002
1003
0002
0000
,
0023
1030
0010
0000
0001
1000
0001
0000
0020
1030
0010
0000
0002
0013
0001
0000
,
2000
3100
1000
0000
0001
0010
0001
0000
2000
3100
1000
0000
0010
0100
0010
0000
,
2000
3100
1000
0000
0010
0100
0010
0000
2000
3001
1000
0000
0001
0010
0001
0000
,
0200
0310
0100
0000
0001
0010
0001
0000
0100
0010
0100
0000
0002
0010
2003
3000
,
2000
0010
3001
0000
1000
0010
0001
0000
0001
0010
1000
0000
0010
1000
0010
0000
,
2M2M
0000
3030
0000
0000
0000
0200
0300
M2M2
0000
0303
0000
0200
0000
0300
0000
,
2MM2
3003
M11M
0000
1MM1
0000
M11M
0000
,
2MM2
0000
3003
0000
0001
0100
0001
0000
0100
0010
0100
0000
0010
1000
0010
0000
,
2000
3100
1000
0000
0100
0010
0000
0100
0010
0001
0020
0000
0031
0020
0001
0030
,
0020
1030
0010
0002
0013
0001
0020
0000
0031
1000
0001
0000
1000
0010
1000
0000
,
0020
0130
0010
0000
0100
0001
0100
0000
0001
1000
0002
0000
1003
0020
1000
0031
,
0020
0001
1030
0000
0001
0100
0001
0000
0100
0010
0100
0000
0010
1000
0010
0000
,
2000
3001
1000
0000
0001
0010
0002
0100
0013
0100
0010
0000
0200
0301
0100
0000
,
0020
1030
0010
0000
0200
0301
0200
0000
0301
1000
0001
0000
0100
0010
0100
0000
,
0001
1000
0001
0000
0010
0100
0010
0000
0001
1000
0002
0000
0023
0130
0020
0031
,
0020
0001
1030
0000
0001
0100
0001
0000
0100
0010
0100
0000
0020
1030
0020
0030
,
2000
3100
1000
0000
0100
0010
0000
0100
0020
0031
0010
0000
0002
0103
0001
0000
,
0020
0130
0010
0000
0001
0100
0001
0000
0020
0031
0010
0000
0100
1000
0100
0000
,
0020
0031
0010
0000
0100
1000
0100
0000
0020
0001
1030
0000
0001
0100
0010
0000
,
2000
0010
3100
0001
0100
0010
0100
0001
0010
0100
0010
0100
2000
3001
2000
3100
,
2000
0001
3100
0001
0100
0010
0100
0010
0100
0001
0010
0001
0010
0100
0010
0100
,
2000
0001
3100
0001
0100
0010
0100
0010
0001
0010
0001
0010
0100
0001
0100
0010
,
2000
0100
3010
0001
0010
0100
0001
0100
0010
0100
2000
0100
3010
0002
0010
0003
,
2MM2
0000
0000
0000
,  // measure 202
3003
0000
0000
0000
0000
0000
0000
0000
0000
0000
0002
0000
0000
0023
0000
0000
,  // measure 203
0032
0000
0000
0023
0000
0000
0032
0000
0000
0000
0000
0000
0000
0000
0000
0000
,  // measure 204
0000
0000
0000
0000
0003
0000
0000
0000
0000
0000
0020
0000
0000
0032
0000
0000
,  // measure 205
0023
0000
0000
0030
,  // measure 206
0000
0000
0000
0002
0000
0003
2000
0000
,  // measure 207
3020
0000
0230
0302
0000
0000
0000
0000
,  // measure 208
0000
0000
0003
0000
0000
0002
0203
0320
,  // measure 209
2030
0000
0000
0000
3000
0000
0020
2030
,  // measure 210
3200
0000
0320
0032
,  // measure 211
0023
0000
0230
0000
,  // measure 212
0320
0000
0032
0000
,  // measure 213
0203
0000
0000
0000
0000
0000
0000
0000
0000
0000
0000
0000
0320
0030
2000
0000
,  // measure 214
3200
0000
0000
0000
,  // measure 215
2300
0000
0000
0000
0000
3000
0002
0203
,  // measure 216
0002
0000
0000
0000
0000
0000
0000
0000
0303
0000
0001
0000
0000
0100
0000
0000
,
0002
0003
0000
0000
0200
0300
0000
0000
2000
3000
0000
0000
0002
0003
0000
0000
,
0020
0030
0000
0000
2000
3000
0000
0000
0002
0003
M000
0000
0020
0M30
0000
0000
,
200M
3000
0000
0M00
0002
0003
M000
0000
0200
0300
0000
0000
2000
3000
0000
0000
,
0002
0003
0000
0000
0200
0300
0000
0000
2000
3000
00M0
0000
0002
0M03
0000
0000
,
2000
3000
0000
0000
0200
0300
0000
0000
0002
0003
0000
0000
0020
0030
0000
0000
,
2000
3000
0000
0000
0002
0003
00M0
0000
2000
3000
0000
0000
0M20
0030
0000
0000
,
M002
0003
0000
0000
02M0
0300
000M
0000
2000
3000
0000
0000
0200
0300
0000
0000
,
0002
0003
0000
0000
2000
3000
0000
0000
0200
0300
00M0
0000
M002
0003
00M0
0000
,
M200
0300
0000
0000
2000
3000
0000
0000
0020
0030
0000
0000
0M02
0003
M000
0000
,
0M20
0030
0000
0000
2000
3000
0000
0000
0M02
0003
0000
0000
M020
0030
0000
0000
,
2M00
3000
0000
0000
0020
0030
0000
0000
M002
0003
0000
0000
0200
0300
0000
0000
,
002M
0030
0000
0000
2000
3000
0000
0000
02M0
0300
0000
0000
0020
0030
0000
0000
,
M002
0003
0000
0000
0200
0300
0000
0000
0020
0030
0000
0000
0M02
0003
M000
0000
,
0M20
0030
0000
0000
0200
0300
0000
0000
0002
0003
0000
0000
2000
3000
0000
0000
,
02M0
0300
0000
0000
0020
0030
0000
0000
0002
0003
0000
0000
2000
3000
0000
0000
,
00M2
0003
0000
0000
0200
0300
0000
0000
0020
0030
0000
0000
2000
3000
0000
0000
,
0002
0003
0000
0000
0200
0300
0000
0000
0020
0030
0000
0000
0200
0300
0000
0000
,
M002
0M00
M003
0M00
0000
0000
0000
0000
0000
0000
0000
0000
0000
0000
0000
0000
0000
0000
0000
0000
0000
0000
0000
0000
0000
0000
0000
0000
0000
0000
0000
0000
;

//---------------dance-single - Kyzentun----------------
#NOTES:
     dance-single:
     Kyzentun:
     Challenge:
     11:
     0.643,1.000,0.096,0.747,0.491,1493.000,39.000,305.000,73.000,47.000,16.000,0.643,1.000,0.096,0.747,0.491,1493.000,39.000,305.000,73.000,47.000,16.000:
2000
0000
0000
0000
,
0200
0000
0020
0000
,
0002
0000
0030
0000
,
0023
0000
0300
0000
,
0002
0000
0030
0000
,
0000
0000
3000
0000
,
0200
0000
2000
0000
,
0023
0000
3002
0000
,
2030
0000
0000
0000
,
3020
0000
2300
0000
,
0230
0000
3000
0000
,
0020
0000
0000
0000
,
2030
0000
0003
0000
,
3002
0000
0000
0000
,
0000
0000
0000
0000
,
0000
0000
0000
0000
0000
0000
0000
0000
0303
0000
0200
0000
0000
0302
0000
0000
,
2003
0000
0000
0000
,
0000
0000
0000
0000
0000
0000
0000
0000
0000
0000
0000
0000
0000
0000
0000
0000
0000
0000
0000
0000
0000
0000
0000
0000
0000
0000
0000
0000
0000
0000
0200
0000
3000
0000
0000
0000
0000
0000
0000
0020
0300
0000
0000
0000
0000
0000
0000
0000
,
0032
0000
0000
0000
0000
0000
0000
0000
0003
0020
0000
0000
0000
0000
0000
0000
0000
0000
0230
0000
0000
0000
0000
0000
0000
0000
0000
0000
0000
0000
0000
0000
0000
0000
0000
0000
0000
0000
0000
0000
0000
0000
0000
0000
0000
0000
0000
0000
,
0000
0000
0000
0000
0000
0000
0000
0000
0000
0000
0000
0000
0000
0000
0000
0000
0000
0000
0000
0000
0000
0000
0000
0000
0000
0000
0000
0000
0000
0000
0320
0000
0000
0000
0000
0000
0000
0000
0000
0002
0030
0000
0000
0000
0000
0000
0000
0000
,
0023
0000
0000
0000
,
0000
0000
0030
0200
0000
0000
2300
0000
,
3002
0000
0000
0000
0003
0000
2000
0000
3000
0002
0000
0000
0000
0000
0000
0000
0000
0000
0000
0000
0000
0000
0000
0000
,
0000
0000
0000
0000
0000
0000
0000
0000
0000
0000
0000
0000
0000
0000
0000
0203
0000
0000
0320
0000
0030
2000
0000
0000
,
3002
0000
0000
0000
0000
0000
2003
3200
,
2300
0000
3200
0320
,
0032
0000
2003
0000
,
3020
0000
0230
0000
,
0302
0000
0000
0000
0000
0000
0203
2300
,
3200
0000
0000
0000
,
0000
0000
0000
0000
,
0300
0000
0000
0000
0000
0000
0000
0000
0000
0001
0000
0000
0100
0000
0000
0002
,
0000
0000
0000
0000
,
0003
0000
0000
0000
0000
0000
0000
0000
0000
0000
1000
0000
0000
0100
0000
0000
,
1000
0000
0000
0100
0000
0000
2000
0000
0000
0000
0000
0000
0000
0000
0000
0000
,
0000
0000
0000
0000
0000
0000
0000
0000
3000
0000
0010
0000
0000
0100
0000
0000
,
0020
0000
0000
0000
,
0030
0000
0000
0100
0000
0000
0001
0000
,
0010
0000
0100
2000
0000
0000
0000
0000
,
0000
0000
0000
0000
3000
0100
1000
0100
,
0020
0000
0000
0000
0000
0000
0031
0100
,
0020
0000
0230
2300
,
3200
0000
0320
0000
,
0230
0000
0302
0000
,
2003
0000
0000
0000
0000
0000
3100
0001
,
0200
0000
0000
0000
,
0300
0000
0000
0000
,
0000
0000
0000
0000
,
1000
0100
0010
0001
1000
0100
0010
0001
,
1000
0100
0010
0001
1000
0100
0010
0001
,
1000
0010
0100
0001
1000
0010
0100
0001
,
1000
0010
0100
0001
1000
0010
0100
0001
,
0010
0100
1000
0001
0010
0100
1000
0001
,
0010
0100
1000
0001
0010
0100
1000
0001
,
0100
0010
1000
0001
0100
0010
1000
0001
,
0100
0010
1000
0001
0100
0010
1000
0001
,
1000
0100
0010
0001
1000
0100
0010
0001
,
1000
0100
0010
0001
1000
0100
0010
0001
,
1000
0010
0100
0001
1000
0010
0100
0001
,
1000
0010
0100
0001
1000
0010
0100
0001
,
0010
0100
1000
0001
0010
0100
1000
0001
,
0010
0100
1000
0001
0010
0100
1000
0001
,
0100
0010
1000
0001
0100
0010
1000
0001
,
0100
0010
1000
0001
0100
0010
1000
0001
,
0010
0001
0010
0000
0000
0000
0000
0000
0000
0000
0000
0000
0000
0000
0000
0000
0000
0000
0000
0000
0000
0000
0000
0000
0001
0000
0000
0000
1000
0000
0000
0000
,
0010
0000
0100
0010
,
1000
0010
1000
0000
0000
0000
0000
0000
0000
0000
0000
0000
0000
0000
0000
0000
0010
0000
0000
0000
0100
0000
0000
0000
0001
0000
0000
0000
1000
0000
0000
0000
,
0100
0000
0000
0000
0000
0000
1000
0100
,
0010
0100
0010
0000
0000
0000
0000
0000
0000
0000
0000
0000
0000
0000
0000
0000
0100
0000
0000
0000
0000
0000
0000
0000
0000
0000
0000
0000
0010
0000
0000
0000
,
0001
0000
0100
0010
,
1000
0100
1000
0000
0000
0000
0000
0000
0100
0000
0000
0000
0010
0000
0000
0000
0000
0000
0000
0000
0000
0000
0000
0000
0000
0000
0000
0000
0000
0000
0000
0000
,
0000
0000
0000
0000
0100
1000
0010
1000
,
0010
0100
0010
0000
0000
0000
0000
0000
0000
0000
0000
0000
0000
0000
0000
0000
0000
0000
0000
0000
0000
0000
0000
0000
0100
0000
0000
0000
0001
0000
0000
0000
,
0010
0000
0001
1000
,
0001
1000
0001
0000
0000
0000
0000
0000
0000
0000
0000
0000
0000
0000
0000
0000
0000
0000
0000
0000
0000
0000
0000
0000
1000
0000
0000
0000
0000
0000
0000
0000
,
0010
0000
0000
0000
0000
0010
0100
0010
,
0400
0010
0000
0000
0304
0100
0000
0000
0043
0001
0000
0000
0430
0010
0000
0000
,
4300
0100
0000
0000
3004
1000
0000
0000
0403
0001
0000
0000
0340
0100
0000
0000
,
4030
0010
0000
0000
3004
0010
0000
0000
0403
0010
0000
0000
0304
0010
0000
0000
,
4003
0000
0010
0000
0000
0000
0000
0000
3400
0000
0010
0000
0000
0000
0000
0000
4300
0000
0010
0000
0000
0000
0000
0000
3004
0000
0010
0000
0000
0000
0000
0003
,
MM22
0000
0000
0000
,
0000
0000
0000
0000
0000
0000
0000
0000
0033
0000
0010
0000
0000
0100
0000
0000
,
1000
0000
0000
0001
0000
0000
0200
0000
0000
0000
0000
0000
0000
0000
0000
0000
,
0000
0000
0000
0000
0000
0000
0300
0000
0000
0000
0010
0000
0000
0100
0000
0000
,
0020
0000
0000
0000
,
0030
0000
0000
0100
0000
0000
0001
0000
,
1000
0000
0001
2000
0000
0000
0000
0000
,
0000
0000
0000
3000
0000
0100
0010
0001
,
2000
0000
0000
0000
3000
0000
0010
0100
,
0002
0000
1003
0100
,
0020
0000
0230
0000
,
2300
0000
3200
0000
,
0320
0000
0000
0000
0000
0000
0031
0100
,
0002
0000
0000
0000
,
0003
0000
0000
0000
,
0000
0000
0000
0000
0000
0000
0000
0000
0000
0000
0001
0000
0000
0100
0000
0000
,
M1M1
0000
0000
0000
0001
0100
0001
0100
0001
1000
0001
1000
0100
1000
0100
1000
,
0100
0010
0100
0010
0001
0010
0001
0010
0001
1000
0001
1000
0010
1000
0010
1000
,
0010
0100
0010
0100
1000
0100
1000
0100
1000
0100
1000
0100
0010
0100
0010
0100
,
0010
1000
0010
1000
0001
1000
0001
1000
0001
0010
0001
0010
0100
0010
0100
0010
,
0100
0001
0100
0001
0100
0001
0100
0001
0100
0010
0100
0010
0001
0010
0001
0010
,
0001
1000
0001
1000
0010
1000
0010
1000
0010
0100
0010
0000
0110
0000
0100
0001
,
0100
0001
0100
0000
0101
0000
0001
1000
0001
1000
0001
0000
1001
0000
1000
0100
,
1000
0100
1000
0000
1100
0000
0000
0000
0100
0000
0010
0100
0010
0000
0001
0000
,
0001
0000
1000
0010
1000
0000
0001
0000
0001
0000
0100
0010
0100
0000
0001
0000
,
0001
0000
1000
0100
1000
0000
0010
0000
0010
0000
0100
0001
0100
0000
0010
0000
,
0010
0000
1000
0001
1000
0000
0010
0000
0010
0000
1000
0100
1000
0000
0001
0000
,
1000
0100
1000
0100
1000
0100
1000
0100
1000
0001
1000
0001
1000
0001
1000
0001
,
0100
0001
0100
0001
0100
0001
0100
0001
0100
0010
0100
0010
0100
0010
0100
0010
,
0001
0010
0001
0010
0001
0010
0001
0010
0001
0010
0001
0010
0001
0010
0001
0010
,
0100
0010
0100
0010
0100
0010
0100
0010
0100
0001
0100
0001
0100
0001
0100
0001
,
1000
0001
1000
0001
1000
0001
1000
0001
1000
0001
1000
0001
1000
0001
1000
0000
,
1MM1
0000
0000
0000
0001
0100
0001
0000
0100
0010
0100
0000
0010
1000
0010
0000
,
1000
0100
1000
0000
0100
0010
0100
0000
0010
0001
0010
0000
0001
0100
0001
0000
,
0100
0010
0100
0000
0010
1000
0010
0000
1000
0100
1000
0000
0100
0010
0100
0000
,
0010
0001
1000
0000
0001
1000
0010
0000
1000
0010
0100
0000
0010
0100
0001
0000
,
0100
0001
0010
0000
0001
0010
0100
0000
0010
0100
0001
0000
0100
0010
0001
0000
,
0010
0001
1000
0000
0001
1000
0010
0000
1000
0010
0100
0000
0010
0100
1000
0000
,
0100
0010
1000
0000
0010
1000
0001
0000
1000
0100
0001
0000
0001
0100
1000
0000
,
0001
0100
1000
0000
1000
0100
0001
0000
0010
0001
0100
0000
0010
1000
0100
0000
,
0010
0100
0010
0000
0100
1000
0100
0000
1000
0001
1000
0000
0001
0100
0001
0000
,
0100
0010
0100
0000
0010
1000
0010
0000
1000
0100
1000
0000
0100
0001
0100
0000
,
0001
0100
0001
0000
0100
1000
0100
0000
1000
0001
1000
0000
0001
0100
0001
0000
,
0100
1000
0100
0000
1000
0100
1000
0000
0100
0001
0100
0000
0001
1000
0001
0000
,
1000
0010
1000
0000
0010
0100
0010
0000
0100
0001
0100
0000
0001
0010
0001
0000
,
1000
0010
1000
0000
0001
0010
0001
0000
1000
0010
1000
0000
0001
0010
0001
0000
,
1MM1
0000
M11M
0000
,
1MM1
M11M
1MM1
M11M
,
1MM1
0000
0001
0100
0010
0100
1000
0100
,
0010
0000
0100
0000
0001
1000
0000
0001
0100
0000
0010
0000
1000
0000
0010
0000
,
0100
0010
0001
0010
0100
0010
1000
0100
,
0010
0000
0100
0000
0001
0000
0100
0000
0010
0000
0100
0000
1000
0000
0001
1000
,
0000
0010
0001
0010
0100
0010
1000
0100
,
0010
0000
0100
0000
0001
1000
0000
0001
0100
0000
0010
0000
1000
0000
0010
0000
,
0100
0010
0001
0100
0010
0100
1000
0100
,
0010
0000
0100
0000
0001
0000
0010
0000
0100
0000
0010
0000
1000
0000
0001
1000
,
0000
0010
0001
0100
0010
0100
1000
0100
,
0010
0000
0100
0000
0001
1000
0000
0001
0100
0000
0010
0000
1000
0000
0010
0000
,
0100
0010
0001
0010
0100
0010
1000
0100
,
0010
0000
0100
0000
0001
0000
0100
0000
0010
0000
0100
0000
1000
0000
0001
1000
,
0000
0000
0010
0000
0001
0000
0010
0000
1000
0010
1000
0010
1000
0001
1000
0001
,
0100
0001
0100
0001
0100
0010
0100
0010
0001
0010
0001
0010
0001
0010
0001
0010
,
0100
0010
0100
0010
0100
0001
0100
0001
1000
0001
1000
0001
1000
0100
1000
0100
,
0010
0100
0010
0100
0010
0001
0010
0001
1000
0001
1000
0001
1000
0010
1000
0000
,
1M1M
0000
0000
0000
0010
1000
0010
0000
1000
0001
1000
0000
0001
0010
0001
0000
,
0010
0100
0010
0000
0100
0001
0100
0000
0001
0100
0001
0000
0100
0010
0100
0000
,
0010
0001
0010
0000
0001
1000
0001
0000
1000
0010
1000
0000
0010
0100
0010
0000
,
0100
1000
0100
0000
1000
0100
1000
0000
0100
0010
0100
0000
0010
1000
0010
0000
,
1000
0001
1000
0000
0001
0010
0001
0000
1000
0010
1000
0000
0001
0010
0001
0000
,
1000
1000
0000
0001
1000
1000
0000
0001
,
0101
0001
0000
0100
0001
0001
0000
0100
,
0110
0100
0000
0010
1010
0010
0101
0100
,
0220
0000
0330
0000
,
0002
0000
2003
0000
,
3200
0000
0000
0000
0300
0000
0010
0001
,
0200
0300
0010
0000
1000
0000
0100
0000
,
0020
0030
0000
0000
0000
0000
0000
0000
,
0002
0003
0000
0000
0100
0000
0020
0030
,
0020
0030
0000
0000
2000
3000
0000
0000
,
0200
0300
0000
0000
0020
0030
0000
0000
,
0200
0300
0000
0000
0000
0000
1000
0001
,
0200
0300
0000
0000
0020
0030
0000
0000
,
2000
3000
0000
0000
0000
0000
0000
0000
,
0002
0000
0003
0000
0000
0000
0000
0000
0000
0000
0000
0000
1000
0100
0010
0001
,
2000
3000
0100
0000
0010
0000
0001
0000
,
2000
3000
0000
0000
0010
0000
0100
0000
,
0002
0000
0003
0000
0000
0000
0000
0000
0000
0000
0000
0000
0001
0100
0001
1000
,
0200
0000
0300
0000
0000
0000
0000
0000
0000
0000
2000
0000
0000
3200
0000
0300
,
0220
0000
0330
0000
0010
0001
0010
0000
0001
1000
0001
0000
1000
0010
1000
0000
,
0002
0103
0001
0000
0010
0001
0010
0000
0100
1000
0200
0000
0310
0200
0010
0300
,
0002
1003
0001
2000
3100
0010
0200
0000
0320
0031
0010
0000
0001
0010
0001
0000
,
2000
3010
1000
0000
0001
0010
0001
0000
1000
0010
2000
0000
3001
0200
0001
0300
,
2000
3100
1000
0000
0001
0100
0001
0000
1000
0100
1000
0000
0001
1000
0001
0000
,
0200
1300
0100
0000
0001
1000
0002
0000
0103
1000
0100
0000
0002
0103
0001
0000
,
2000
3001
1000
0000
0200
0301
0200
0000
1300
0001
1000
0000
0100
0001
0100
0000
,
0020
0130
0010
0000
0001
0010
0001
0000
1000
0001
2000
0000
3020
0031
0020
0000
,
2030
3001
1000
0000
0010
0001
0010
0000
1000
0010
1000
0000
0002
1003
0002
0000
,
0023
1030
0010
0000
0001
1000
0001
0000
0020
1030
0010
0000
0002
0013
0001
0000
,
2000
3100
1000
0000
0001
0010
0001
0000
2000
3100
1000
0000
0010
0100
0010
0000
,
2000
3100
1000
0000
0010
0100
0010
0000
2000
3001
1000
0000
0001
0010
0001
0000
,
0200
0310
0100
0000
0001
0010
0001
0000
0100
0010
0100
0000
0002
0010
2003
3000
,
2000
0010
3001
0000
1000
0010
0001
0000
0001
0010
1000
0000
0010
1000
0010
0000
,
2M2M
0000
3030
0000
0000
0000
0200
0300
M2M2
0000
0303
0000
0200
0000
0300
0000
,
2MM2
3003
M11M
0000
1MM1
0000
M11M
0000
,
2MM2
0000
3003
0000
0001
0100
0001
0000
0100
0010
0100
0000
0010
1000
0010
0000
,
2000
3100
1000
0000
0100
0010
0000
0100
0010
0001
0020
0000
0031
0020
0001
0030
,
0020
1030
0010
0002
0013
0001
0020
0000
0031
1000
0001
0000
1000
0010
1000
0000
,
0020
0130
0010
0000
0100
0001
0100
0000
0001
1000
0002
0000
1003
0020
1000
0031
,
0020
0001
1030
0000
0001
0100
0001
0000
0100
0010
0100
0000
0010
1000
0010
0000
,
2000
3001
1000
0000
0001
0010
0002
0100
0013
0100
0010
0000
0200
0301
0100
0000
,
0020
1030
0010
0000
0200
0301
0200
0000
0301
1000
0001
0000
0100
0010
0100
0000
,
0001
1000
0001
0000
0010
0100
0010
0000
0001
1000
0002
0000
0023
0130
0020
0031
,
0020
0001
1030
0000
0001
0100
0001
0000
0100
0010
0100
0000
0020
1030
0020
0030
,
2000
3100
1000
0000
0100
0010
0000
0100
0020
0031
0010
0000
0002
0103
0001
0000
,
0020
0130
0010
0000
0001
0100
0001
0000
0020
0031
0010
0000
0100
1000
0100
0000
,
0020
0031
0010
0000
0100
1000
0100
0000
0020
0001
1030
0000
0001
0100
0010
0000
,
2000
0010
3100
0001
0100
0010
0100
0001
0010
0100
0010
0100
2000
3001
2000
3100
,
2000
0001
3100
0001
0100
0010
0100
0010
0100
0001
0010
0001
0010
0100
0010
0100
,
2000
0001
3100
0001
0100
0010
0100
0010
0001
0010
0001
0010
0100
0001
0100
0010
,
2000
0100
3010
0001
0010
0100
0001
0100
0010
0100
2000
0100
3010
0002
0010
0003
,
2MM2
0000
0000
0000
0000
0000
0000
0003
,
0200
0000
0000
0000
0000
0000
0000
3000
2000
0000
0020
0000
0000
0032
0000
0300
,
0223
0000
0000
0032
0000
0000
0023
0000
0000
0000
0000
0000
0000
0000
0000
3000
,
2000
0000
0000
0000
0030
0000
0000
0000
0000
0000
0002
0000
0000
0023
0300
0030
,
0022
0000
0000
0000
0000
0000
0030
3000
,
0200
0000
0000
0003
2020
0000
3002
0300
,
2203
0000
3002
2003
0000
0000
0000
0030
,
0020
0000
3000
0000
0000
0002
2003
3302
,
2203
0000
0000
0000
0000
0000
0000
0000
3000
0000
0000
0000
0002
0003
0032
0003
,
2002
0000
0003
0000
0000
0000
0300
0000
0220
0000
0000
0030
0020
0000
3000
0030
,
0022
0000
0000
0000
2030
0000
0000
0300
,
3220
0000
0000
0000
2030
0000
0000
0003
,
3002
0000
0000
0000
0000
0000
0000
0000
0000
0000
0000
0000
0020
0030
0320
0030
,
2020
0000
0000
0000
0000
0000
0000
0003
,
0230
0000
0000
0000
0000
3000
2300
3200
,
2000
0000
0000
0000
0000
0000
0000
0000
3300
0000
0001
0000
0000
0100
0000
0000
,
0002
0003
0000
0000
0200
0300
0000
0000
2000
3000
0000
0000
0002
0003
0000
0000
,
0020
0030
0000
0000
2000
3000
0000
0000
0002
0003
M000
0000
0020
0M30
0000
0000
,
200M
3000
0000
0M00
0002
0003
M000
0000
0200
0300
0000
0000
2000
3000
0000
0000
,
0002
0003
0000
0000
0200
0300
0000
0000
2000
3000
00M0
0000
0002
0M03
0000
0000
,
2000
3000
0000
0000
0200
0300
0000
0000
0002
0003
0000
0000
0020
0030
0000
0000
,
2000
3000
0000
0000
0002
0003
00M0
0000
2000
3000
0000
0000
0M20
0030
0000
0000
,
M002
0003
0000
0000
02M0
0300
000M
0000
2000
3000
0000
0000
0200
0300
0000
0000
,
0002
0003
0000
0000
2000
3000
0000
0000
0200
0300
00M0
0000
M002
0003
00M0
0000
,
M200
0300
0000
0000
2000
3000
0000
0000
0020
0030
0000
0000
0M02
0003
M000
0000
,
0M20
0030
0000
0000
2000
3000
0000
0000
0M02
0003
0000
0000
M020
0030
0000
0000
,
2M00
3000
0000
0000
0020
0030
0000
0000
M002
0003
0000
0000
0200
0300
0000
0000
,
002M
0030
0000
0000
2000
3000
0000
0000
02M0
0300
0000
0000
0020
0030
0000
0000
,
M002
0003
0000
0000
0200
0300
0000
0000
0020
0030
0000
0000
0M02
0003
M000
0000
,
0M20
0030
0000
0000
0200
0300
0000
0000
0002
0003
0000
0000
2000
3000
0000
0000
,
02M0
0300
0000
0000
0020
0030
0000
0000
0002
0003
0000
0000
2000
3000
0000
0000
,
00M2
0003
0000
0000
0200
0300
0000
0000
0020
0030
0000
0000
2000
3000
0000
0000
,
0002
0003
0000
0000
0200
0300
0000
0000
0020
0030
0000
0000
0200
0300
0000
0000
,
M002
0M00
M003
0M00
0000
0000
0000
0000
0000
0000
0000
0000
0000
0000
0000
0000
0000
0000
0000
0000
0000
0000
0000
0000
0000
0000
0000
0000
0000
0000
0000
0000
;

//---------------dance-single - Kyzentun----------------
#NOTES:
     dance-single:
     Kyzentun:
     Medium:
     10:
     0.643,1.000,0.096,0.747,0.491,1493.000,39.000,305.000,73.000,47.000,16.000,0.643,1.000,0.096,0.747,0.491,1493.000,39.000,305.000,73.000,47.000,16.000:
2000
0000
0000
0000
,
0200
0000
0020
0000
,
0002
0000
0030
0000
,
0023
0000
0300
0000
,
0002
0000
0030
0000
,
0000
0000
3000
0000
,
0200
0000
2000
0000
,
0023
0000
3002
0000
,
2030
0000
0000
0000
,
3020
0000
2300
0000
,
0230
0000
3000
0000
,
0020
0000
0000
0000
,
2030
0000
0003
0000
,
3002
0000
0000
0000
,
0000
0000
0000
0000
,
,  // measure 16
0000
0000
0000
0000
0000
0000
0000
0000
0303
0000
0200
0000
0000
0302
0000
0000
,  // measure 17
2003
0000
0000
0000
,  // measure 18
0000
0000
0000
0000
0000
0000
0000
0000
0000
0000
0000
0000
0000
0000
0000
0000
0000
0000
0000
0000
0000
0000
0000
0000
0000
0000
0000
0000
0000
0000
0200
0000
3000
0000
0000
0000
0000
0000
0000
0020
0300
0000
0000
0000
0000
0000
0000
0000
,  // measure 19
0032
0000
0000
0000
0000
0000
0000
0000
0003
0020
0000
0000
0000
0000
0000
0000
0000
0000
0230
0000
0000
0000
0000
0000
0000
0000
0000
0000
0000
0000
0000
0000
0000
0000
0000
0000
0000
0000
0000
0000
0000
0000
0000
0000
0000
0000
0000
0000
,  // measure 20
0000
0000
0000
0000
0000
0000
0000
0000
0000
0000
0000
0000
0000
0000
0000
0000
0000
0000
0000
0000
0000
0000
0000
0000
0000
0000
0000
0000
0000
0000
0320
0000
0000
0000
0000
0000
0000
0000
0000
0002
0030
0000
0000
0000
0000
0000
0000
0000
,  // measure 21
0023
0000
0000
0000
,  // measure 22
0000
0000
0030
0200
0000
0000
2300
0000
,  // measure 23
3002
0000
0000
0000
0003
0000
2000
0000
3000
0002
0000
0000
0000
0000
0000
0000
0000
0000
0000
0000
0000
0000
0000
0000
,  // measure 24
0000
0000
0000
0000
0000
0000
0000
0000
0000
0000
0000
0000
0000
0000
0000
0203
0000
0000
0320
0000
0030
2000
0000
0000
,  // measure 25
3002
0000
0000
0000
0000
0000
2003
3200
,  // measure 26
2300
0000
3200
0320
,  // measure 27
0032
0000
2003
0000
,  // measure 28
3020
0000
0230
0000
,  // measure 29
0302
0000
0000
0000
0000
0000
0203
0320
,  // measure 30
0230
0000
0000
0000
,  // measure 31
0000
0000
0000
0000
,  // measure 32
0300
0000
0000
0000
0000
0000
0000
0000
0000
0001
0000
0000
0100
0000
0000
0002
,  // measure 33
0000
0000
0000
0000
,  // measure 34
0003
0000
0000
0000
0000
0000
0000
0000
0000
0000
1000
0000
0000
0100
0000
0000
,  // measure 35
1000
0000
0000
0100
0000
0000
2000
0000
0000
0000
0000
0000
0000
0000
0000
0000
,  // measure 36
0000
0000
0000
0000
0000
0000
0000
0000
3000
0000
0010
0000
0000
0100
0000
0000
,  // measure 37
0020
0000
0000
0000
,  // measure 38
0030
0000
0000
0100
0000
0000
0001
0000
,  // measure 39
0010
0000
0100
2000
0000
0000
0000
0000
,  // measure 40
0000
0000
0000
0000
3000
0100
1000
0100
,  // measure 41
0020
0000
0000
0000
0000
0000
0031
0100
,  // measure 42
0020
0000
0230
0320
,  // measure 43
0230
0000
0320
0000
,  // measure 44
0230
0000
0302
0000
,  // measure 45
2003
0000
0000
0000
0000
0000
3100
0010
,  // measure 46
0200
0000
0000
0000
,  // measure 47
0300
0000
0000
0000
,  // measure 48
0000
0000
0000
0000
,  // measure 49
1000
0100
0010
0001
1000
0100
0010
0001
,  // measure 50
1000
0100
0010
0001
1000
0100
0010
0001
,  // measure 51
1000
0010
0100
0001
1000
0010
0100
0001
,  // measure 52
1000
0010
0100
0001
1000
0010
0100
0001
,  // measure 53
0010
0100
1000
0001
0010
0100
1000
0001
,  // measure 54
0010
0100
1000
0001
0010
0100
1000
0001
,  // measure 55
0100
0010
1000
0001
0100
0010
1000
0001
,  // measure 56
0100
0010
1000
0001
0100
0010
1000
0001
,  // measure 57
1000
0100
0010
0001
1000
0100
0010
0001
,  // measure 58
1000
0100
0010
0001
1000
0100
0010
0001
,  // measure 59
1000
0010
0100
0001
1000
0010
0100
0001
,  // measure 60
1000
0010
0100
0001
1000
0010
0100
0001
,  // measure 61
0010
0100
1000
0001
0010
0100
1000
0001
,  // measure 62
0010
0100
1000
0001
0010
0100
1000
0001
,  // measure 63
0100
0010
1000
0001
0100
0010
1000
0001
,  // measure 64
0100
0010
1000
0001
0100
0010
1000
0001
,  // measure 65
0010
0001
0010
0000
0000
0000
0000
0000
0000
0000
0000
0000
0000
0000
0000
0000
0000
0000
0000
0000
0000
0000
0000
0000
0001
0000
0000
0000
1000
0000
0000
0000
,  // measure 66
0010
0000
0100
0010
,  // measure 67
1000
0010
1000
0000
0000
0000
0000
0000
0000
0000
0000
0000
0000
0000
0000
0000
0010
0000
0000
0000
0100
0000
0000
0000
0001
0000
0000
0000
1000
0000
0000
0000
,  // measure 68
0100
0000
0000
0000
0000
0000
1000
0100
,  // measure 69
0010
0100
0010
0000
0000
0000
0000
0000
0000
0000
0000
0000
0000
0000
0000
0000
0100
0000
0000
0000
0000
0000
0000
0000
0000
0000
0000
0000
0010
0000
0000
0000
,  // measure 70
0001
0000
0100
0010
,  // measure 71
1000
0010
1000
0000
0000
0000
0000
0000
0001
0000
0000
0000
0010
0000
0000
0000
0000
0000
0000
0000
0000
0000
0000
0000
0000
0000
0000
0000
0000
0000
0000
0000
,  // measure 72
0000
0000
0000
0000
0100
1000
0010
1000
,  // measure 73
0010
0100
0010
0000
0000
0000
0000
0000
0000
0000
0000
0000
0000
0000
0000
0000
0000
0000
0000
0000
0000
0000
0000
0000
0100
0000
0000
0000
0001
0000
0000
0000
,  // measure 74
0010
0000
0001
1000
,  // measure 75
0001
1000
0001
0000
0000
0000
0000
0000
0000
0000
0000
0000
0000
0000
0000
0000
0000
0000
0000
0000
0000
0000
0000
0000
1000
0000
0000
0000
0000
0000
0000
0000
,  // measure 76
0010
0000
0000
0000
0000
0010
0100
0010
,  // measure 77
0400
0010
0000
0000
0304
0100
0000
0000
0043
0001
0000
0000
0430
0010
0000
0000
,  // measure 78
4300
0100
0000
0000
3004
1000
0000
0000
0403
0001
0000
0000
0340
0100
0000
0000
,  // measure 79
4030
0010
0000
0000
3004
0010
0000
0000
0403
0010
0000
0000
0304
0010
0000
0000
,  // measure 80
4003
0000
0010
0000
0000
0000
0000
0000
3400
0000
0010
0000
0000
0000
0000
0000
4300
0000
0010
0000
0000
0000
0000
0000
3004
0000
0010
0000
0000
0000
0000
0003
,  // measure 81
MM22
0000
0000
0000
,  // measure 82
0000
0000
0000
0000
0000
0000
0000
0000
0033
0000
0010
0000
0000
0100
0000
0000
,  // measure 83
1000
0000
0000
0001
0000
0000
0200
0000
0000
0000
0000
0000
0000
0000
0000
0000
,  // measure 84
0000
0000
0000
0000
0000
0000
0300
0000
0000
0000
0010
0000
0000
0100
0000
0000
,  // measure 85
0020
0000
0000
0000
,  // measure 86
0030
0000
0000
0100
0000
0000
0001
0000
,  // measure 87
1000
0000
0001
2000
0000
0000
0000
0000
,  // measure 88
0000
0000
0000
3000
0000
0100
0010
0001
,  // measure 89
2000
0000
0000
0000
3000
0000
0010
0100
,  // measure 90
0002
0000
1003
0100
,  // measure 91
0020
0000
0230
0000
,  // measure 92
2300
0000
3200
0000
,  // measure 93
0320
0000
0000
0000
0000
0000
0031
0100
,  // measure 94
0002
0000
0000
0000
,  // measure 95
0003
0000
0000
0000
,  // measure 96
0000
0000
0000
0000
0000
0000
0000
0000
0000
0000
0001
0000
0000
0100
0000
0000
,  // measure 97
M1M1
0000
0000
0000
0001
0100
0001
0100
0001
1000
0001
1000
0100
1000
0100
1000
,  // measure 98
0100
0010
0100
0010
0001
0010
0001
0010
0001
1000
0001
1000
0010
1000
0010
1000
,  // measure 99
0010
0100
0010
0100
0001
0100
0001
0100
0001
0100
0001
0100
0010
0100
0010
0100
,  // measure 100
0010
1000
0010
1000
0001
1000
0001
1000
0001
0010
0001
0010
0100
0010
0100
0010
,  // measure 101
0100
1000
0100
1000
0100
1000
0100
1000
0100
0010
0100
0010
0001
0010
0001
0010
,  // measure 102
0001
1000
0001
1000
0010
1000
0010
1000
0010
0100
0010
0000
0110
0000
0100
0001
,  // measure 103
0100
0001
0100
0000
0101
0000
0001
1000
0001
1000
0001
0000
1001
0000
1000
0100
,  // measure 104
1000
0100
1000
0000
1100
0000
0100
0000
0100
0000
0010
0100
0010
0000
0001
0000
,  // measure 105
0001
0000
1000
0010
1000
0000
0001
0000
0001
0000
0100
0010
0100
0000
0001
0000
,  // measure 106
0001
0000
1000
0100
1000
0000
0010
0000
0010
0000
0100
0001
0100
0000
0010
0000
,  // measure 107
0010
0000
1000
0001
1000
0000
0010
0000
0010
0000
1000
0100
1000
0000
0001
0000
,  // measure 108
1000
0100
1000
0100
1000
0100
1000
0100
1000
0001
1000
0001
1000
0001
1000
0001
,  // measure 109
0100
0001
0100
0001
0100
0001
0100
0001
0100
0010
0100
0010
0100
0010
0100
0010
,  // measure 110
1000
0010
1000
0010
1000
0010
1000
0001
1000
0001
1000
0001
1000
0001
1000
0001
,  // measure 111
0100
0001
0100
0001
0100
0001
0100
0001
0100
0010
0100
0010
0100
0010
0100
0010
,  // measure 112
1000
0010
1000
0010
1000
0010
1000
0010
1000
0001
1000
0001
1000
0001
1000
0000
,  // measure 113
1MM1
0000
0000
0000
0001
0100
0001
0000
0100
0010
0100
0000
0010
1000
0010
0000
,  // measure 114
1000
0100
1000
0000
0100
0010
0100
0000
0010
0001
0010
0000
0001
0100
0001
0000
,  // measure 115
0100
0010
0100
0000
0010
1000
0010
0000
1000
0100
1000
0000
0100
0010
0100
0000
,  // measure 116
0010
0001
1000
0000
0001
1000
0010
0000
1000
0010
0100
0000
0010
0100
0001
0000
,  // measure 117
0100
0001
0010
0000
0001
0010
0100
0000
0010
0100
1000
0000
0100
0010
0001
0000
,  // measure 118
0010
0001
1000
0000
0001
1000
0010
0000
1000
0010
0100
0000
0010
0100
0001
0000
,  // measure 119
0100
0010
1000
0000
0010
1000
0001
0000
1000
0100
0010
0000
0010
0100
1000
0000
,  // measure 120
0001
0100
0010
0000
0010
0100
0001
0000
0010
0001
0100
0000
0010
1000
0100
0000
,  // measure 121
0010
0100
0010
0000
0100
1000
0100
0000
1000
0001
1000
0000
0001
0100
0001
0000
,  // measure 122
0100
0010
0100
0000
0010
1000
0010
0000
1000
0100
1000
0000
0100
0010
0100
0000
,  // measure 123
0010
0100
0010
0000
0100
1000
0100
0000
1000
0001
1000
0000
0001
0100
0001
0000
,  // measure 124
0100
0010
0100
0000
0010
0100
0010
0000
0100
0001
0100
0000
0001
1000
0001
0000
,  // measure 125
1000
0010
1000
0000
0010
0100
0010
0000
0100
0001
0100
0000
0001
0010
0001
0000
,  // measure 126
1000
0010
1000
0000
0001
0010
0001
0000
1000
0010
1000
0000
0001
0010
0001
0000
,  // measure 127
1MM1
0000
M11M
0000
,  // measure 128
1MM1
M11M
1MM1
M11M
,  // measure 129
1MM1
0000
0001
0100
0010
0100
0001
0100
,  // measure 130
0010
0000
0100
0000
0001
1000
0000
0001
0100
0000
0010
0000
1000
0000
0010
0000
,  // measure 131
0100
0010
1000
0010
0100
0010
1000
0100
,  // measure 132
0010
0000
0100
0000
1000
0000
0100
0000
0010
0000
0100
0000
1000
0000
0001
1000
,  // measure 133
0000
0010
1000
0010
0100
0010
1000
0100
,  // measure 134
0010
0000
0100
0000
1000
0001
0000
1000
0100
0000
0010
0000
0001
0000
0010
0000
,  // measure 135
0100
0010
0001
0100
0010
0100
0001
0100
,  // measure 136
0010
0000
0100
0000
0001
0000
0010
0000
0100
0000
0010
0000
0001
0000
1000
0001
,  // measure 137
0000
0010
0001
0100
0010
0100
0001
0100
,  // measure 138
0010
0000
0100
0000
0001
1000
0000
0001
0100
0000
0010
0000
1000
0000
0010
0000
,  // measure 139
0100
0010
1000
0010
0100
0010
1000
0100
,  // measure 140
0010
0000
0100
0000
1000
0000
0100
0000
0010
0000
0100
0000
1000
0000
0001
1000
,  // measure 141
0000
0000
0010
0000
1000
0000
0010
0000
1000
0010
1000
0010
1000
0001
1000
0001
,  // measure 142
0100
0001
0100
0001
0100
0010
0100
0010
1000
0010
1000
0010
1000
0010
1000
0010
,  // measure 143
0100
0010
0100
0010
0100
0001
0100
0001
1000
0001
1000
0001
1000
0100
1000
0100
,  // measure 144
0010
0100
0010
0100
0010
0001
0010
0001
1000
0001
1000
0001
1000
0010
1000
0000
,  // measure 145
1M1M
0000
0000
0000
0010
1000
0010
0000
1000
0001
1000
0000
0001
0010
0001
0000
,  // measure 146
0010
0100
0010
0000
0100
1000
0100
0000
1000
0100
1000
0000
0100
0010
0100
0000
,  // measure 147
0010
0001
0010
0000
0001
1000
0001
0000
1000
0010
1000
0000
0010
0100
0010
0000
,  // measure 148
0100
0001
0100
0000
0001
0100
0001
0000
0100
0010
0100
0000
0010
1000
0010
0000
,  // measure 149
1000
0001
1000
0000
0001
0010
0001
0000
1000
0010
1000
0000
0001
0010
0001
0000
,  // measure 150
1000
1000
0000
0001
1000
1000
0000
0001
,  // measure 151
0101
0001
0000
0100
0001
0001
0000
0100
,  // measure 152
0110
0100
0000
0010
1010
0010
0101
0100
,  // measure 153
0220
0000
0330
0000
,  // measure 154
0002
0000
2003
0000
,  // measure 155
3200
0000
0000
0000
0300
0000
0010
0001
,  // measure 156
0200
0300
0010
0000
1000
0000
0100
0000
,  // measure 157
0020
0030
0000
0000
0000
0000
0000
0000
,  // measure 158
0002
0003
0000
0000
0100
0000
0020
0030
,  // measure 159
0020
0030
0000
0000
2000
3000
0000
0000
,  // measure 160
0200
0300
0000
0000
0020
0030
0000
0000
,  // measure 161
0200
0300
0000
0000
0000
0000
1000
0001
,  // measure 162
0200
0300
0000
0000
0020
0030
0000
0000
,  // measure 163
2000
3000
0000
0000
0000
0000
0000
0000
,  // measure 164
0002
0000
0003
0000
0000
0000
0000
0000
0000
0000
0000
0000
1000
0100
0010
0001
,  // measure 165
2000
3000
0100
0000
0010
0000
0001
0000
,  // measure 166
2000
3000
0000
0000
0010
0000
0100
0000
,  // measure 167
0002
0000
0003
0000
0000
0000
0000
0000
0000
0000
0000
0000
0001
0100
0001
1000
,  // measure 168
0200
0000
0300
0000
0000
0000
0000
0000
0000
0000
2000
0000
0000
3200
0000
0300
,  // measure 169
0220
0000
0330
0000
0010
0001
0010
0000
0001
1000
0001
0000
1000
0010
1000
0000
,  // measure 170
0002
0103
0001
0000
0010
0001
0010
0000
0100
1000
0200
0000
0310
0200
0010
0300
,  // measure 171
0002
1003
0001
2000
3100
0010
0200
0000
0320
0031
0010
0000
0001
0010
0001
0000
,  // measure 172
2000
3010
1000
0000
0001
0010
0001
0000
1000
0010
2000
0000
3001
0200
0001
0300
,  // measure 173
2000
3100
1000
0000
0001
0100
0001
0000
1000
0100
1000
0000
0001
1000
0001
0000
,  // measure 174
0200
0310
0100
0000
0001
1000
0002
0000
0103
0010
0100
0000
0002
0103
0001
0000
,  // measure 175
2000
3001
1000
0000
0200
0310
0200
0000
1300
0001
1000
0000
0100
0010
0100
0000
,  // measure 176
0020
0130
0010
0000
0001
0010
0001
0000
1000
0001
2000
0000
3020
0130
0020
0000
,  // measure 177
2030
3001
1000
0000
0010
0100
0010
0000
1000
0010
1000
0000
0002
1003
0002
0000
,  // measure 178
0023
0130
0010
0000
0001
1000
0001
0000
0020
0130
0010
0000
0002
0013
0001
0000
,  // measure 179
2000
3100
1000
0000
0001
0010
0001
0000
2000
3100
1000
0000
0010
0100
0010
0000
,  // measure 180
2000
3100
1000
0000
0010
0100
0010
0000
2000
3001
1000
0000
0001
0010
0001
0000
,  // measure 181
0200
0310
0100
0000
0001
0010
0001
0000
0100
0010
0100
0000
0002
0010
2003
3000
,  // measure 182
2000
0010
3001
0000
1000
0010
0001
0000
0001
0010
1000
0000
0010
1000
0010
0000
,  // measure 183
2M2M
0000
3030
0000
0000
0000
0200
0300
M2M2
0000
0303
0000
0200
0000
0300
0000
,  // measure 184
2MM2
3003
M11M
0000
1MM1
0000
M11M
0000
,  // measure 185
2MM2
0000
3003
0000
0001
0100
0001
0000
0100
0010
0100
0000
0010
1000
0010
0000
,  // measure 186
2000
3100
1000
0000
0100
0010
0000
0100
0010
0001
0020
0000
0031
0020
0001
0030
,  // measure 187
0020
0130
0010
0002
0013
0001
0020
0000
0031
1000
0001
0000
1000
0010
1000
0000
,  // measure 188
0020
0130
0010
0000
0100
0001
0100
0000
0001
1000
0002
0000
1003
0020
1000
0031
,  // measure 189
0020
0001
1030
0000
0001
0100
0001
0000
0100
0010
0100
0000
0010
1000
0010
0000
,  // measure 190
2000
3001
1000
0000
0001
0010
0002
0100
0013
0100
0010
0000
0200
0301
0100
0000
,  // measure 191
0020
1030
0010
0000
0200
0301
0200
0000
0301
1000
0001
0000
0100
0010
0100
0000
,  // measure 192
0001
1000
0001
0000
0010
0100
0010
0000
0001
1000
0002
0000
0023
0130
0020
0031
,  // measure 193
0020
0001
1030
0000
0001
0100
0001
0000
0100
0010
0100
0000
0020
1030
0020
0030
,  // measure 194
2000
3100
1000
0000
0100
0010
0000
0100
0020
0031
0010
0000
0002
0103
0001
0000
,  // measure 195
0020
0130
0010
0000
0001
0100
0001
0000
0020
0031
0010
0000
0100
1000
0100
0000
,  // measure 196
0020
0031
0010
0000
0100
1000
0100
0000
0020
0001
1030
0000
0001
0100
0010
0000
,  // measure 197
2000
0010
3100
0001
0100
0010
0100
0001
0010
0100
0010
0100
2000
3001
2000
3100
,  // measure 198
2000
0001
3100
0001
0100
0010
0100
0010
0100
0001
0010
0001
0010
0100
0010
0100
,  // measure 199
2000
0001
3100
0001
0100
0010
0100
0010
1000
0010
1000
0010
0100
0001
0100
0010
,  // measure 200
2000
0100
3010
0001
0010
0100
1000
0100
0010
0100
2000
0100
3010
0002
0010
0003
,  // measure 201
2MM2
0000
0000
0000
0000
0000
0000
0003
,
0200
0000
0000
0000
0000
0000
0000
3000
2000
0000
0020
0000
0000
0032
0000
0300
,
0223
0000
0000
0032
0000
0000
0023
0000
0000
0000
0000
0000
0000
0000
0000
3000
,
2000
0000
0000
0000
0030
0000
0000
0000
0000
0000
0002
0000
0000
0023
0300
0030
,
0022
0000
0000
0000
0000
0000
0030
3000
,
0200
0000
0000
0003
2020
0000
3002
0300
,
2203
0000
3002
2003
0000
0000
0000
0030
,
0020
0000
3000
0000
0000
0002
2003
3302
,
2203
0000
0000
0000
0000
0000
0000
0000
3000
0000
0000
0000
0002
0003
0032
0003
,
2002
0000
0003
0000
0000
0000
0300
0000
0220
0000
0000
0030
0020
0000
3000
0030
,
0022
0000
0000
0000
2030
0000
0000
0300
,
3220
0000
0000
0000
2030
0000
0000
0003
,
3002
0000
0000
0000
0000
0000
0000
0000
0000
0000
0000
0000
0020
0030
0320
0030
,
2020
0000
0000
0000
0000
0000
0000
0003
,
0230
0000
0000
0000
0000
3000
2300
3200
,
2000
0000
0000
0000
0000
0000
0000
0000
3300
0000
0001
0000
0000
0100
0000
0000
,
0002
0003
0000
0000
0200
0300
0000
0000
0020
0030
0000
0000
2000
3000
0000
0000
,  // measure 218
0020
0030
0000
0000
2000
3000
0000
0000
0002
0003
M000
0000
0020
0M30
0000
0000
,  // measure 219
020M
0300
0000
M000
0020
0030
000M
0000
0200
0300
0000
0000
2000
3000
0000
0000
,  // measure 220
0002
0003
0000
0000
0200
0300
0000
0000
0020
0030
M000
0000
0200
030M
0000
0000
,  // measure 221
0002
0003
0000
0000
0200
0300
0000
0000
0002
0003
0000
0000
0020
0030
0000
0000
,  // measure 222
0200
0300
0000
0000
2000
3000
00M0
0000
0020
0030
0000
0000
2M00
3000
0000
0000
,  // measure 223
00M2
0003
0000
0000
02M0
0300
000M
0000
0020
0030
0000
0000
0200
0300
0000
0000
,  // measure 224
0002
0003
0000
0000
2000
3000
0000
0000
0200
0300
000M
0000
M020
0030
000M
0000
,  // measure 225
M200
0300
0000
0000
2000
3000
0000
0000
0020
0030
0000
0000
020M
0300
M000
0000
,  // measure 226
002M
0030
0000
0000
2000
3000
0000
0000
0M02
0003
0000
0000
M020
0030
0000
0000
,  // measure 227
020M
0300
0000
0000
0020
0030
0000
0000
M002
0003
0000
0000
0200
0300
0000
0000
,  // measure 228
002M
0030
0000
0000
2000
3000
0000
0000
02M0
0300
0000
0000
0020
0030
0000
0000
,  // measure 229
M002
0003
0000
0000
0200
0300
0000
0000
0020
0030
0000
0000
2M00
3000
000M
0000
,  // measure 230
0M20
0030
0000
0000
0200
0300
0000
0000
0002
0003
0000
0000
2000
3000
0000
0000
,  // measure 231
02M0
0300
0000
0000
0020
0030
0000
0000
0002
0003
0000
0000
2000
3000
0000
0000
,  // measure 232
00M2
0003
0000
0000
0200
0300
0000
0000
0020
0030
0000
0000
2000
3000
0000
0000
,  // measure 233
0002
0003
0000
0000
0200
0300
0000
0000
0020
0030
0000
0000
0200
0300
0000
0000
,  // measure 234
M002
0M00
00M3
000M
0000
0000
0000
0000
0000
0000
0000
0000
0000
0000
0000
0000
0000
0000
0000
0000
0000
0000
0000
0000
0000
0000
0000
0000
0000
0000
0000
0000
;

//---------------dance-single - Kyzentun----------------
#NOTES:
     dance-single:
     Kyzentun:
     Easy:
     10:
     0.633,1.000,0.071,0.711,0.491,1489.000,29.000,290.000,73.000,0.000,16.000,0.633,1.000,0.071,0.711,0.491,1489.000,29.000,290.000,73.000,0.000,16.000: // measure 1
2000
0000
0000
0000
,  // measure 2
3200
0000
0320
0000
,  // measure 3
0032
0000
0000
0000
,  // measure 4
0023
0000
0000
0000
,  // measure 5
0032
0000
0000
0000
,  // measure 6
0000
0000
0000
0000
,  // measure 7
0203
0000
0320
0000
,  // measure 8
0230
0000
0302
0000
,  // measure 9
2003
0000
0000
0000
,  // measure 10
3020
0000
2030
0000
,  // measure 11
3200
0000
0000
0000
,  // measure 12
0320
0000
0000
0000
,  // measure 13
0032
0000
0000
0000
,  // measure 14
0200
0000
0000
0000
,  // measure 15
0000
0000
0000
0000
,  // measure 16
0000
0000
0000
0000
0000
0000
0000
0000
0303
0000
0200
0000
0000
0302
0000
0000
,  // measure 17
2003
0000
0000
0000
,  // measure 18
0000
0000
0000
0000
0000
0000
0000
0000
0000
0000
0000
0000
0000
0000
0000
0000
0000
0000
0000
0000
0000
0000
0000
0000
0000
0000
0000
0000
0000
0000
0200
0000
3000
0000
0000
0000
0000
0000
0000
0020
0300
0000
0000
0000
0000
0000
0000
0000
,  // measure 19
0032
0000
0000
0000
0000
0000
0000
0000
0003
0020
0000
0000
0000
0000
0000
0000
0000
0000
0230
0000
0000
0000
0000
0000
0000
0000
0000
0000
0000
0000
0000
0000
0000
0000
0000
0000
0000
0000
0000
0000
0000
0000
0000
0000
0000
0000
0000
0000
,  // measure 20
0000
0000
0000
0000
0000
0000
0000
0000
0000
0000
0000
0000
0000
0000
0000
0000
0000
0000
0000
0000
0000
0000
0000
0000
0000
0000
0000
0000
0000
0000
0320
0000
0000
0000
0000
0000
0000
0000
0000
0002
0030
0000
0000
0000
0000
0000
0000
0000
,  // measure 21
0023
0000
0000
0000
,  // measure 22
0000
0000
0030
0200
0000
0000
2300
0000
,  // measure 23
3002
0000
0000
0000
0003
0000
2000
0000
3000
0002
0000
0000
0000
0000
0000
0000
0000
0000
0000
0000
0000
0000
0000
0000
,  // measure 24
0000
0000
0000
0000
0000
0000
0000
0000
0000
0000
0000
0000
0000
0000
0000
0203
0000
0000
0320
0000
0030
2000
0000
0000
,  // measure 25
3002
0000
0000
0000
0000
0000
2003
3200
,  // measure 26
2300
0000
3200
0320
,  // measure 27
0032
0000
2003
0000
,  // measure 28
3020
0000
0230
0000
,  // measure 29
0302
0000
0000
0000
0000
0000
0203
0320
,  // measure 30
0230
0000
0000
0000
,  // measure 31
0000
0000
0000
0000
,  // measure 32
0300
0000
0000
0000
0000
0000
0000
0000
0000
0001
0000
0000
0100
0000
0000
0002
,  // measure 33
0000
0000
0000
0000
,  // measure 34
0003
0000
0000
0000
0000
0000
0000
0000
0000
0000
1000
0000
0000
0100
0000
0000
,  // measure 35
1000
0000
0000
0100
0000
0000
2000
0000
0000
0000
0000
0000
0000
0000
0000
0000
,  // measure 36
0000
0000
0000
0000
0000
0000
0000
0000
3000
0000
0010
0000
0000
0100
0000
0000
,  // measure 37
0020
0000
0000
0000
,  // measure 38
0030
0000
0000
0100
0000
0000
0001
0000
,  // measure 39
0010
0000
0100
2000
0000
0000
0000
0000
,  // measure 40
0000
0000
0000
0000
3000
0100
1000
0100
,  // measure 41
0020
0000
0000
0000
0000
0000
0031
0100
,  // measure 42
0020
0000
0230
0320
,  // measure 43
0230
0000
0320
0000
,  // measure 44
0230
0000
0302
0000
,  // measure 45
2003
0000
0000
0000
0000
0000
3100
0010
,  // measure 46
0200
0000
0000
0000
,  // measure 47
0300
0000
0000
0000
,  // measure 48
0000
0000
0000
0000
,  // measure 49
1000
0100
0010
0001
1000
0100
0010
0001
,  // measure 50
1000
0100
0010
0001
1000
0100
0010
0001
,  // measure 51
1000
0010
0100
0001
1000
0010
0100
0001
,  // measure 52
1000
0010
0100
0001
1000
0010
0100
0001
,  // measure 53
0010
0100
1000
0001
0010
0100
1000
0001
,  // measure 54
0010
0100
1000
0001
0010
0100
1000
0001
,  // measure 55
0100
0010
1000
0001
0100
0010
1000
0001
,  // measure 56
0100
0010
1000
0001
0100
0010
1000
0001
,  // measure 57
1000
0100
0010
0001
1000
0100
0010
0001
,  // measure 58
1000
0100
0010
0001
1000
0100
0010
0001
,  // measure 59
1000
0010
0100
0001
1000
0010
0100
0001
,  // measure 60
1000
0010
0100
0001
1000
0010
0100
0001
,  // measure 61
0010
0100
1000
0001
0010
0100
1000
0001
,  // measure 62
0010
0100
1000
0001
0010
0100
1000
0001
,  // measure 63
0100
0010
1000
0001
0100
0010
1000
0001
,  // measure 64
0100
0010
1000
0001
0100
0010
1000
0001
,  // measure 65
0010
0001
0010
0000
0000
0000
0000
0000
0000
0000
0000
0000
0000
0000
0000
0000
0000
0000
0000
0000
0000
0000
0000
0000
0001
0000
0000
0000
1000
0000
0000
0000
,  // measure 66
0010
0000
0100
0010
,  // measure 67
1000
0010
1000
0000
0000
0000
0000
0000
0000
0000
0000
0000
0000
0000
0000
0000
0010
0000
0000
0000
0100
0000
0000
0000
0001
0000
0000
0000
1000
0000
0000
0000
,  // measure 68
0100
0000
0000
0000
0000
0000
1000
0100
,  // measure 69
0010
0100
0010
0000
0000
0000
0000
0000
0000
0000
0000
0000
0000
0000
0000
0000
0100
0000
0000
0000
0000
0000
0000
0000
0000
0000
0000
0000
0010
0000
0000
0000
,  // measure 70
0001
0000
0100
0010
,  // measure 71
1000
0010
1000
0000
0000
0000
0000
0000
0001
0000
0000
0000
0010
0000
0000
0000
0000
0000
0000
0000
0000
0000
0000
0000
0000
0000
0000
0000
0000
0000
0000
0000
,  // measure 72
0000
0000
0000
0000
0100
1000
0010
1000
,  // measure 73
0010
0100
0010
0000
0000
0000
0000
0000
0000
0000
0000
0000
0000
0000
0000
0000
0000
0000
0000
0000
0000
0000
0000
0000
0100
0000
0000
0000
0001
0000
0000
0000
,  // measure 74
0010
0000
0001
1000
,  // measure 75
0001
1000
0001
0000
0000
0000
0000
0000
0000
0000
0000
0000
0000
0000
0000
0000
0000
0000
0000
0000
0000
0000
0000
0000
1000
0000
0000
0000
0000
0000
0000
0000
,  // measure 76
0010
0000
0000
0000
0000
0010
0100
0010
,  // measure 77
0400
0010
0000
0000
0304
0100
0000
0000
0043
0001
0000
0000
0430
0010
0000
0000
,  // measure 78
4300
0100
0000
0000
3004
1000
0000
0000
0403
0001
0000
0000
0340
0100
0000
0000
,  // measure 79
4030
0010
0000
0000
3004
0010
0000
0000
0403
0010
0000
0000
0304
0010
0000
0000
,  // measure 80
4003
0000
0010
0000
0000
0000
0000
0000
3400
0000
0010
0000
0000
0000
0000
0000
4300
0000
0010
0000
0000
0000
0000
0000
3004
0000
0010
0000
0000
0000
0000
0003
,  // measure 81
MM22
0000
0000
0000
,  // measure 82
0000
0000
0000
0000
0000
0000
0000
0000
0033
0000
0010
0000
0000
0100
0000
0000
,  // measure 83
1000
0000
0000
0001
0000
0000
0200
0000
0000
0000
0000
0000
0000
0000
0000
0000
,  // measure 84
0000
0000
0000
0000
0000
0000
0300
0000
0000
0000
0010
0000
0000
0100
0000
0000
,  // measure 85
0020
0000
0000
0000
,  // measure 86
0030
0000
0000
0100
0000
0000
0001
0000
,  // measure 87
1000
0000
0001
2000
0000
0000
0000
0000
,  // measure 88
0000
0000
0000
3000
0000
0100
0010
0001
,  // measure 89
2000
0000
0000
0000
3000
0000
0010
0100
,  // measure 90
0002
0000
1003
0100
,  // measure 91
0020
0000
0230
0000
,  // measure 92
2300
0000
3200
0000
,  // measure 93
0320
0000
0000
0000
0000
0000
0031
0100
,  // measure 94
0002
0000
0000
0000
,  // measure 95
0003
0000
0000
0000
,  // measure 96
0000
0000
0000
0000
0000
0000
0000
0000
0000
0000
0001
0000
0000
0100
0000
0000
,  // measure 97
M1M1
0000
0000
0000
0001
0100
0001
0100
0001
1000
0001
1000
0100
1000
0100
1000
,  // measure 98
0100
0010
0100
0010
0001
0010
0001
0010
0001
1000
0001
1000
0010
1000
0010
1000
,  // measure 99
0010
0100
0010
0100
0001
0100
0001
0100
0001
0100
0001
0100
0010
0100
0010
0100
,  // measure 100
0010
1000
0010
1000
0001
1000
0001
1000
0001
0010
0001
0010
0100
0010
0100
0010
,  // measure 101
0100
1000
0100
1000
0100
1000
0100
1000
0100
0010
0100
0010
0001
0010
0001
0010
,  // measure 102
0001
1000
0001
1000
0010
1000
0010
1000
0010
0100
0010
0000
0110
0000
0100
0001
,  // measure 103
0100
0001
0100
0000
0101
0000
0001
1000
0001
1000
0001
0000
1001
0000
1000
0100
,  // measure 104
1000
0100
1000
0000
1100
0000
0100
0000
0100
0000
0010
0100
0010
0000
0001
0000
,  // measure 105
0001
0000
1000
0010
1000
0000
0001
0000
0001
0000
0100
0010
0100
0000
0001
0000
,  // measure 106
0001
0000
1000
0100
1000
0000
0010
0000
0010
0000
0100
0001
0100
0000
0010
0000
,  // measure 107
0010
0000
1000
0001
1000
0000
0010
0000
0010
0000
1000
0100
1000
0000
0001
0000
,  // measure 108
1000
0100
1000
0100
1000
0100
1000
0100
1000
0001
1000
0001
1000
0001
1000
0001
,  // measure 109
0100
0001
0100
0001
0100
0001
0100
0001
0100
0010
0100
0010
0100
0010
0100
0010
,  // measure 110
1000
0010
1000
0010
1000
0010
1000
0001
1000
0001
1000
0001
1000
0001
1000
0001
,  // measure 111
0100
0001
0100
0001
0100
0001
0100
0001
0100
0010
0100
0010
0100
0010
0100
0010
,  // measure 112
1000
0010
1000
0010
1000
0010
1000
0010
1000
0001
1000
0001
1000
0001
1000
0000
,  // measure 113
1MM1
0000
0000
0000
0001
0100
0001
0000
0100
0010
0100
0000
0010
1000
0010
0000
,  // measure 114
1000
0100
1000
0000
0100
0010
0100
0000
0010
0001
0010
0000
0001
0100
0001
0000
,  // measure 115
0100
0010
0100
0000
0010
1000
0010
0000
1000
0100
1000
0000
0100
0010
0100
0000
,  // measure 116
0010
0001
1000
0000
0001
1000
0010
0000
1000
0010
0100
0000
0010
0100
0001
0000
,  // measure 117
0100
0001
0010
0000
0001
0010
0100
0000
0010
0100
1000
0000
0100
0010
0001
0000
,  // measure 118
0010
0001
1000
0000
0001
1000
0010
0000
1000
0010
0100
0000
0010
0100
0001
0000
,  // measure 119
0100
0010
1000
0000
0010
1000
0001
0000
1000
0100
0010
0000
0010
0100
1000
0000
,  // measure 120
0001
0100
0010
0000
0010
0100
0001
0000
0010
0001
0100
0000
0010
1000
0100
0000
,  // measure 121
0010
0100
0010
0000
0100
1000
0100
0000
1000
0001
1000
0000
0001
0100
0001
0000
,  // measure 122
0100
0010
0100
0000
0010
1000
0010
0000
1000
0100
1000
0000
0100
0010
0100
0000
,  // measure 123
0010
0100
0010
0000
0100
1000
0100
0000
1000
0001
1000
0000
0001
0100
0001
0000
,  // measure 124
0100
0010
0100
0000
0010
0100
0010
0000
0100
0001
0100
0000
0001
1000
0001
0000
,  // measure 125
1000
0010
1000
0000
0010
0100
0010
0000
0100
0001
0100
0000
0001
0010
0001
0000
,  // measure 126
1000
0010
1000
0000
0001
0010
0001
0000
1000
0010
1000
0000
0001
0010
0001
0000
,  // measure 127
1MM1
0000
M11M
0000
,  // measure 128
1MM1
M11M
1MM1
M11M
,  // measure 129
1MM1
0000
0001
0100
0010
0100
0001
0100
,  // measure 130
0010
0000
0100
0000
0001
1000
0000
0001
0100
0000
0010
0000
1000
0000
0010
0000
,  // measure 131
0100
0010
1000
0010
0100
0010
1000
0100
,  // measure 132
0010
0000
0100
0000
1000
0000
0100
0000
0010
0000
0100
0000
1000
0000
0001
1000
,  // measure 133
0000
0010
1000
0010
0100
0010
1000
0100
,  // measure 134
0010
0000
0100
0000
1000
0001
0000
1000
0100
0000
0010
0000
0001
0000
0010
0000
,  // measure 135
0100
0010
0001
0100
0010
0100
0001
0100
,  // measure 136
0010
0000
0100
0000
0001
0000
0010
0000
0100
0000
0010
0000
0001
0000
1000
0001
,  // measure 137
0000
0010
0001
0100
0010
0100
0001
0100
,  // measure 138
0010
0000
0100
0000
0001
1000
0000
0001
0100
0000
0010
0000
1000
0000
0010
0000
,  // measure 139
0100
0010
1000
0010
0100
0010
1000
0100
,  // measure 140
0010
0000
0100
0000
1000
0000
0100
0000
0010
0000
0100
0000
1000
0000
0001
1000
,  // measure 141
0000
0000
0010
0000
1000
0000
0010
0000
1000
0010
1000
0010
1000
0001
1000
0001
,  // measure 142
0100
0001
0100
0001
0100
0010
0100
0010
1000
0010
1000
0010
1000
0010
1000
0010
,  // measure 143
0100
0010
0100
0010
0100
0001
0100
0001
1000
0001
1000
0001
1000
0100
1000
0100
,  // measure 144
0010
0100
0010
0100
0010
0001
0010
0001
1000
0001
1000
0001
1000
0010
1000
0000
,  // measure 145
1M1M
0000
0000
0000
0010
1000
0010
0000
1000
0001
1000
0000
0001
0010
0001
0000
,  // measure 146
0010
0100
0010
0000
0100
1000
0100
0000
1000
0100
1000
0000
0100
0010
0100
0000
,  // measure 147
0010
0001
0010
0000
0001
1000
0001
0000
1000
0010
1000
0000
0010
0100
0010
0000
,  // measure 148
0100
0001
0100
0000
0001
0100
0001
0000
0100
0010
0100
0000
0010
1000
0010
0000
,  // measure 149
1000
0001
1000
0000
0001
0010
0001
0000
1000
0010
1000
0000
0001
0010
0001
0000
,  // measure 150
1000
1000
0000
0001
1000
1000
0000
0001
,  // measure 151
0101
0001
0000
0100
0001
0001
0000
0100
,  // measure 152
0110
0100
0000
0010
1010
0010
0101
0100
,  // measure 153
0220
0000
0330
0000
,  // measure 154
0002
0000
2003
0000
,  // measure 155
3200
0000
0000
0000
0300
0000
0010
0001
,  // measure 156
0200
0300
0010
0000
1000
0000
0100
0000
,  // measure 157
0020
0030
0000
0000
0000
0000
0000
0000
,  // measure 158
0002
0003
0000
0000
0100
0000
0020
0030
,  // measure 159
0020
0030
0000
0000
2000
3000
0000
0000
,  // measure 160
0200
0300
0000
0000
0020
0030
0000
0000
,  // measure 161
0200
0300
0000
0000
0000
0000
1000
0001
,  // measure 162
0200
0300
0000
0000
0020
0030
0000
0000
,  // measure 163
2000
3000
0000
0000
0000
0000
0000
0000
,  // measure 164
0002
0000
0003
0000
0000
0000
0000
0000
0000
0000
0000
0000
1000
0100
0010
0001
,  // measure 165
2000
3000
0100
0000
0010
0000
0001
0000
,  // measure 166
2000
3000
0000
0000
0010
0000
0100
0000
,  // measure 167
0002
0000
0003
0000
0000
0000
0000
0000
0000
0000
0000
0000
0001
0100
0001
1000
,  // measure 168
0200
0000
0300
0000
0000
0000
0000
0000
0000
0000
2000
0000
0000
3200
0000
0300
,  // measure 169
0220
0000
0330
0000
0010
0001
0010
0000
0001
1000
0001
0000
1000
0010
1000
0000
,  // measure 170
0002
0103
0001
0000
0010
0001
0010
0000
0100
1000
0200
0000
0310
0200
0010
0300
,  // measure 171
0002
1003
0001
2000
3100
0010
0200
0000
0320
0031
0010
0000
0001
0010
0001
0000
,  // measure 172
2000
3010
1000
0000
0001
0010
0001
0000
1000
0010
2000
0000
3001
0200
0001
0300
,  // measure 173
2000
3100
1000
0000
0001
0100
0001
0000
1000
0100
1000
0000
0001
1000
0001
0000
,  // measure 174
0200
0310
0100
0000
0001
1000
0002
0000
0103
0010
0100
0000
0002
0103
0001
0000
,  // measure 175
2000
3001
1000
0000
0200
0310
0200
0000
1300
0001
1000
0000
0100
0010
0100
0000
,  // measure 176
0020
0130
0010
0000
0001
0010
0001
0000
1000
0001
2000
0000
3020
0130
0020
0000
,  // measure 177
2030
3001
1000
0000
0010
0100
0010
0000
1000
0010
1000
0000
0002
1003
0002
0000
,  // measure 178
0023
0130
0010
0000
0001
1000
0001
0000
0020
0130
0010
0000
0002
0013
0001
0000
,  // measure 179
2000
3100
1000
0000
0001
0010
0001
0000
2000
3100
1000
0000
0010
0100
0010
0000
,  // measure 180
2000
3100
1000
0000
0010
0100
0010
0000
2000
3001
1000
0000
0001
0010
0001
0000
,  // measure 181
0200
0310
0100
0000
0001
0010
0001
0000
0100
0010
0100
0000
0002
0010
2003
3000
,  // measure 182
2000
0010
3001
0000
1000
0010
0001
0000
0001
0010
1000
0000
0010
1000
0010
0000
,  // measure 183
2M2M
0000
3030
0000
0000
0000
0200
0300
M2M2
0000
0303
0000
0200
0000
0300
0000
,  // measure 184
2MM2
3003
M11M
0000
1MM1
0000
M11M
0000
,  // measure 185
2MM2
0000
3003
0000
0001
0100
0001
0000
0100
0010
0100
0000
0010
1000
0010
0000
,  // measure 186
2000
3100
1000
0000
0100
0010
0000
0100
0010
0001
0020
0000
0031
0020
0001
0030
,  // measure 187
0020
0130
0010
0002
0013
0001
0020
0000
0031
1000
0001
0000
1000
0010
1000
0000
,  // measure 188
0020
0130
0010
0000
0100
0001
0100
0000
0001
1000
0002
0000
1003
0020
1000
0031
,  // measure 189
0020
0001
1030
0000
0001
0100
0001
0000
0100
0010
0100
0000
0010
1000
0010
0000
,  // measure 190
2000
3001
1000
0000
0001
0010
0002
0100
0013
0100
0010
0000
0200
0301
0100
0000
,  // measure 191
0020
1030
0010
0000
0200
0301
0200
0000
0301
1000
0001
0000
0100
0010
0100
0000
,  // measure 192
0001
1000
0001
0000
0010
0100
0010
0000
0001
1000
0002
0000
0023
0130
0020
0031
,  // measure 193
0020
0001
1030
0000
0001
0100
0001
0000
0100
0010
0100
0000
0020
1030
0020
0030
,  // measure 194
2000
3100
1000
0000
0100
0010
0000
0100
0020
0031
0010
0000
0002
0103
0001
0000
,  // measure 195
0020
0130
0010
0000
0001
0100
0001
0000
0020
0031
0010
0000
0100
1000
0100
0000
,  // measure 196
0020
0031
0010
0000
0100
1000
0100
0000
0020
0001
1030
0000
0001
0100
0010
0000
,  // measure 197
2000
0010
3100
0001
0100
0010
0100
0001
0010
0100
0010
0100
2000
3001
2000
3100
,  // measure 198
2000
0001
3100
0001
0100
0010
0100
0010
0100
0001
0010
0001
0010
0100
0010
0100
,  // measure 199
2000
0001
3100
0001
0100
0010
0100
0010
1000
0010
1000
0010
0100
0001
0100
0010
,  // measure 200
2000
0100
3010
0001
0010
0100
1000
0100
0010
0100
2000
0100
3010
0002
0010
0003
,  // measure 201
2MM2
0000
0000
0000
,  // measure 202
3003
0000
0000
0000
0000
0000
0000
0000
0000
0000
0002
0000
0000
0023
0000
0000
,  // measure 203
0032
0000
0000
0023
0000
0000
0032
0000
0000
0000
0000
0000
0000
0000
0000
0000
,  // measure 204
0000
0000
0000
0000
0003
0000
0000
0000
0000
0000
0020
0000
0000
0032
0000
0000
,  // measure 205
0023
0000
0000
0030
,  // measure 206
0000
0000
0000
0002
0000
0003
2000
0000
,  // measure 207
3020
0000
0230
0302
0000
0000
0000
0000
,  // measure 208
0000
0000
0003
0000
0000
0002
0203
0320
,  // measure 209
2030
0000
0000
0000
3000
0000
0020
2030
,  // measure 210
3200
0000
0320
0032
,  // measure 211
0023
0000
0230
0000
,  // measure 212
0320
0000
0032
0000
,  // measure 213
0203
0000
0000
0000
0000
0000
0000
0000
0000
0000
0000
0000
0320
0030
2000
0000
,  // measure 214
3200
0000
0000
0000
,  // measure 215
2300
0000
0000
0000
0000
3000
0002
0203
,  // measure 216
0002
0000
0000
0000
0000
0000
0000
0000
0303
0000
0001
0000
0000
0100
0000
0000
,  // measure 217
0002
0003
0000
0000
0200
0300
0000
0000
0020
0030
0000
0000
2000
3000
0000
0000
,  // measure 218
0020
0030
0000
0000
2000
3000
0000
0000
0002
0003
M000
0000
0020
0M30
0000
0000
,  // measure 219
020M
0300
0000
M000
0020
0030
000M
0000
0200
0300
0000
0000
2000
3000
0000
0000
,  // measure 220
0002
0003
0000
0000
0200
0300
0000
0000
0020
0030
M000
0000
0200
030M
0000
0000
,  // measure 221
0002
0003
0000
0000
0200
0300
0000
0000
0002
0003
0000
0000
0020
0030
0000
0000
,  // measure 222
0200
0300
0000
0000
2000
3000
00M0
0000
0020
0030
0000
0000
2M00
3000
0000
0000
,  // measure 223
00M2
0003
0000
0000
02M0
0300
000M
0000
0020
0030
0000
0000
0200
0300
0000
0000
,  // measure 224
0002
0003
0000
0000
2000
3000
0000
0000
0200
0300
000M
0000
M020
0030
000M
0000
,  // measure 225
M200
0300
0000
0000
2000
3000
0000
0000
0020
0030
0000
0000
020M
0300
M000
0000
,  // measure 226
002M
0030
0000
0000
2000
3000
0000
0000
0M02
0003
0000
0000
M020
0030
0000
0000
,  // measure 227
020M
0300
0000
0000
0020
0030
0000
0000
M002
0003
0000
0000
0200
0300
0000
0000
,  // measure 228
002M
0030
0000
0000
2000
3000
0000
0000
02M0
0300
0000
0000
0020
0030
0000
0000
,  // measure 229
M002
0003
0000
0000
0200
0300
0000
0000
0020
0030
0000
0000
2M00
3000
000M
0000
,  // measure 230
0M20
0030
0000
0000
0200
0300
0000
0000
0002
0003
0000
0000
2000
3000
0000
0000
,  // measure 231
02M0
0300
0000
0000
0020
0030
0000
0000
0002
0003
0000
0000
2000
3000
0000
0000
,  // measure 232
00M2
0003
0000
0000
0200
0300
0000
0000
0020
0030
0000
0000
2000
3000
0000
0000
,  // measure 233
0002
0003
0000
0000
0200
0300
0000
0000
0020
0030
0000
0000
0200
0300
0000
0000
,  // measure 234
M002
0M00
00M3
000M
0000
0000
0000
0000
0000
0000
0000
0000
0000
0000
0000
0000
0000
0000
0000
0000
0000
0000
0000
0000
0000
0000
0000
0000
0000
0000
0000
0000
;
