#TITLE:Don't Don't Go Away;
#SUBTITLE:Ricardo Autobahn Remix;
#ARTIST:Foxxie;
#TITLETRANSLIT:;
#SUBTITLETRANSLIT:;
#ARTISTTRANSLIT:;
#GENRE:;
#CREDIT:;
#BANNER:dontgoawaybn.png;
#BACKGROUND:Dontgoawaybg.png;
#LYRICSPATH:Don't Don't Go Away (Ricardo Autobahn Remix).lrc;
#CDTITLE:cdtitle.png;
#MUSIC:Don't Don't Go Away (Ricardo Autobahn Remix).ogg;
#OFFSET:-0.045;
#SAMPLESTART:66.207;
#SAMPLELENGTH:12.000;
#SELECTABLE:YES;
#BPMS:0.000=145.000,260.000=145.160;
#STOPS:;
#TIMESIGNATURES:0.000=4=4
;
#BGCHANGES:;
#KEYSOUNDS:;

//---------------dance-double - Kyzentun----------------
#NOTES:
     dance-double:
     Kyzentun:
     Challenge:
     9:
     0.669,0.565,0.000,0.128,1.000,498.000,0.000,14.000,389.000,0.000,0.000,0.669,0.565,0.000,0.128,1.000,498.000,0.000,14.000,389.000,0.000,0.000:
00000000
00000000
00000000
00000000
,
00000000
00000000
00000000
00000000
,
M0010000
00000100
M0000010
00000001
M0001000
00000001
M0000010
00000100
,
M0010000
M0000000
M0001000
M0000000
M1000000
M0000000
M0001000
M0000000
,
M0010000
M0000000
M0000010
M0000000
M0000100
M0000000
M0000001
M0000000
M0001000
M0000000
M0000001
M0000000
M0000100
M0000000
M0000010
M0000000
,
M0010000
M0000000
M0000000
M0000000
M0000000
M0000000
M0000000
M0000000
M0001000
M0000000
M0000000
M0000000
M0000000
M0000000
M0000000
M0000000
M0100000
M0000000
M0000000
M0000000
M0000000
M0000000
M0000000
M0000000
M0001000
M0000000
M0000000
M0000000
M0000000
M0000000
M0000000
M0000000
,
M0010000
M0000000
M0000000
M0000000
M0000000
M0000000
M0000000
M0000000
M0001000
M0000000
M0000000
M0000000
M0000000
M0000000
M0000000
M0000000
M0000100
M0000000
M0000000
M0000000
M0000000
M0000000
M0000000
M0000000
M0000001
M0000000
M0000000
M0000000
M0000000
M0000000
M0000000
M0000000
M0001000
M0000000
M0000000
M0000000
M0000000
M0000000
M0000000
M0000000
M0000001
M0000000
M0000000
M0000000
M0000000
M0000000
M0000000
M0000000
M0000100
M0000000
M0000000
M0000000
M0000000
M0000000
M0000000
M0000000
M0001000
M0000000
M0000000
M0000000
M0000000
M0000000
M0000000
M0000000
,
M0010000
M0000000
M0000000
M0000000
M0000000
M0000000
M0000000
M0000000
M0000000
M0000000
M0000000
M0000000
M0000000
M0000000
M0000000
M0000000
M0000000
M0000000
M0000000
M0000000
M0000000
M0000000
M0000000
M0000000
M0000000
M0000000
M0000000
M0000000
M0000000
M0000000
M0000000
M0000000
M0000000
M0000000
M0000000
M0000000
M0000000
M0000000
M0000000
M0000000
M0000000
M0000000
M0000000
M0000000
M0000000
M0000000
M0000000
M0000000
M0001000
M0000000
M0000000
M0000000
M0000000
M0000000
M0000000
M0000000
M0000000
M0000000
M0000000
M0000000
M0000000
M0000000
M0000000
M0000000
M0000000
M0000000
M0000000
M0000000
M0000000
M0000000
M0000000
M0000000
M0000000
M0000000
M0000000
M0000000
M0000000
M0000000
M0000000
M0000000
M0000000
M0000000
M0000000
M0000000
M0000000
M0000000
M0000000
M0000000
M0000000
M0000000
M0000000
M0000000
M0000000
M0000000
M0000000
M0000000
M0010000
M0000000
M0000000
M0000000
M0000000
M0000000
M0000000
M0000000
M0000000
M0000000
M0000000
M0000000
M0000000
M0000000
M0000000
M0000000
M0000000
M0000000
M0000000
M0000000
M0000000
M0000000
M0000000
M0000000
M0000000
M0000000
M0000000
M0000000
M0000000
M0000000
M0000000
M0000000
M0000000
M0000000
M0000000
M0000000
M0000000
M0000000
M0000000
M0000000
M0000000
M0000000
M0000000
M0000000
M0000000
M0000000
M0000000
M0000000
M0001000
M0000000
M0000000
M0000000
M0000000
M0000000
M0000000
M0000000
M0000000
M0000000
M0000000
M0000000
M0000000
M0000000
M0000000
M0000000
M0000000
M0000000
M0000000
M0000000
M0000000
M0000000
M0000000
M0000000
M0000000
M0000000
M0000000
M0000000
M0000000
M0000000
M0000000
M0000000
M0000000
M0000000
M0000000
M0000000
M0000000
M0000000
M0000000
M0000000
M0000000
M0000000
M0000000
M0000000
M0000000
M0000000
M0000000
M0000000
,
M1000000
00000000
00100000
00000000
01000000
00000000
10000000
00000000
01000000
00000000
00010000
00100000
00010000
00000000
10000000
00000000
,
00100000
00000000
00010000
00000000
00001000
00000000
00000010
00000000
00000001
00000000
00000100
00000010
00000100
00000000
00001000
00000000
,
00010000
00000000
00001000
00000000
00000010
00000000
00000001
00000000
00000010
00000000
00000100
00000001
00000100
00000000
00001000
00000000
,
00000001
00000000
00000100
00000000
00001000
00000000
00010000
00000000
01000000
00000000
10000000
00100000
10000000
00000000
00010000
00000000
,
01000000
00000000
00100000
00000000
00010000
00000000
00001000
00000000
00000100
00000000
00000010
00010000
00000010
00000000
00000100
00000000
,
00001000
00000000
00010000
00000000
00001000
00000000
00000010
00000000
00000100
00000000
00001000
00000010
00001000
00000000
00000001
00000000
,
00000010
00000000
00001000
00000000
00010000
00000000
00001000
00000000
00000100
00000000
00000001
00001000
00000001
00000000
00000100
00000000
,
00001000
00000000
00010000
00000000
00100000
00000000
01000000
00000000
00010000
00000000
00100000
10000000
00100000
00000000
01000000
00000000
,
00010000
00000000
00001000
00000000
00010000
00000000
00100000
00000000
01000000
00000000
00100000
00010000
00100000
00000000
10000000
00000000
,
00100000
00000000
00010000
00000000
00001000
00000000
00000100
00000000
00000001
00000000
00000010
00001000
00000010
00000000
00000100
00000000
,
00000001
00000000
00000100
00000000
00001000
00000000
00000010
00000000
00000100
00000000
00001000
00010000
00001000
00000000
01000000
00000000
,
00100000
00000000
00010000
00000000
00001000
00000000
00010000
00000000
00100000
00000000
10000000
01000000
10000000
00000000
00010000
00000000
,
00100000
00000000
01000000
00000000
00010000
00000000
01000000
00000000
00100000
00000000
00001000
01000000
00001000
00000000
00010000
00000000
,
00000100
00000000
00000010
00000000
00001000
00000000
00000010
00000000
00000001
00000000
00001000
00000010
00001000
00000000
00000001
00000000
,
00000100
00000000
00001000
00000000
00010000
00000000
00001000
00000000
0000001M
00000000
00000100
00010000
0000010M
00000000
01000000
00000000
,
0001000M
00000000
1000000M
00000000
0010000M
00000000
0000100M
00000000
0010000M
0000000M
1000000M
0100000M
1000000M
0000000M
0000200M
0000000M
,
0000000M
01003000
00100000
00010000
00100000
20000000
00000000
32000000
,
00000000
03010000
00000000
00001000
00000000
00000010
00000001
00000010
,
00000000
00000100
00001000
00000001
00000200
00000000
00000000
00002300
,
00000000
00003000
00002000
00003000
00002000
00000000
00000000
00000000
00013000
00000000
00001000
00000000
01000000
00000000
00002000
00000000
,
00000000
01003000
00100000
00010000
00100000
10000000
00000000
00100000
,
00000000
01000000
00000000
10000000
00000000
01000000
00100000
00020000
,
00000000
00031000
00000010
00000001
00001000
00000010
00000000
00000200
,
00000000
00000300
00000200
00000300
00000200
00000000
00000000
00000000
00000010
00000300
00000100
00000000
00001000
00000000
00020000
00000000
,
00000000
00000000
01030000
00000000
01000000
00000000
01000000
00000000
00100000
00000000
00100000
01000000
00100000
00000000
00010000
00000000
,
01000000
00000000
00100000
00000000
10000000
00000000
01000000
00000000
00010000
00000000
00001000
00000100
00001000
00000000
00010000
00000000
,
00001000
00000000
00000010
00000000
00000100
00000000
00000001
00000000
00000100
00000000
00000010
00001000
00000010
00000000
00001000
00000000
,
00010000
00100000
00010000
00001000
00010000
01000000
10000000
01000000
,
00010000
00000000
00001000
00000000
00000010
00000000
00000100
00000000
00000010
00000000
00001000
00010000
00001000
00000000
01000000
00000000
,
00100000
00000000
00010000
00000000
00100000
00000000
10000000
00000000
01000000
00000000
00100000
10000000
00100000
00000000
01000000
00000000
,
00010000
00000000
00001000
00000000
00000100
00000000
00000010
00000000
000M1000
000M0000
000M0100
000M0001
000M0100
000M0000
000M0010
000M0000
,
000M0000
00000000
000M0000
00000000
000M0000
00000000
000M0000
00000000
000M0010
00000000
000M0000
00000000
000M0000
00000000
000M0000
00000000
000M0000
00000000
000M0000
00000000
000M0000
00000000
000M0000
00000000
000M0010
00000000
000M0000
00000000
000M0000
00000000
000M0000
00000000
000M0000
000M0000
000M0000
000M0000
000M0000
000M0000
000M0000
000M0000
000M0010
000M0000
000M0000
000M0000
000M0000
000M0000
000M0000
000M0000
000M0010
000M0000
000M0000
000M0000
000M0000
000M0000
000M0000
000M0000
000M0010
000M0000
000M0000
000M0000
000M0000
000M0000
000M0000
000M0000
,
000M0001
00000000
00000000
00000000
00000001
00000000
00001000
00000000
00000010
00000000
00000100
00001000
00000100
00000000
00000001
00000000
,
00000100
00000000
00001000
00000000
00010000
00000000
00001000
00000000
00100000
00000000
01000000
00010000
01000000
00000000
10000000
00000000
,
00100000
00000000
01000000
00000000
00100000
00000000
10000000
00000000
00010000
00000000
01000000
10000000
01000000
00000000
00001000
00000000
,
00100000
00000000
00001000
00000000
00000010
00000000
00000100
00000000
00001000
00000000
00000010
00000001
00000010
00000000
00000100
00000000
,
00001000
00000000
00000000
00000000
00001000
00000000
00000100
00000000
00000001
00000000
00000100
00001000
00000100
00000000
00000010
00000000
,
00010000
00000000
00100000
00000000
00010000
00000000
00001000
00000000
00010000
00000000
01000000
00010000
01000000
00000000
10000000
00000000
,
01000000
00000000
00100000
00000000
10000000
00000000
00100000
00000000
00010000
00000000
01000000
10000000
01000000
00000000
00100000
00000000
,
00010000
00000000
00001000
00000000
00000010
00000000
00000100
00000000
00001000
00000000
00000010
00000100
00000010
00000000
00000100
00000000
,
00000001
00000000
00000000
00000000
00000001
00000000
00000010
00000000
00001000
00000000
00010000
00100000
00010000
00000000
00001000
00000000
,
01000000
00000000
10000000
00000000
01000000
00000000
00100000
00000000
10000000
00000000
00100000
00010000
00100000
00000000
01000000
00000000
,
00010000
00000000
00100000
00000000
01000000
00000000
00010000
00000000
00001000
00000000
00000010
00001000
00000010
00000000
00000100
00000000
,
00010000
00000000
00000010
00000000
00000100
00000000
00001000
00000000
00010000
00000000
00100000
10000000
00100000
00000000
00010000
00000000
,
00001000
00000000
00000000
00000000
00001000
00000000
00010000
00000000
01000000
00000000
00100000
10000000
00100000
00000000
00010000
00000000
,
10000000
00000000
00100000
00000000
00010000
00000000
00001000
00000000
00010000
00000000
01000000
00010000
01000000
00000000
00010000
00000000
,
00001000
00000000
00000100
00000000
00000010
00000000
00000001
00000000
00000010
00000000
00000100
00001000
00000100
00000000
00000001
00000000
,
00001000
00000000
00000100
00000000
00000010
00000000
00001000
00000000
00010000
00000000
00001000
00000010
00001000
00000000
00000010
00000000
,
00000100
00000000
00000000
00000000
00000100
00000000
00000000
00000000
00000100
00000000
00000100
00001000
00000000
00000000
00000001
00000000
,
00000001
00000000
00000001
00000100
00000001
00000000
00000001
00000100
00000000
00000100
00000000
00000000
00000010
00000000
00000000
00000000
,
00010000
00000000
00010000
00000000
00001000
00000000
00001000
01000000
00000000
01000000
00000000
01000000
00010000
00000000
01000000
00100000
,
01000000
00000000
00100000
00000000
00100000
00000000
00100000
10000000
00000000
00000000
00010000
00100000
00010000
00000000
00100000
00000000
,
00001000
00000000
00000000
00000000
00001000
00000000
00000000
00000000
00001000
00000000
00001000
00010000
00000000
00000000
00010000
00000000
,
00010000
00000000
00010000
00000100
00010000
00000000
00000100
00001000
00000000
00001000
00000000
00000000
00001000
00000000
00000000
00000000
,
00000100
00000000
00000100
00000000
00000010
00000000
00000010
00000001
00000000
00000001
00000000
00000001
00001000
00000000
00000010
00000100
,
00000010
00000000
00000100
00000000
00000100
00000000
00000100
00000010
00000000
00000000
00001000
00000100
00001000
00000000
00000100
00000000
,
00020000
00000000
00000000
00000000
,
00030000
00000000
00000000
00000000
;

//---------------dance-single - Kyzentun----------------
#NOTES:
     dance-single:
     Kyzentun:
     Challenge:
     9:
     0.669,0.565,0.000,0.128,1.000,498.000,0.000,14.000,389.000,0.000,0.000,0.669,0.565,0.000,0.128,1.000,498.000,0.000,14.000,389.000,0.000,0.000:
0000
0000
0000
0000
,
0000
0000
0000
0000
,
M001
0100
M010
0100
M001
0100
M010
0100
,
M001
M000
M100
M000
M010
M000
M100
M000
,
M001
M000
M010
M000
M100
M000
M010
M000
M001
M000
M010
M000
M100
M000
M010
M000
,
M001
M000
M000
M000
M000
M000
M000
M000
M010
M000
M000
M000
M000
M000
M000
M000
M100
M000
M000
M000
M000
M000
M000
M000
M010
M000
M000
M000
M000
M000
M000
M000
,
M001
M000
M000
M000
M000
M000
M000
M000
M100
M000
M000
M000
M000
M000
M000
M000
M001
M000
M000
M000
M000
M000
M000
M000
M010
M000
M000
M000
M000
M000
M000
M000
M100
M000
M000
M000
M000
M000
M000
M000
M010
M000
M000
M000
M000
M000
M000
M000
M001
M000
M000
M000
M000
M000
M000
M000
M100
M000
M000
M000
M000
M000
M000
M000
,
M001
M000
M000
M000
M000
M000
M000
M000
M000
M000
M000
M000
M000
M000
M000
M000
M000
M000
M000
M000
M000
M000
M000
M000
M000
M000
M000
M000
M000
M000
M000
M000
M000
M000
M000
M000
M000
M000
M000
M000
M000
M000
M000
M000
M000
M000
M000
M000
M100
M000
M000
M000
M000
M000
M000
M000
M000
M000
M000
M000
M000
M000
M000
M000
M000
M000
M000
M000
M000
M000
M000
M000
M000
M000
M000
M000
M000
M000
M000
M000
M000
M000
M000
M000
M000
M000
M000
M000
M000
M000
M000
M000
M000
M000
M000
M000
M010
M000
M000
M000
M000
M000
M000
M000
M000
M000
M000
M000
M000
M000
M000
M000
M000
M000
M000
M000
M000
M000
M000
M000
M000
M000
M000
M000
M000
M000
M000
M000
M000
M000
M000
M000
M000
M000
M000
M000
M000
M000
M000
M000
M000
M000
M000
M000
M100
M000
M000
M000
M000
M000
M000
M000
M000
M000
M000
M000
M000
M000
M000
M000
M000
M000
M000
M000
M000
M000
M000
M000
M000
M000
M000
M000
M000
M000
M000
M000
M000
M000
M000
M000
M000
M000
M000
M000
M000
M000
M000
M000
M000
M000
M000
M000
,
M100
0000
0010
0000
0100
0000
1000
0000
0100
0000
0001
0010
0001
0000
1000
0000
,
0100
0000
0001
0000
0100
0000
0010
0000
0001
0000
0100
0010
0100
0000
1000
0000
,
0100
0000
0010
0000
0100
0000
0001
0000
0010
0000
0100
0001
0100
0000
1000
0000
,
0001
0000
0100
0000
1000
0000
0100
0000
0010
0000
1000
0010
1000
0000
0001
0000
,
0100
0000
0010
0000
0001
0000
0010
0000
0100
0000
0010
1000
0010
0000
0100
0000
,
1000
0000
0100
0000
0010
0000
0100
0000
0001
0000
1000
0010
1000
0000
0001
0000
,
0010
0000
1000
0000
0010
0000
0100
0000
0010
0000
0001
1000
0001
0000
0100
0000
,
1000
0000
0100
0000
0010
0000
0100
0000
0001
0000
0010
1000
0010
0000
0100
0000
,
0001
0000
0100
0000
1000
0000
0001
0000
1000
0000
0010
0001
0010
0000
1000
0000
,
0010
0000
0001
0000
0010
0000
0100
0000
0001
0000
0010
1000
0010
0000
0100
0000
,
0001
0000
0100
0000
1000
0000
0010
0000
0100
0000
0010
0001
0010
0000
0100
0000
,
0010
0000
1000
0000
0001
0000
0010
0000
0100
0000
1000
0100
1000
0000
0001
0000
,
0010
0000
0100
0000
0001
0000
0100
0000
0010
0000
0100
1000
0100
0000
0001
0000
,
0100
0000
0010
0000
1000
0000
0010
0000
0001
0000
1000
0010
1000
0000
0001
0000
,
0100
0000
1000
0000
0100
0000
0010
0000
100M
0000
0100
0010
010M
0000
0010
0000
,
100M
0000
001M
0000
010M
0000
100M
0000
001M
000M
100M
010M
100M
000M
002M
000M
,
000M
0130
0010
0001
0010
2000
0000
3200
,
0000
0301
0000
0100
0000
0010
0001
0010
,
0000
0100
1000
0001
0200
0000
0000
0320
,
0000
0030
0020
0030
0020
0000
0000
0000
0130
0000
0001
0000
0100
0000
0020
0000
,
0000
0130
0010
0001
0010
1000
0000
0010
,
0000
0100
0000
1000
0000
0100
0010
2000
,
0000
3001
0010
0001
1000
0010
0000
0200
,
0000
0300
0200
0300
0200
0000
0000
0000
0010
0300
0100
0000
0001
0000
2000
0000
,
0000
0000
3100
0000
0100
0000
0100
0000
0010
0000
0010
0100
0010
0000
0001
0000
,
0100
0000
0010
0000
1000
0000
0100
0000
0010
0000
0100
0001
0100
0000
1000
0000
,
0001
0000
0010
0000
0100
0000
0001
0000
0100
0000
0010
1000
0010
0000
0001
0000
,
1000
0010
0100
0010
0001
0010
1000
0100
,
0010
0000
1000
0000
0010
0000
0001
0000
0010
0000
0100
0001
0100
0000
0010
0000
,
1000
0000
0010
0000
0001
0000
1000
0000
0100
0000
0010
1000
0010
0000
0100
0000
,
0001
0000
0100
0000
0010
0000
0100
0000
100M
000M
001M
010M
001M
000M
100M
000M
,
000M
0000
000M
0000
000M
0000
000M
0000
100M
0000
000M
0000
000M
0000
000M
0000
000M
0000
000M
0000
000M
0000
000M
0000
100M
0000
000M
0000
000M
0000
000M
0000
000M
000M
000M
000M
000M
000M
000M
000M
100M
000M
000M
000M
000M
000M
000M
000M
100M
000M
000M
000M
000M
000M
000M
000M
100M
000M
000M
000M
000M
000M
000M
000M
,
100M
0000
0000
0000
0001
0000
1000
0000
0010
0000
0100
1000
0100
0000
0001
0000
,
0100
0000
1000
0000
0100
0000
0010
0000
0100
0000
0010
0001
0010
0000
1000
0000
,
0010
0000
0100
0000
0010
0000
1000
0000
0001
0000
0100
1000
0100
0000
0001
0000
,
1000
0000
0100
0000
0010
0000
0100
0000
1000
0000
0010
0001
0010
0000
0100
0000
,
1000
0000
0000
0000
1000
0000
0100
0000
0001
0000
0100
1000
0100
0000
0010
0000
,
1000
0000
0010
0000
0100
0000
1000
0000
0100
0000
0010
1000
0010
0000
1000
0000
,
0100
0000
0010
0000
1000
0000
0010
0000
0001
0000
0100
1000
0100
0000
0010
0000
,
0001
0000
0010
0000
1000
0000
0100
0000
1000
0000
0010
0100
0010
0000
0100
0000
,
0001
0000
0000
0000
0001
0000
0010
0000
0100
0000
0010
1000
0010
0000
0001
0000
,
0100
0000
1000
0000
0100
0000
0010
0000
1000
0000
0010
0001
0010
0000
0100
0000
,
0001
0000
0010
0000
0100
0000
0001
0000
0100
0000
0010
1000
0010
0000
0100
0000
,
1000
0000
0010
0000
0100
0000
0001
0000
0100
0000
0010
1000
0010
0000
0001
0000
,
0010
0000
0000
0000
0010
0000
0100
0000
0001
0000
0010
1000
0010
0000
0100
0000
,
1000
0000
0010
0000
0100
0000
0010
0000
0001
0000
0010
1000
0010
0000
0100
0000
,
1000
0000
0100
0000
0001
0000
1000
0000
0100
0000
0010
1000
0010
0000
0001
0000
,
1000
0000
0100
0000
0010
0000
1000
0000
0010
0000
0100
0001
0100
0000
1000
0000
,
0100
0000
0000
0000
0100
0000
0000
0000
0100
0000
0100
1000
0000
0000
0001
0000
,
0001
0000
0001
0100
0001
0000
0001
0100
0000
0100
0000
0000
0010
0000
0000
0000
,
0100
0000
0100
0000
1000
0000
1000
0100
0000
0100
0000
0100
0001
0000
0100
0010
,
0100
0000
0010
0000
0010
0000
0010
1000
0000
0000
0001
0010
0001
0000
0010
0000
,
0100
0000
0000
0000
0100
0000
0000
0000
0100
0000
0100
0001
0000
0000
0001
0000
,
0001
0000
0001
0100
0001
0000
0100
1000
0000
1000
0000
0000
1000
0000
0000
0000
,
0100
0000
0100
0000
0010
0000
0010
0001
0000
0001
0000
0001
1000
0000
0010
0100
,
0010
0000
0100
0000
0100
0000
0100
0010
0000
0000
1000
0100
1000
0000
0100
0000
,
0002
0000
0000
0000
,
0003
0000
0000
0000
;

//---------------dance-single - Expert----------------
#NOTES:
     dance-single:
     Expert:
     Hard:
     9:
     0.699,0.595,0.210,0.128,1.000,498.000,23.000,14.000,389.000,0.000,0.000,0.699,0.595,0.210,0.128,1.000,498.000,23.000,14.000,389.000,0.000,0.000: // measure 1
0000
0000
0000
0000
,  // measure 2
0000
0000
0000
0000
,  // measure 3
M001
0100
M010
0100
M001
0100
M010
0100
,  // measure 4
M001
M000
M110
M000
M010
M000
M100
M000
,  // measure 5
M001
M000
M010
M000
M100
M000
M010
M000
M001
M000
M010
M000
M100
M000
M010
M000
,  // measure 6
M001
M000
M000
M000
M000
M000
M000
M000
M110
M000
M000
M000
M000
M000
M000
M000
M100
M000
M000
M000
M000
M000
M000
M000
M010
M000
M000
M000
M000
M000
M000
M000
,  // measure 7
M001
M000
M000
M000
M000
M000
M000
M000
M100
M000
M000
M000
M000
M000
M000
M000
M001
M000
M000
M000
M000
M000
M000
M000
M010
M000
M000
M000
M000
M000
M000
M000
M100
M000
M000
M000
M000
M000
M000
M000
M010
M000
M000
M000
M000
M000
M000
M000
M001
M000
M000
M000
M000
M000
M000
M000
M100
M000
M000
M000
M000
M000
M000
M000
,  // measure 8
M001
M000
M000
M000
M000
M000
M000
M000
M000
M000
M000
M000
M000
M000
M000
M000
M000
M000
M000
M000
M000
M000
M000
M000
M000
M000
M000
M000
M000
M000
M000
M000
M000
M000
M000
M000
M000
M000
M000
M000
M000
M000
M000
M000
M000
M000
M000
M000
M110
M000
M000
M000
M000
M000
M000
M000
M000
M000
M000
M000
M000
M000
M000
M000
M000
M000
M000
M000
M000
M000
M000
M000
M000
M000
M000
M000
M000
M000
M000
M000
M000
M000
M000
M000
M000
M000
M000
M000
M000
M000
M000
M000
M000
M000
M000
M000
M010
M000
M000
M000
M000
M000
M000
M000
M000
M000
M000
M000
M000
M000
M000
M000
M000
M000
M000
M000
M000
M000
M000
M000
M000
M000
M000
M000
M000
M000
M000
M000
M000
M000
M000
M000
M000
M000
M000
M000
M000
M000
M000
M000
M000
M000
M000
M000
M100
M000
M000
M000
M000
M000
M000
M000
M000
M000
M000
M000
M000
M000
M000
M000
M000
M000
M000
M000
M000
M000
M000
M000
M000
M000
M000
M000
M000
M000
M000
M000
M000
M000
M000
M000
M000
M000
M000
M000
M000
M000
M000
M000
M000
M000
M000
M000
,  // measure 9
M100
0000
0010
0000
1000
0000
0001
0000
0100
0000
0001
0010
0100
0000
1000
0000
,  // measure 10
0100
0000
0010
0000
0100
0000
1000
0000
0001
0000
0100
0010
1000
0000
0001
0000
,  // measure 11
1000
0000
0010
0000
0100
0000
0001
0000
0010
0000
0100
1000
0001
0000
1000
0000
,  // measure 12
0001
0000
0100
0000
0010
0000
0100
0000
0001
0000
1000
0010
0100
0000
0001
0000
,  // measure 13
0100
0000
0010
0000
1000
0000
0010
0000
0100
0000
0010
1000
0001
0000
0100
0000
,  // measure 14
0001
0000
1000
0000
0010
0000
1000
0000
0001
0000
1000
0010
0100
0000
0001
0000
,  // measure 15
0010
0000
0001
0000
0010
0000
0100
0000
1000
0000
0001
0010
0100
0000
0010
0000
,  // measure 16
0001
0000
0100
0000
0010
0000
1000
0000
0001
0000
0010
0001
1000
0000
0100
0000
,  // measure 17
1000
0000
0100
0000
0010
0000
0001
0000
1000
0000
0010
0100
0001
0000
1000
0000
,  // measure 18
0001
0000
1000
0000
0010
0000
0100
0000
0001
0000
0010
0100
1000
0000
0100
0000
,  // measure 19
1000
0000
0100
0000
0010
0000
0001
0000
0100
0000
0010
1000
0001
0000
0100
0000
,  // measure 20
0010
0000
1000
0000
0001
0000
0010
0000
0100
0000
1000
0100
0010
0000
0001
0000
,  // measure 21
0010
0000
0100
0000
1000
0000
0001
0000
0100
0000
0010
1000
0001
0000
1000
0000
,  // measure 22
0100
0000
0010
0000
0001
0000
0010
0000
0001
0000
1000
0010
0100
0000
0001
0000
,  // measure 23
0100
0000
0010
0000
0100
0000
0010
0000
100M
0000
0100
0010
010M
0000
1000
0000
,  // measure 24
010M
0000
001M
0000
010M
0000
100M
0000
001M
000M
100M
010M
100M
000M
002M
000M
,  // measure 25
000M
0130
0010
1000
0010
2000
0000
3200
,  // measure 26
0000
0310
0000
0100
0000
0010
0001
0010
,  // measure 27
0000
0100
1000
0001
0200
0000
0000
0320
,  // measure 28
0000
0030
0020
0030
0020
0000
0000
0000
0130
0000
0001
0000
0100
0000
0020
0000
,  // measure 29
0000
0130
0010
1000
0010
0100
0000
0010
,  // measure 30
0000
0100
0000
0001
0000
0100
0010
2000
,  // measure 31
0000
3001
0010
0001
1000
0010
0000
0200
,  // measure 32
0000
0300
0200
0300
0200
0000
0000
0000
0010
0300
0100
0000
0001
0000
2000
0000
,  // measure 33
0000
0000
3100
0000
0100
0000
0100
0000
0010
0000
0010
0100
0010
0000
0001
0000
,  // measure 34
0100
0000
0010
0000
1000
0000
0100
0000
0010
0000
0100
1000
0001
0000
1000
0000
,  // measure 35
0001
0000
0010
0000
0100
0000
0010
0000
0001
0000
0010
0001
1000
0000
0100
0000
,  // measure 36
1000
0010
0100
0010
1000
0010
1000
0100
,  // measure 37
0010
0000
0001
0000
1000
0000
0001
0000
0010
0000
0100
1000
0001
0000
0010
0000
,  // measure 38
0100
0000
1000
0000
0001
0000
1000
0000
0100
0000
0010
0100
1000
0000
0100
0000
,  // measure 39
1000
0000
0010
0000
0100
0000
0010
0000
100M
000M
001M
010M
001M
000M
100M
000M
,  // measure 40
000M
0000
000M
0000
000M
0000
000M
0000
100M
0000
000M
0000
000M
0000
000M
0000
000M
0000
000M
0000
000M
0000
000M
0000
100M
0000
000M
0000
000M
0000
000M
0000
000M
000M
000M
000M
000M
000M
000M
000M
100M
000M
000M
000M
000M
000M
000M
000M
100M
000M
000M
000M
000M
000M
000M
000M
100M
000M
000M
000M
000M
000M
000M
000M
,  // measure 41
101M
0000
0000
0000
1010
0000
0010
0000
0100
0000
0010
1000
0001
0000
1000
0000
,  // measure 42
0010
0000
1000
0000
0010
0000
0100
0000
0010
0000
0100
0010
1000
0000
0001
0000
,  // measure 43
0100
0000
0010
0000
0100
0000
0001
0000
1000
0000
0010
1000
0001
0000
1000
0000
,  // measure 44
0001
0000
0010
0000
0100
0000
0010
0000
0001
0000
0100
0010
1000
0000
0010
0000
,  // measure 45
0110
0000
0000
0000
0110
0000
0010
0000
1000
0000
0010
1000
0001
0000
0100
0000
,  // measure 46
0001
0000
0100
0000
0010
0000
1000
0000
0001
0000
0100
0010
1000
0000
0001
0000
,  // measure 47
0010
0000
0100
0000
1000
0000
0100
0000
1000
0000
0010
1000
0001
0000
0100
0000
,  // measure 48
0010
0000
0100
0000
0001
0000
0010
0000
0001
0000
0100
0010
1000
0000
0010
0000
,  // measure 49
1100
0000
0000
0000
1100
0000
0100
0000
0010
0000
0100
1000
0001
0000
1000
0000
,  // measure 50
0010
0000
0100
0000
0010
0000
0100
0000
0001
0000
0100
0010
1000
0000
0010
0000
,  // measure 51
1000
0000
0100
0000
0010
0000
0001
0000
0010
0000
0100
1000
0001
0000
0010
0000
,  // measure 52
0001
0000
0100
0000
0010
0000
1000
0000
0010
0000
0100
0001
1000
0000
0100
0000
,  // measure 53
0110
0000
0000
0000
0110
0000
0010
0000
0001
0000
0100
0001
1000
0000
0010
0000
,  // measure 54
0100
0000
0010
0000
1000
0000
0001
0000
0010
0000
0100
0010
0001
0000
0010
0000
,  // measure 55
0001
0000
1000
0000
0010
0000
0100
0000
0010
0000
0100
0001
1000
0000
0010
0000
,  // measure 56
0100
0000
0010
0000
0100
0000
0001
0000
0100
0000
0010
1000
0010
0000
0100
0000
,  // measure 57
0101
0000
0000
0000
0101
0000
0000
0000
0101
0000
0001
0100
0000
0000
1010
0000
,  // measure 58
1010
0000
1000
0010
1000
0000
1000
0010
0000
0010
0000
0000
1001
0000
0000
0000
,  // measure 59
1000
0000
1000
0000
0001
0000
0001
0010
0000
0010
0000
0010
0100
0000
0010
0100
,  // measure 60
0010
0000
0100
0000
0100
0000
0100
1000
0000
0000
1000
0100
1000
0000
0100
0000
,  // measure 61
0011
0000
0000
0000
0011
0000
0000
0000
0011
0000
0010
0100
0000
0000
0011
0000
,  // measure 62
0011
0000
0010
0001
0010
0000
0010
0100
0000
0100
0000
0000
1001
0000
0000
0000
,  // measure 63
0001
0000
0001
0000
0100
0000
0100
0010
0000
0010
0000
0010
0100
0000
0001
1000
,  // measure 64
0001
0000
0010
0000
0010
0000
0010
0100
0000
0000
1000
0010
1000
0000
0010
0000
,  // measure 65
2000
0000
0000
0000
,  // measure 66
3000
0000
0000
0000
;
