#TITLE:Dastardly Bomber's Machine;
#SUBTITLE:;
#ARTIST:Yasuhiko Fukuda;
#TITLETRANSLIT:;
#SUBTITLETRANSLIT:;
#ARTISTTRANSLIT:;
#GENRE:;
#CREDIT:;
#BANNER:bomb bn.PNG;
#BACKGROUND:bomb bg.PNG;
#LYRICSPATH:;
#CDTITLE:cdtitle.png;
#MUSIC:Dastardly Bomber's Machine.ogg;
#OFFSET:-0.020;
#SAMPLESTART:35.141;
#SAMPLELENGTH:12.000;
#SELECTABLE:YES;
#BPMS:0.000=170.850;
#STOPS:;
#TIMESIGNATURES:0.000=4=4
;
#BGCHANGES:;
#KEYSOUNDS:;

//---------------dance-double - Kyzentun----------------
#NOTES:
     dance-double:
     Kyzentun:
     Easy:
     6:
     1.000,1.000,0.000,0.503,1.000,905.000,0.000,43.000,10.000,0.000,0.000,1.000,1.000,0.000,0.503,1.000,905.000,0.000,43.000,10.000,0.000,0.000:
00000000
00000000
00000000
00000000
,
00001000
00010000
00001000
01000000
00100000
01000000
00010000
00000000
00020000
00000000
10030000
00100000
,
01000000
00000000
01000000
02000000
00000000
00000000
00000000
03100000
00010000
00001000
00000100
00000010
,
00000100
00000001
00000100
00000010
00000100
00001000
00010000
00000000
00020000
00000000
00130000
01000000
,
00100000
00000000
10000000
20000000
00000000
00000000
30000000
01000000
00100000
00001000
00010000
00000010
,
00000100
00000001
00000100
00000010
00001000
00000010
00010000
00001000
00010000
00000100
01000000
00000100
,
00100000
00001000
00100000
00010000
10000000
00010000
01000000
00100000
01000000
00001000
00100000
00001000
,
00010000
00000100
00010000
00000001
00000010
00000001
00000100
00000010
00000100
00001000
00010000
00001000
,
01000000
00100000
01000000
00010000
00100000
00010000
10000000
00100000
10000000
01000000
00010000
01000000
,
00100000
00001000
00100000
00000010
00010000
00000010
00001000
00000000
00002000
00000000
00003010
00000001
,
00000010
00000000
00000100
00000200
00000000
00000000
00000300
00000100
00001000
00010000
00100000
01000000
,
00100000
10000000
00010000
10000000
01000000
00100000
01000000
00000000
02000000
00000000
03100000
00001000
,
00100000
00000000
00001000
00002000
00000000
00000000
00003000
00001000
00010000
00000010
00001000
00000001
,
00000010
00000100
00001000
00000100
00000010
00000100
00001000
00000100
00000010
00000100
00001000
00000100
00010000
00000100
00010000
00001000
00010000
00000100
00010000
00001000
00010000
00000100
00010000
00001000
,
01000000
00001000
00010000
00001000
01000000
00001000
00010000
00001000
01000000
00001000
00010000
00001000
01000000
00010000
01000000
00100000
01000000
00010000
01000000
00100000
01000000
00010000
01000000
00001000
,
00010000
00001000
01000000
00001000
00010000
00001000
01000000
00001000
00010000
00001000
01000000
00001000
00010000
00000100
00010000
00001000
00010000
00000100
00010000
00001000
00010000
00000100
00010000
00001000
,
00100000
00001000
00010000
00001000
00100000
00001000
00010000
00001000
00100000
00001000
00010000
00000010
00010000
00001000
00010000
00000010
00010000
00001000
00010000
00000010
00010000
00001000
00010000
00000010
,
00020000
00030000
00010000
00000000
00000010
00000100
00001000
00010000
00001000
01000000
00100000
01000000
,
00020000
00030000
00010000
00000000
10000000
00100000
00010000
00001000
00010000
00000010
00000100
00000010
,
00002000
00003000
00001000
00000000
00000010
00000100
00001000
00010000
00001000
01000000
00010000
01000000
,
20000000
30000000
10000000
01000000
00100000
10000000
00010000
00100000
01000000
00010000
00001000
00000100
,
00000002
00000003
00000001
00000000
00001000
00000100
01000000
00001000
01000000
00010000
10000000
00010000
,
00200000
00300000
00100000
00000000
00001000
00000010
00000001
00001000
00000001
00000100
00000010
00000100
,
00002000
00003000
00001000
00000000
00010000
00100000
10000000
00010000
10000000
01000000
00100000
01000000
,
20000000
30000000
10000000
01000000
00010000
00001000
00010000
00100000
00010000
00001000
00000100
00000001
,
00001000
00000100
00001000
00000001
00000010
00000001
00000100
00000010
00000100
00001000
00010000
00001000
,
00100000
01000000
00100000
00010000
10000000
00010000
00010000
00100000
01000000
10000000
00010000
01000000
,
00010000
00100000
00001000
00100000
00000100
00010000
00000100
00001000
00000001
00001000
00000010
00000100
,
00000010
00010000
00001000
00010000
00100000
01000000
00100000
10000000
00010000
10000000
01000000
00100000
,
01000000
00100000
01000000
00100000
01000000
00100000
01000000
00100000
01000000
00100000
01000000
00100000
00010000
00100000
00010000
00100000
00010000
00100000
00010000
00100000
00010000
00100000
00010000
00100000
,
00001000
00010000
00001000
00010000
00001000
00010000
00001000
00010000
00001000
00010000
00001000
00010000
00000100
00001000
00000100
00001000
00000100
00001000
00000100
00001000
00000100
00001000
00000100
00001000
,
00000100
00000010
00000100
00000010
00000100
00000010
00000100
00000010
00000100
00000010
00000100
00000010
00000100
00001000
00000100
00001000
00000100
00001000
00000100
00001000
00000100
00001000
00000100
00001000
,
00000100
00010000
00001000
00010000
00001000
00010000
00001000
00010000
00001000
00010000
00001000
00010000
00001000
01000000
00010000
01000000
00010000
01000000
00010000
01000000
00010000
01000000
00010000
01000000
,
00010000
01000000
00100000
01000000
00100000
01000000
00100000
01000000
00100000
01000000
00100000
01000000
00010000
01000000
00010000
01000000
00010000
01000000
00010000
01000000
00010000
01000000
00010000
01000000
,
00001000
00010000
00001000
00010000
00001000
00010000
00001000
00010000
00001000
00010000
00001000
00010000
00000010
00001000
00000010
00001000
00000010
00001000
00000010
00001000
00000010
00001000
00000010
00001000
,
00000020
00010000
00001030
01000000
00001000
00010000
00001000
01000000
00001000
00010000
00001000
01000000
00010000
01000000
00100000
01000000
00010000
01000000
00100000
01000000
00010000
01000000
00100000
01000000
,
00010000
01000000
00001000
00010000
00001000
01000000
00001000
00010000
00002000
01003000
00002000
00013000
00002000
00010000
00003010
00010000
00001000
00010000
00000010
00010000
00001000
00010000
00000010
00010000
,
00000010
00001000
00000010
00010000
00000010
00001000
00000010
00010000
00000010
00001000
00000010
00010000
00001000
00100000
00001000
00010000
00001000
00100000
00001000
00010000
00001000
00100000
00002000
00013000
,
00002000
00100000
00013000
00100000
00001000
00100000
00010000
00100000
00001000
00100000
00010000
00100000
00001000
00010000
00001000
01000000
00001000
00010000
00001000
01000000
00001000
00010000
00001000
01000000
,
00010000
10000000
00010000
01000000
00010000
10000000
00010000
01000000
00020000
10030000
00020000
01030000
00020000
01000000
00031000
01000000
00010000
01000000
00001000
01000000
00010000
01000000
00001000
01000000
,
00001000
00010000
00000100
00001000
00000100
00010000
00000100
00001000
00000100
00010000
00000100
00001000
M0000001
00001000
M0000100
00001000
00000001
M0001000
00000100
00001000
00000001
00001000
00000100
00001000
,
00000001
00000000
00000001
00000100
00000000
00000100
00000010
00000000
00000010
00001000
00000000
00001000
,
00000100
00001000
00000100
00001000
00000100
00001000
00000100
00001000
00000100
00001000
00000100
00001000
00000100
00010000
00000100
00010000
00000100
00010000
00000100
00010000
00000100
00010000
00000100
00010000
,
00000100
00000000
00000100
00010000
00000000
00010000
00001000
00000000
00001000
01000000
00000000
01000000
,
00010000
01000000
00010000
01000000
00010000
01000000
00010000
01000000
00010000
01000000
00010000
01000000
00001000
01000000
00001000
01000000
00001000
01000000
00001000
01000000
00001000
01000000
00001000
01000000
,
00002000
00000000
00000000
01003000
00010000
10000000
02000000
00000000
00000000
13000000
00100000
00010000
,
00001000
00010000
00001000
00000010
00000100
00000010
00000001
00001000
00000001
00000100
00000010
00000100
,
00002000
00000000
00000000
00013000
01000000
10000000
02000000
00000000
00000000
03010000
00001000
00010000
,
00100000
01000000
00100000
10000000
00010000
10000000
00010000
10000000
00010000
01000000
00001000
01000000
,
00001000
00010000
00001000
00010000
00001000
00010000
00001000
00010000
00001000
00010000
00001000
00010000
00000100
00010000
00000100
00010000
00000100
00010000
00000100
00010000
00000100
00010000
00000100
00010000
,
00000100
00001000
00000100
00001000
00000100
00001000
00000100
00001000
00000100
00001000
00000100
00001000
00000001
00001000
00000001
00001000
00000001
00001000
00000001
00001000
00000001
00001000
00000001
00001000
,
00000002
00000003
00000001
00000000
00000001
00000100
00000010
00001000
00000010
00010000
00001000
00010000
,
00002000
00003000
00001000
00000000
00001000
00001000
00000000
00001000
01000000
00100000
01000000
00010000
,
10000000
00010000
10000000
00010000
10000000
00010000
10000000
00010000
10000000
00010000
10000000
00010000
01000000
00010000
01000000
00010000
01000000
00010000
01000000
00010000
01000000
00010000
01000000
00010000
,
01000000
00001000
01000000
00001000
01000000
00001000
01000000
00001000
01000000
00001000
01000000
00001000
00010000
00001000
00010000
00001000
00010000
00001000
00010000
00001000
00010000
00001000
00010000
00001000
,
00010000
00000100
00010000
00000010
00000100
00000010
00001000
00000001
00001000
00000100
00000010
00000100
,
0001000M
M1000000
00010000
0000100M
M0100000
00001000
0100000M
10M00000
01000000
0010000M
00010000
00100000
,
02000000
03002000
00023000
00030200
00002300
00003002
00000203
00002300
00023000
00230000
20300000
30020000
,
01030000
00000000
00001000
00000000
00010000
00000000
00010000
00000000
00001000
00000000
00100000
00000000
00100000
00000000
00001000
00000000
00010000
00000000
00001000
00010000
00001000
00010000
00001000
00010000
,
00001000
00000000
00000000
00000000
;

//---------------dance-double - Kyzentun----------------
#NOTES:
     dance-double:
     Kyzentun:
     Challenge:
     13:
     1.000,1.000,0.000,0.503,1.000,743.000,0.000,43.000,100.000,0.000,0.000,1.000,1.000,0.000,0.503,1.000,743.000,0.000,43.000,100.000,0.000,0.000:
00000000
00000000
00000000
00000000
,
00010000
00000100
00010000
00001000
00100000
00001000
10000000
00000000
20000000
00000000
30100000
00010000
,
00001000
00000000
00001000
00002000
00000000
00000000
00000000
00103000
01000000
10000000
00100000
10000000
,
01000000
00010000
01000000
00100000
00001000
00100000
00000010
00000000
00000020
00000000
00010030
00000100
,
00010000
00000000
00000001
00000002
00000000
00000000
00000003
00000100
00001000
00010000
01000000
00100000
,
00010000
10000000
00010000
01000000
10000000
01000000
00100000
00010000
00100000
01000000
00001000
01000000
,
00000100
00100000
00000100
00010000
00000010
00010000
00000001
00000100
00000001
00000010
00001000
00000010
,
00000100
00000001
00000100
00000010
00000001
00000010
00001000
00010000
00001000
00000100
00000010
00000100
,
00000001
00000010
00000001
00010000
00000100
00010000
0000001M
0100000M
00000010
0001000M
00001000
00010000
,
00100000
10000000
00100000
01000000
10000000
01000000
00010000
00000000
00020000
00000000
00130000
00001000
,
00100000
00000000
00000000
00000000
00000010
00000000
00000020
00000000
M0000000
0M000000
00M00000
000M0000
M0000030
000M0000
00M00010
0M000000
M0001000
00000000
00000010
00000000
00000100
00000000
00001000
00000000
,
00000100
00000001
00001000
00000001
00010000
00001000
00010000
00000000
00020000
00000000
00030100
01000000
,
00000100
00000000
00000000
00000000
00100000
00000000
00200000
00000000
0000000M
000000M0
00000M00
0000M000
0030000M
0000M000
00100M00
000000M0
0100000M
00000000
00100000
00000000
00010000
00000000
10000000
00000000
,
00010000
01000000
00010000
01000000
00000000
00000000
00010000
10000000
00010000
10000000
00000000
00000000
00010000
00100000
00010000
00100000
00000000
00000000
00001000
00100000
00001000
00100000
00000000
00000000
,
00000100
00100000
00000100
00100000
00000000
00000000
00000100
00010000
00000100
00010000
00000000
00000000
00000100
00001000
00000100
00001000
00000000
00000000
00000001
00001000
00000001
00001000
00000000
00000000
,
00000010
00001000
00000010
00001000
00000000
00000000
00000010
00010000
00000010
00010000
00000000
00000000
00001000
00010000
00001000
00010000
00000000
00000000
00001000
00100000
00001000
00100000
00000000
00000000
,
00010000
00100000
00010000
00100000
00000000
00000000
00010000
10000000
00010000
10000000
00000000
00000000
0001000M
01000000
0001000M
01000000
00000000
00000000
0010000M
01000000
00100000
01000000
00000000
00000000
,
00020000
00030000
00010000
00000000
10000000
01000000
00100000
00010000
00100000
00001000
00010000
00001000
,
02000000
03000000
01000000
00000000
00100000
00010000
00001000
00000010
00001000
00010000
01000000
00010000
,
00002000
00003000
00001000
00000000
00010000
00000100
00000010
00001000
00000010
00000001
00001000
00000001
,
00000200
00000300
00000100
00000010
00000100
00000001
00000010
00001000
00010000
00001000
00000100
00001000
,
00020000
00030000
00010000
00000000
00000100
00100000
01000000
10000000
01000000
00100000
10000000
00100000
,
00020000
00030000
00010000
00000000
01000000
00000010
00000100
00001000
00000100
00000010
00001000
00000010
,
00200000
00300000
00100000
00000000
01000000
00010000
00000100
00000010
00000100
00010000
00000010
00010000
,
00200000
00300000
00100000
10000000
00010000
00100000
0100000M
0001000M
00001000
00000M10
00000001
00001000
,
00000100
00000010
00000100
00010000
00000010
00010000
00001000
00000010
00001000
00010000
00100000
00010000
,
00001000
01000000
00001000
10000000
00100000
10000000
01000000
00100000
00010000
10000000
00100000
01000000
,
M0001000
M0010000
M0001000
01M00000
00M00100
01M00000
M0000010
M0010000
M0000010
0M000100
0M001000
0M000100
,
00000001
00000010
00000001
00001000
00000010
00001000
00000100
00100000
00000100
01000000
00001000
01000000
,
00010000
01000000
00010000
01000000
00010000
00000000
10000000
00000000
01000000
00000000
00100000
00000000
00001000
00000000
00010000
00001000
00010000
00001000
00010000
00001000
00010000
00001000
00010000
00000000
,
00000010
00000000
00001000
00000000
00000001
00000000
00001000
00000000
00000100
00000010
00000100
00000010
00000100
00000010
00000100
00000010
00000100
00000000
00001000
00000000
00000001
00000000
00000100
00000000
,
00000001
00000000
00001000
00000010
00001000
00000010
00001000
00000010
00001000
00000010
00001000
00000000
00000001
00000000
00000010
00000000
00000100
00000000
00010000
00000000
00001000
00010000
00001000
00010000
,
00001000
00010000
00001000
00010000
00001000
00000000
01000000
00000000
00010000
00000000
10000000
00000000
00010000
00000000
01000000
00100000
01000000
00100000
01000000
00100000
01000000
00100000
01000000
00000000
,
00010000
00000000
00100000
00000000
01000000
00000000
10000000
00000000
00010000
00100000
00010000
00100000
00010000
00100000
00010000
00100000
00010000
00000000
10000000
00000000
00100000
00000000
01000000
00000000
,
00001000
00000000
00010000
00001000
00010000
00001000
00010000
00001000
00010000
00001000
00010000
00000000
00000100
00000000
00000010
00000000
00000100
00000000
00001000
00000000
00000001
00000100
00000001
00000100
,
00000002
00000103
00000001
00000100
00000001
00000000
00001000
00000000
00000010
00000000
00010000
00000000
00001000
00000000
00100000
00010000
00100000
00010000
00100000
00010000
00100000
00010000
00100000
00000000
,
00001000
00000000
01000000
00000000
00010000
00000000
01000000
00000000
00020000
10030000
00020000
10030000
00020000
10030000
00010000
10000000
00010000
00000000
00100000
00000000
00010000
00000000
10000000
00000000
,
00010000
00000000
00100000
01000000
00100000
01000000
00100000
01000000
00100000
01000000
00100000
00000000
00010000
00000000
10000000
00000000
01000000
00000000
00100000
00000000
00001000
00010000
00002000
00013000
,
00002000
00013000
00001000
00010000
00001000
00000000
00100000
00000000
00000010
00000000
00010000
00000000
00000010
00000000
00001000
00000001
00001000
00000001
00001000
00000001
00001000
00000001
00001000
00000000
,
00000100
00000000
00000010
00000000
00000001
00000000
00001000
00000000
00000020
00000130
00000020
00000130
00000020
00000130
00000010
00000100
00000010
00000000
00001000
00000000
00000001
00000000
00000010
00000000
,
00000100
00000000
00010000
00001000
00010000
00001000
00010000
00001000
00010000
00001000
00010000
00000000
0000001M
00000000
0001000M
00000000
00001000
00000000
0100000M
00000000
00010000
00100000
00010000
00100000
,
00010000
00000000
00010000
10000000
00000000
10000000
00100000
00000000
00100000
01000000
00000000
01000000
,
0000100M
00010000
0000100M
00010000
00000000
00000000
0000001M
00001000
00000010
00001000
00000000
00000000
M0000001
00000010
M0000001
00000010
00000000
00000000
00000000
00000000
M0000000
00000010
00000001
00000010
,
00000001
00000000
00000001
00000100
00000000
00000100
00000010
00000000
00000010
00010000
00000000
00010000
,
0000100M
01000000
0000100M
01000000
00000000
00000000
00010000
10000000
0001000M
10000000
00000000
00000000
00100000
01000000
0010000M
01000000
0000000M
00000000
00000000
00000000
00000000
01000000
0010000M
01000000
,
00200000
00000000
00000000
10300000
00100000
00010000
00002000
00000000
00000000
00013000
00000100
00000010
,
00000001
00000100
00000001
00001000
00000010
00001000
M0000100
M0000010
M0000100
00010000
00000010
00010000
,
0000200M
0000000M
0000000M
001030M0
010000M0
000100M0
02000000
00000000
00000000
13000000
0001000M
01000M00
,
0000100M
000100M0
0000100M
00100000
00000010
00100000
00000010
00100000
00000010
M0001000
M0000001
00001000
,
M0000010
00001000
00000010
00001000
M0000000
00000000
M0000001
00000100
M0000001
00000100
00000000
00000000
00000010
00010000
M0000010
00010000
00000000
00000000
00001000
00100000
0000100M
00100000
00000000
00000000
,
0000010M
00010000
00000100
00010000
0000000M
00000000
0000100M
01000000
0000100M
01000000
00000000
00000000
00010000
10000000
0001000M
10000000
00000000
00000000
00100000
01000000
0010000M
01000000
00000000
00000000
,
00020000
00030000
00010000
00000000
00010000
10000000
01000000
00100000
01000000
00010000
00001000
00010000
,
00000200
00000300
00000010
00000000
00000010
00000010
00000000
00000010
00000001
00001000
00000001
00000100
,
M0000010
00000100
00000010
00000100
M0000000
00000000
M0000010
00001000
M0000010
00001000
00000000
00000000
00000001
00010000
M0000001
00010000
00000000
00000000
00000100
01000000
0000010M
01000000
00000000
00000000
,
0000100M
01000000
00001000
01000000
00M00000
00000000
00M00010
01000000
00M00010
01000000
00000000
00000000
00000010
10000000
0000M010
10000000
00000000
00000000
00000001
10000000
00000001
10000000
00000000
00000000
,
00000010
00100000
00000010
01000000
00001000
01000000
00010000
10000000
00010000
00100000
01000000
00100000
,
M0001000
0000001M
00001000
M0010000
0000010M
00010000
M0000010
00000M01
00000010
M0000100
00001000
00000100
,
00000020
00020030
00032000
00203000
00320000
20030000
30200000
00320000
00032000
00003200
00000302
00002003
,
00003010
00000000
00010000
00000000
00001000
00000000
00001000
00000000
00010000
00000000
00000100
00000000
00000100
00000000
00010000
00000000
00001000
00000000
00010000
00001000
00010000
00001000
00010000
00001000
,
00010000
00000000
00000000
00000000
;

//---------------dance-double - Kyzentun----------------
#NOTES:
     dance-double:
     Kyzentun:
     Hard:
     11:
     1.000,1.000,0.000,0.503,1.000,639.000,0.000,43.000,97.000,0.000,0.000,1.000,1.000,0.000,0.503,1.000,639.000,0.000,43.000,97.000,0.000,0.000:
00000000
00000000
00000000
00000000
,
00001000
00010000
00001000
00010000
00001000
00010000
00100000
00000000
00200000
00000000
01300000
00010000
,
01000000
00000000
00010000
00020000
00000000
00000000
00000000
00130000
00001000
00010000
00000010
00010000
,
00000001
00001000
00000001
00000100
00000010
00000100
00001000
00000000
00002000
00000000
00013000
00001000
,
00010000
00000000
00001000
00002000
00000000
00000000
00003000
01000000
00100000
01000000
00100000
01000000
,
00010000
10000000
00010000
10000000
00010000
10000000
01000000
00100000
01000000
00100000
01000000
00100000
,
00001000
00010000
00001000
00010000
00001000
00010000
00000100
00000010
00000100
00000010
00000100
00000010
,
00000001
00001000
00000001
00001000
00000001
00001000
00000010
00000100
00000010
00000100
00000010
00000100
,
00001000
00010000
00001000
00010000
00001000
00010000
0100000M
0010000M
01000000
0010000M
01000000
00100000
,
00010000
10000000
00010000
01000000
00001000
01000000
00000100
00000000
00000200
00000000
00010300
00000100
,
00010000
00000000
00000000
00000000
00000001
00000000
00000002
00000000
M0000000
0M000000
00M00000
000M0000
M0000003
000M0000
00M00001
0M000000
M0001000
00000000
00000001
00000000
00000010
00000000
00000100
00000000
,
00000010
00000001
00010000
00000001
01000000
00000100
01000000
00000000
02000000
00000000
03010000
10000000
,
00010000
00000000
00000000
00000000
10000000
00000000
20000000
00000000
0000000M
000000M0
00000M00
0000M000
3000000M
0000M000
10000M00
000000M0
0001000M
00000000
01000000
00000000
00010000
00000000
01000000
00000000
,
00010000
10000000
00010000
00100000
00001000
00100000
00000010
00010000
00000010
00001000
00000001
00001000
,
00000100
00010000
00000100
01000000
00001000
01000000
00010000
10000000
00010000
01000000
00001000
01000000
,
00000010
00010000
00000010
00001000
00000001
00001000
00000100
00010000
00000100
00100000
00001000
00100000
,
00010000
10000000
00010000
01000000
00100000
01000000
00010000
00100000
00010000
10000000
00100000
10000000
,
00020000
00030000
00010000
00000000
01000000
00001000
00010000
00000100
00010000
00000100
00010000
00000100
,
00002000
00003000
00001000
00000000
00000010
00000100
00000001
00001000
00000001
00001000
00000001
00001000
,
00000020
00000030
00000010
00000000
00000100
00000010
00010000
00001000
00010000
00001000
00010000
00001000
,
00020000
00030000
00010000
00100000
00010000
00100000
01000000
00010000
01000000
00010000
10000000
01000000
,
00020000
00030000
00010000
00000000
00000100
00001000
00000001
00000100
00000001
00000100
00000001
00000100
,
00000020
00000030
00000010
00000000
00000100
00000001
00010000
00000010
00010000
00000010
00010000
00000010
,
02000000
03000000
01000000
00000000
00001000
01000000
00100000
00010000
00100000
00010000
00100000
00010000
,
00002000
00003000
00001000
00100000
01000000
10000000
0100000M
0001000M
00001000
0001000M
00001000
00000100
,
00000010
00001000
00000010
00001000
00000010
00001000
00000001
00000010
00000001
00000010
00000001
00000010
,
00000100
00010000
00000100
00010000
00000100
00010000
00001000
00100000
00001000
00100000
00001000
00100000
,
0001000M
1000000M
0001000M
10000M00
00010M00
10000M00
0010000M
0100000M
0010000M
010000M0
001000M0
010000M0
,
00001000
00010000
00001000
00010000
00001000
00010000
00000100
00001000
00000100
00001000
00000100
00001000
,
00000010
00000001
00000010
00000100
00000010
00000100
00000010
00000100
00001000
00010000
00001000
00100000
,
00001000
00100000
00001000
00100000
00001000
00010000
01000000
00100000
00010000
00100000
00010000
00100000
,
00010000
00100000
00001000
01000000
00100000
10000000
00100000
10000000
00100000
10000000
00100000
00010000
,
00001000
00010000
00000100
00010000
00000100
00010000
00000100
00010000
00001000
00000010
00000100
00001000
,
00000100
00001000
00000100
00001000
00000100
00010000
00000010
00000100
00000001
00000100
00000001
00000100
,
00000001
00000100
00001000
00010000
00001000
01000000
00001000
01000000
00001000
01000000
00001000
00010000
,
02000000
03100000
00010000
00100000
00010000
00100000
00010000
00100000
00001000
01000000
00100000
10000000
,
00100000
10000000
00100000
10000000
00200000
00320000
00032000
00013000
00000010
00010000
00000010
00010000
,
00000010
00010000
00001000
00000100
00000010
00000100
00000010
00000100
00000010
00000100
00000010
00020000
,
00032000
00003010
00000100
00000010
00000100
00000010
00000100
00000010
00000001
00010000
00000100
00010000
,
00000100
00010000
00000100
00010000
00000200
00200300
02300000
13000000
00010000
10000000
00010000
10000000
,
00010000
10000000
00100000
00010000
00001000
00010000
0000100M
0001000M
00001000
0001000M
00001000
00000100
,
00000001
00000000
00000001
00000010
00000000
00000010
00001000
00000000
00001000
00000010
00000000
00000010
,
M0000001
M0000010
00001000
M0000010
00001000
00010000
M0001000
M0010000
00100000
00000000
M0100000
00010000
,
00001000
00000000
00001000
00000010
00000000
00000010
00000100
00000000
00000100
00001000
00000000
00001000
,
M0000001
M0000100
00001000
00000100
M0001000
00010000
00001000
M0010000
M0100000
00000000
00100000
M0010000
,
00002000
00000000
00000000
00000000
00000000
00000000
00103000
00000000
00001000
00000000
00100000
00000000
00002000
00000000
00000000
00000000
00000000
00003000
00001000
00000000
00010000
00000000
00001000
00000000
,
00010000
00000010
00010000
00000001
00000010
00000001
M0001000
M0000010
M0001000
00000100
00000010
00000100
,
0002000M
0000000M
0000000M
000301M0
001000M0
000001M0
00200000
00000000
00000000
00310000
1000000M
00010M00
,
1000000M
001000M0
1000000M
00010000
01000000
00010000
01000000
00010000
01000000
0010000M
1000000M
00010000
,
1000000M
00100000
1000000M
0010000M
1000000M
00010000
10000000
0001000M
10000000
00001000
1000000M
00001000
,
1000000M
00000100
100M0000
000M0100
100M0000
00000001
10000000
0000M001
10000000
00000001
100M0000
00000001
,
00200000
00300000
00100000
00000000
00100000
00000010
00010000
00000010
00010000
00000001
00001000
00000001
,
00002000
00003000
00001000
00000000
00001000
00001000
00000000
00001000
00000010
00000100
00000010
00000100
,
M0000001
00000100
M0000001
M0000100
M0000001
00001000
00000001
M0001000
00000001
00010000
M0000001
00010000
,
M0000001
00100000
0000M001
0010M000
0000M001
10000000
00000001
1000M000
00000001
10000000
00000001
10000000
,
00000010
00100000
00000010
00100000
00000010
00100000
00000001
00010000
00000001
00010000
00000001
00010000
,
M0000100
M1000000
00000100
M1000000
M0000100
01000000
M0001000
M0010000
00001000
M0010000
00001000
00010000
,
00002000
00203000
00302000
02003000
03200000
02300000
03002000
00023000
00032000
00003020
00000230
00000320
,
00001030
00000000
00010000
00000000
00001000
00000000
00001000
00000000
00010000
00000000
00000100
00000000
00000100
00000000
00010000
00000000
00001000
00000000
00010000
00001000
00010000
00001000
00010000
00001000
,
00010000
00000000
00000000
00000000
;

//---------------dance-double - EOTCish----------------
#NOTES:
     dance-double:
     EOTCish:
     Edit:
     11:
     1.000,1.000,0.000,0.503,1.000,639.000,0.000,43.000,97.000,0.000,0.000,1.000,1.000,0.000,0.503,1.000,639.000,0.000,43.000,97.000,0.000,0.000:
00000000
00000000
00000000
00000000
,
00001000
00010000
00001000
01000000
00010000
01000000
00100000
00000000
00200000
00000000
01300000
00010000
,
10000000
00000000
01000000
02000000
00000000
00000000
00000000
03100000
00001000
00010000
00000010
00010000
,
00000001
00001000
00000001
00000100
00000010
00000100
00001000
00000000
00002000
00000000
00013000
00100000
,
00010000
00000000
00100000
00200000
00000000
00000000
00300000
01000000
10000000
01000000
00100000
01000000
,
00010000
10000000
00010000
00100000
10000000
00100000
01000000
10000000
01000000
00100000
00001000
00100000
,
00000100
00001000
00000100
00000010
00001000
00000010
00000100
00000010
00000100
00001000
00000010
00001000
,
00000001
00000010
00000001
00001000
00000100
00001000
00000010
00000100
00000010
00010000
00000100
00010000
,
00001000
00100000
00001000
10000000
00100000
10000000
0100000M
0010000M
01000000
0001000M
00001000
00010000
,
00000010
00001000
00000010
00000100
00001000
00000100
00000001
00000000
00000002
00000000
00001003
00000010
,
00001000
00000000
00000000
00000000
00000010
00000000
00000020
00000000
M0000000
0M000000
00M00000
000M0000
M0000030
000M0000
00M00010
0M000000
M0001000
00000000
00000001
00000000
00000010
00000000
00000100
00000000
,
00000010
00001000
00010000
00001000
01000000
00100000
01000000
00000000
02000000
00000000
03010000
10000000
,
00010000
00000000
00000000
00000000
10000000
00000000
20000000
00000000
0000000M
000000M0
00000M00
0000M000
3000000M
0000M000
10000M00
000000M0
0010000M
00000000
01000000
00000000
00010000
00000000
10000000
00000000
,
00100000
10000000
00010000
01000000
00100000
01000000
00010000
10000000
01000000
00100000
01000000
10000000
,
00100000
00010000
00001000
00010000
01000000
00010000
00001000
00000100
00001000
00000100
00000001
00001000
,
00000100
00000010
00000100
00001000
00000001
00000100
00000010
00000100
00000001
00000010
00001000
00010000
,
00001000
00000100
00001000
00010000
01000000
00010000
01000000
10000000
00010000
01000000
00100000
01000000
,
00020000
00030000
00010000
00000000
01000000
00001000
00010000
00000100
00010000
00000001
00000100
00000001
,
00002000
00003000
00001000
00000000
00000010
00000100
00000001
00001000
00000001
00000010
00000100
00000010
,
00000002
00000003
00000001
00000000
00000100
00000010
00010000
00001000
00010000
00000010
00100000
00000010
,
00020000
00030000
00010000
00001000
00010000
00100000
01000000
10000000
01000000
00010000
10000000
01000000
,
00020000
00030000
00010000
00000000
00000100
00001000
00000001
00000100
00000001
00001000
00000100
00001000
,
00000020
00000030
00000010
00000000
00000100
00000001
00010000
00000010
00010000
00001000
00000010
00001000
,
00020000
00030000
00010000
00000000
00001000
01000000
00100000
00010000
00100000
01000000
00010000
01000000
,
00002000
00003000
00001000
00100000
01000000
10000000
0001000M
0100000M
00100000
0001000M
00001000
00000100
,
00000010
00001000
00000010
00000100
00001000
00000100
00000001
00001000
00000001
00000010
00000100
00000010
,
00000001
00000100
00000001
00010000
00000100
00010000
00001000
00100000
01000000
00010000
00001000
01000000
,
0001000M
0100000M
0001000M
10000M00
01000M00
10000M00
0010000M
0100000M
0010000M
000100M0
000010M0
000100M0
,
00000100
00001000
00000100
00000010
00001000
00000010
00000100
00000010
00000100
00001000
00000010
00001000
,
00000010
00000001
00000010
00000100
00000010
00000100
00000010
00000100
00001000
00010000
00001000
00000010
,
00001000
00000010
00001000
00000010
00001000
00010000
01000000
00100000
00010000
00100000
00010000
00100000
,
00010000
00100000
00001000
01000000
00100000
10000000
00100000
10000000
00100000
10000000
00100000
00010000
,
00001000
00010000
01000000
00010000
01000000
00010000
01000000
00010000
00001000
00000010
00000100
00001000
,
00000100
00001000
00000100
00001000
00000100
00010000
00000010
00000100
00000001
00000100
00000001
00000100
,
00000001
00000100
00001000
00010000
00001000
00000100
00001000
00000100
00001000
00000100
00001000
00010000
,
02000000
03100000
00010000
00100000
00010000
00100000
00010000
00100000
00001000
01000000
00100000
10000000
,
00100000
10000000
00100000
10000000
00200000
00320000
00032000
00013000
01000000
00010000
01000000
00010000
,
01000000
00010000
00001000
00000100
00000010
00000100
00000010
00000100
00000010
00000100
00000010
00020000
,
00032000
00003010
00000100
00000010
00000100
00000010
00000100
00000010
00000001
00000100
00001000
00010000
,
00001000
00010000
00001000
00010000
00002000
00203000
02300000
13000000
00010000
10000000
00010000
10000000
,
00010000
10000000
00100000
00010000
00001000
00010000
0000100M
0001000M
00001000
0001000M
00001000
00000100
,
00000001
00000000
00000001
00000010
00000000
00000010
00001000
00000000
00001000
00000010
00000000
00000010
,
M0000001
M0000010
00001000
M0000010
00001000
00010000
M0001000
M0010000
00100000
00000000
M0100000
00010000
,
00001000
00000000
00001000
00000010
00000000
00000010
00000100
00000000
00000100
00001000
00000000
00001000
,
M0000001
M0000100
00001000
00000100
M0001000
00010000
00001000
M0010000
M0100000
00000000
00100000
M0010000
,
00002000
00000000
00000000
00000000
00000000
00000000
00103000
00000000
00001000
00000000
00100000
00000000
00002000
00000000
00000000
00000000
00000000
00003000
00001000
00000000
00010000
00000000
00001000
00000000
,
00010000
00000010
00010000
00000001
00000010
00000001
M0001000
M0000010
M0001000
00000100
00000010
00000100
,
0002000M
0000000M
0000000M
000301M0
001000M0
000001M0
00200000
00000000
00000000
00310000
1000000M
00010M00
,
1000000M
001000M0
1000000M
00010000
01000000
00010000
01000000
00010000
01000000
0010000M
1000000M
00010000
,
1000000M
00010000
0100000M
0010000M
0100000M
00010000
10000000
0100000M
00100000
01000000
1000000M
00100000
,
0001000M
00001000
0001000M
0100000M
0001000M
00001000
00000100
M0001000
00000100
00000001
M0001000
00000100
,
00000020
00000030
00000010
00000000
00000010
00000001
00001000
00000010
00001000
00000001
00000010
00000001
,
00002000
00003000
00001000
00000000
00001000
00001000
00000000
00001000
00000010
00000100
00000010
00000100
,
M0000001
00001000
M0000100
M0000010
M0000100
00001000
00000001
M0000100
00000010
00000100
M0000001
00000010
,
M0001000
00010000
0000100M
0000010M
0000100M
00010000
01000000
0001000M
01000000
10000000
00010000
01000000
,
00100000
10000000
00100000
01000000
00001000
01000000
00000100
00010000
00000100
00100000
00001000
00100000
,
M0000010
M0001000
00000010
M0000100
M0000001
00000100
M0001000
M0010000
00001000
M0100000
01000000
00100000
,
00020000
20030000
30020000
02030000
23000000
32000000
03200000
00320000
00032000
00003200
00000302
00002003
,
00003010
00000000
00010000
00000000
00001000
00000000
00001000
00000000
00010000
00000000
00000100
00000000
00000100
00000000
00010000
00000000
00001000
00000000
00010000
00001000
00010000
00001000
00010000
00001000
,
00010000
00000000
00000000
00000000
;

//---------------dance-double - lol stretch----------------
#NOTES:
     dance-double:
     lol stretch:
     Edit:
     9:
     0.645,1.000,0.012,0.140,1.000,373.000,1.000,12.000,0.000,0.000,45.000,0.645,1.000,0.012,0.140,1.000,373.000,1.000,12.000,0.000,0.000,45.000:
00000000
00000000
00000000
00000000
,
00000000
00010000
00001000
00000000
00001000
01000000
00000000
01000000
00000100
00000000
00000100
01000000
,
00000000
01000000
00001000
00000000
00001000
10000000
00000000
10000000
00000100
00000000
00000100
00100000
,
00000000
00100000
00001000
00000000
00001000
10000000
00000000
10000000
00000010
00000000
00000010
00010000
,
00000000
00010000
00001000
00000000
00001000
00010000
00000000
00010000
00000010
00000000
00000010
00010000
,
00000000
00010000
00001000
00000000
00001000
01000000
00000000
01000000
00001000
00000000
00001000
00100000
,
00000000
00100000
00000001
00000000
00000001
10000000
00000000
10000000
00000100
00000000
00000100
00100000
,
00000000
00100000
00000001
00000000
00000001
01000000
00000000
01000000
00000010
00000000
00000010
00010000
,
00000000
00010000
00000001
00010000
00000001
00010000
00000001
00010000
00000000
00000010
10000000
00000010
,
00000000
00000010
00100000
00000000
00100000
00001000
00000000
00001000
00010000
00000000
00010000
00001000
,
00000000
00001000
00100000
00000000
00100000
00001000
00000000
00001000
10000000
00000000
10000000
00000100
,
00000000
00000100
00010000
00000000
00010000
00000010
00000000
00000010
00100000
00000000
00100000
00001000
,
00000000
00001000
01000000
00000000
01000000
00000001
00000000
00000001
00010000
00000000
00010000
00000010
,
00000040
00400030
00300004
00400003
,
00300400
00040300
00030040
40000030
,
30004000
04003000
03000040
04000030
,
03004000
40000000
00000000
00000000
00000000
00000000
00000000
00000000
00000000
00000000
00000000
00000000
,
30003000
01000000
00000100
00000000
00000100
00100000
00000000
00100000
00001000
00000000
00001000
00100000
,
00000000
00100000
00000010
00000000
00000010
00010000
00000000
00010000
00000001
00000000
00000001
01000000
,
00000000
01000000
00001000
00000000
00001000
00010000
00000000
00010000
00000001
00000000
00000001
00100000
,
00000000
00100000
00001000
00000000
00001000
01000000
00000000
01000000
00000100
00000000
00000100
01000000
,
00000000
01000000
00001000
00000000
00001000
10000000
00000000
10000000
00000010
00000000
00000010
00010000
,
00000000
00010000
00001000
00000000
00001000
00010000
00000000
00010000
00000010
00000000
00000010
00010000
,
00000000
00010000
00000010
00000000
00000010
00100000
00000000
00100000
00000100
00000000
00000100
00100000
,
00000000
00100000
00001000
00000000
00001000
10000000
00000000
10000000
00000100
00000000
00000100
01000000
,
00000000
01000000
00001000
00000000
00001000
10000000
00000000
10000000
00000100
00000000
00000100
00100000
,
00000000
00100000
00000010
00000000
00000010
00010000
00000000
00010000
00000001
00000000
00000001
01000000
,
00000000
01000000
00000010
00000000
00000010
10000000
00000000
10000000
00001000
00000000
00001000
00100000
,
00000000
00100000
00000100
00000000
00000100
10000000
00000000
10000000
00000001
00000000
00000001
10000000
,
00000004
04000000
00000000
00000000
00000000
00000000
00000000
00000000
00000000
00000000
00000000
00000003
,
03000040
00040000
00000000
00000000
00000000
00000000
00000000
00000000
00000000
00000000
00000000
00000030
,
00034000
00400000
00000000
00000000
00000000
00000000
00000000
00000000
00000000
00000000
00000000
00003000
,
00300400
00040000
00000000
00000000
00000000
00000000
00000000
00000000
00000000
00000000
00000000
00000300
,
00030004
04000000
00000000
00000000
00000000
00000000
00000000
00000000
00000000
00000000
00000000
00000003
,
03000400
00040000
00000000
00000000
00000000
00000000
00000000
00000000
00000000
00000000
00000000
00000300
,
00034000
00400000
00000000
00000000
00000000
00000000
00000000
00000000
00000000
00000000
00000000
00003000
,
00300040
00040000
00000000
00000000
00000000
00000000
00000000
00000000
00000000
00000000
00000000
00000030
,
00030004
00400000
00000000
00000000
00000000
00000000
00000000
00000000
00000000
00000000
00000000
00000003
,
00300040
40000000
00000000
00000000
00000000
00000000
00000000
00000000
00000000
00000000
00000000
00000030
,
30000004
04000000
00000000
00000000
00000000
00000000
00000000
00000000
00000000
00000000
00000000
00000000
,
03000000
40000000
00000000
00000000
00000000
00000000
00000000
00000000
00000000
00000000
00000000
30000003
,
00100010
00000000
00000010
00100000
00000000
00001000
10000000
00000000
00000100
01000000
00000000
00000001
,
00040000
00034000
04003000
03000400
,
00000300
00000000
01000000
00000010
00000000
00010000
00001000
00000000
00100000
00000100
00000000
10000000
,
00000004
40000003
30000040
00400030
,
00300000
00000010
00010000
00000000
00010000
00000100
00000000
00000100
01000000
00000000
01000000
00001000
,
00000000
00001000
10000000
00001000
10000000
00001000
10000000
00001000
10000000
00001000
10000000
00001000
,
00000000
00001000
00100000
00000000
00100000
00000010
00000000
00000010
00010000
00000000
00010000
00001000
,
00000000
00001000
01000000
00001000
01000000
00001000
01000000
00001000
01000000
00001000
01000000
00001000
,
01000000
00000000
00000100
00000100
00000100
00000000
00000000
00100000
00000000
00000000
00100000
00000000
,
00001000
00000000
10000000
10000000
10000000
00000000
00000000
00000100
00000000
00000000
00000100
00000000
,
00000000
01000000
00000100
00000000
00000100
00100000
00000000
00100000
00000010
00000000
00000010
00010000
,
00000000
00010000
00000001
00000000
00000001
01000000
00000000
01000000
00000100
00000000
00000100
10000000
,
00000100
00000000
00000100
00100000
00000100
00000000
00000000
10000000
00000000
00000000
00000001
00000000
,
00100000
00000000
00001000
01000000
00001000
00000000
00000000
10000000
00000000
00001000
00000000
00000000
,
00000000
00001000
10000000
00000000
00000100
01000000
00000000
00000010
00100000
00000000
00000001
00010000
,
00000000
00000100
01000000
00000000
00000010
00100000
00000000
00001000
10000000
00000000
00010000
00000001
,
00020000
00030020
00020030
00032000
02003000
03002000
00023000
00030200
00020300
00032000
00203000
00302000
,
10003000
00000001
10000000
00000001
10000000
00000001
10000000
00000001
10000000
00000001
10000000
00000001
,
10000000
00000000
00000000
00000000
;

//---------------dance-double - Oblig Hands----------------
#NOTES:
     dance-double:
     Oblig Hands:
     Edit:
     6:
     0.479,0.552,0.000,1.000,0.000,180.000,0.000,107.000,0.000,30.000,0.000,0.479,0.552,0.000,1.000,0.000,180.000,0.000,107.000,0.000,30.000,0.000:
00000000
00000000
00000000
00000000
,
00010000
00001000
00000010
00000001
,
00000010
00002000
00000000
00000000
,
00013000
00100000
10000000
00100000
,
00010000
00002000
00000000
00000000
,
00023000
00030200
00000320
00000032
,
00000023
00000230
00002300
00003020
,
00020030
00032000
02003000
03200000
,
20300000
30200000
02300000
03002000
,
00013000
00001000
00000100
00000001
,
00000100
00002000
00000000
00000000
,
00013000
01000000
10000000
01000000
,
00010000
00002000
00000000
00000000
,
00023000
00030020
00000230
00002300
,
00023000
00230000
02300000
23000000
,
32000000
03020000
00230000
02300000
,
03020000
00032000
00003020
00000230
,
00002300
00000000
00003001
00000100
,
00000002
00000000
00001003
00000010
,
00002000
00000000
00003001
00000010
,
00000001
00000010
00001000
00010000
,
00200000
00000000
01300000
00010000
,
02000000
00000000
03100000
10000000
,
00200000
00000000
10300000
00010000
,
10000000
01000000
00010000
00001000
,
00000200
00000320
00020030
00230000
,
02300000
03002000
00003200
00000320
,
00020030
00032000
00203000
02300000
,
23000000
32000000
03020000
00032000
,
00023000
00000000
00000000
00000200
,
00000000
00000000
00000020
00000000
,
00030000
00002000
00000000
00000030
,
00020000
00000000
00000300
00000002
,
00000000
00030000
00000020
00000000
,
00003000
00000200
00000000
00000033
,
00002000
00000000
00000300
00020000
,
00000000
00000000
00200000
00000000
,
00030000
02000000
00000000
00300000
,
20000000
00000000
00003000
00020000
,
00000000
30000000
00200000
00000000
,
03000000
20000000
00000000
00000000
,
30330000
00010000
01000000
00010000
,
20000000
02000000
00200000
00020000
,
33330000
10000000
00001000
01000000
,
00002000
00020000
00000020
00200000
,
00333030
00000100
00001000
00000100
,
00000010
00000001
00000010
00000001
,
00002000
00000000
00003010
00000100
,
00000010
00010000
00001000
01000000
,
00000200
02000000
00000020
00200300
,
03002000
00020030
00300020
00200000
,
00333030
00001000
00010000
00001000
,
00100000
01000000
00100000
00010000
,
00200000
02000000
00020000
00302000
,
23000000
02030000
00203000
00020000
,
33330000
00100000
00010000
10000000
,
00100000
00010000
00001000
00000100
,
00000002
00000023
00002030
00023000
,
00032000
00020000
00000020
00200000
,
00333030
00000000
00000000
00000000
;

//---------------dance-double - Kyzentun----------------
#NOTES:
     dance-double:
     Kyzentun:
     Medium:
     9:
     0.701,1.000,0.000,0.503,1.000,377.000,0.000,43.000,80.000,0.000,72.000,0.701,1.000,0.000,0.503,1.000,377.000,0.000,43.000,80.000,0.000,72.000:
00000000
00000000
00000000
00000000
00000000
00000000
00000000
00000000
00000000
00000000
00000000
00010000
,
00001000
00000000
00001000
00010000
00000000
00010000
00000100
00000000
00000200
00000000
00000310
00000001
,
00000010
00000000
00000001
00002000
00000000
00000000
00000000
00003000
00001000
00000010
00000000
00000010
,
00000100
00000000
00000100
00001000
00000000
00001000
00010000
00000000
00020000
00000000
00031000
01000000
,
00001000
00000000
01000000
00200000
00000000
00000000
00000000
00300000
10000000
00100000
00000000
00100000
,
01000000
00000000
00001000
00010000
00000000
00000010
00001000
00000000
00000001
00000100
00000000
00000010
,
00001000
00000000
00000001
00000010
00000000
00000100
00010000
00000000
00001000
00100000
00000000
00010000
,
10000000
00000000
01000000
00010000
00000000
01000000
00100000
00000000
00001000
00000010
00000000
00001000
,
00010000
00000000
00000010
00000100
00000000
00000010
M0000001
M0000000
00000010
M0001000
00000000
00000100
,
00000010
00000000
00000010
00000001
00000000
00000001
00001000
00000000
00002000
00000000
00003010
00000100
,
00000010
00000000
00000000
00000000
00000100
00000000
00000002
00000000
M0000000
0M000000
00M00000
000M0000
M0000003
000M0000
00M00000
0M000000
M0000001
00000000
00000010
00000000
00000000
00000000
00000010
00000000
,
00000100
00000000
00000100
00010000
00000000
00010000
01000000
00000000
02000000
00000000
03100000
00010000
,
00100000
00000000
00000000
00000000
00010000
00000000
20000000
00000000
0000000M
000000M0
00000M00
0000M000
3000000M
0000M000
00000M00
000000M0
1000000M
00000000
00100000
00000000
00000000
00000000
00100000
00000000
,
04000000
03040000
40030000
34000000
,
03040000
00034000
00003040
00000430
,
00004300
00003004
00000403
00004300
,
00003400
00000340
00040030
00430000
,
20300000
30000000
10000000
00000000
00000000
10000000
00100000
00000000
10000000
00010000
00000000
10000000
,
00002000
00003000
00001000
00000000
00000000
00001000
01000000
00000000
00001000
00010000
00000000
00001000
,
00200000
00300000
00100000
00000000
00000000
00100000
00010000
00000000
00100000
00001000
00000000
00100000
,
00000020
00000030
00000010
00100000
00000010
00100000
00000010
00100000
00000010
00100000
00000010
00100000
,
00000020
00000030
00000010
00000000
00000000
00000010
00010000
00000000
00000010
00001000
00000000
00000010
,
00000200
00000300
00000100
00000000
00000000
00000100
00001000
00000000
00000100
00000010
00000000
00000100
,
00000002
00000003
00000001
00000000
00000000
00000001
00000100
00000000
00000001
00001000
00000000
00000001
,
00020000
00030000
00010000
00000001
00010000
00000001
M0010000
M0000001
00010000
M0000001
00010000
00000001
,
00001000
00000000
00001000
00000100
00000000
00000100
00000010
00000000
00000010
00001000
00000000
00001000
,
00010000
00000000
00010000
00100000
00000000
00100000
01000000
00000000
01000000
00010000
00000000
00010000
,
10000000
01000000
10000000
00010000
01000000
00010000
10000000
01000000
10000000
00010000
01000000
00010000
,
10000000
00000000
10000000
00100000
00000000
00100000
00010000
00000000
00010000
00100000
00000000
00100000
,
04000000
03040000
40030000
34000000
,
03400000
04300000
03040000
00034000
,
00043000
00034000
00003040
00000430
,
00000340
00004030
00003040
00000034
,
00004003
00003040
00040030
00034000
,
00403000
04300000
03040000
04030000
,
23000000
30040000
00430000
00304000
,
00003040
00000000
00000000
00000034
00002003
00003002
00002003
00000000
00000000
00003040
00000000
00000000
,
00000430
00000000
00000000
00004300
00000000
00000000
00043000
00000000
00000000
00034000
00003000
00002000
,
00203000
00340000
40030000
34000000
,
03040000
00000000
00000000
04030000
03200000
02300000
03200000
00000000
00000000
00304000
00000000
00000000
,
00043000
00000000
00000000
00030400
00000000
00000000
M0000340
M0000000
00000000
M0000034
00000000
00000000
,
00001003
00000000
00001000
00000010
00000000
00000010
00000100
00000000
00000100
00000001
00000000
00000001
,
M0004000
M0000000
00000000
M0003040
00000000
00000000
M0040030
M0000000
00000000
00000000
M0000000
00000000
,
00031000
00000000
00001000
01000000
00000000
01000000
00100000
00000000
00100000
10000000
00000000
10000000
,
0004000M
0000000M
00000000
04030000
0000000M
00000000
03400000
0000000M
0000000M
00000000
00000000
0000000M
,
20300000
00000000
00000000
30001000
00100000
00001000
00200000
00000000
00000000
00301000
00000000
00001000
,
00010000
00000000
00010000
00000100
00000000
00000100
M0000010
M0000000
M0000010
00000100
00000000
00000100
,
M0002000
M0000000
M0000000
0M003001
0M000100
0M000001
00000200
00000000
00000000
00000301
00000010
00000001
,
00001000
00000010
00001000
00000001
00000000
00000001
00000100
00000000
00000100
0000100M
0000000M
00001000
,
0004000M
00004000
0000000M
0000000M
0000000M
00000000
00000000
0000000M
00000000
00000000
0000000M
00000000
,
0000000M
00000000
0000000M
0000000M
0000000M
00000000
00000000
M0000000
00000000
00000000
M0000000
00030000
,
02003000
03000000
01000000
00000000
00000000
01000000
00001000
00000000
01000000
00010000
00000000
01000000
,
00200000
00300000
00100000
00000000
00100000
00100000
00000000
00000000
00100000
01000000
00000000
00100000
,
4000000M
00040000
0000000M
0000000M
0000000M
00000000
00000000
0000000M
00000000
00000000
0000000M
00000000
,
0000000M
00000000
0000000M
0000000M
0000000M
00000000
00000000
0000000M
00000000
00000000
00000000
30000000
,
01030000
00001000
01000000
00001000
01000000
00001000
00010000
00000010
00010000
00000010
00010000
00000010
,
M0001000
M0000001
00001000
M0000001
M0001000
00000001
M0000010
M0000100
00000010
M0000100
00000010
00000100
,
00020000
00032000
00023000
00032000
00023000
00032000
00023000
00032000
00023000
00032000
00023000
00032000
,
01003000
00000000
00010000
00000000
01000000
00000000
00010000
00000000
01000000
00000000
00010000
00000000
01000000
00000000
00010000
00000000
01000000
00000000
00040000
04000000
00000000
00000000
00000000
00000000
,
03030000
00000000
00000000
00000000
;

//---------------dance-single - Kyzentun----------------
#NOTES:
     dance-single:
     Kyzentun:
     Easy:
     6:
     1.000,1.000,0.000,0.503,1.000,905.000,0.000,43.000,10.000,0.000,0.000,1.000,1.000,0.000,0.503,1.000,905.000,0.000,43.000,10.000,0.000,0.000:
0000
0000
0000
0000
,
0001
0100
0001
1000
0100
1000
0001
0000
0002
0000
1003
0010
,
0100
0000
0100
0200
0000
0000
0000
0310
0100
0001
1000
0100
,
0010
0001
0010
0100
1000
0100
0010
0000
0020
0000
0031
1000
,
0001
0000
0100
0200
0000
0000
0300
0010
1000
0001
1000
0010
,
0100
0001
0100
0010
1000
0010
0100
0010
0100
0001
1000
0001
,
0010
0100
0010
0001
0010
0001
0100
0010
0100
0010
1000
0010
,
1000
0001
1000
0001
0010
0001
1000
0010
1000
0001
0100
0001
,
1000
0100
1000
0010
0100
0010
1000
0010
1000
0100
0010
0100
,
0010
0001
0010
0100
1000
0100
0010
0000
0020
0000
0031
1000
,
0001
0000
0001
0002
0000
0000
0003
0001
1000
0001
0100
0010
,
1000
0010
1000
0001
0100
0001
0010
0000
0020
0000
0031
1000
,
0001
0000
0001
0002
0000
0000
0003
0001
0100
0001
1000
0001
,
1000
0100
0010
0001
1000
0100
0010
0001
1000
0100
0010
0001
1000
0100
0010
0001
1000
0100
0010
0001
1000
0100
0010
0001
,
1000
0010
0100
0001
1000
0010
0100
0001
1000
0010
0100
0001
1000
0010
0100
0001
1000
0010
0100
0001
1000
0010
0100
0001
,
1000
0001
1000
0001
1000
0001
1000
0001
1000
0001
1000
0001
1000
0001
1000
0001
1000
0001
1000
0001
1000
0001
1000
0001
,
1000
0100
1000
0100
1000
0100
1000
0100
1000
0100
1000
0100
1000
0100
1000
0100
1000
0100
1000
0100
1000
0100
1000
0100
,
2000
3000
1000
0000
1000
0100
1000
0001
1000
0010
0100
0010
,
0200
0300
0100
0000
0100
0001
1000
0100
1000
0001
0100
0001
,
0020
0030
0010
0000
0010
0100
1000
0010
1000
0001
0010
0001
,
0020
0030
0010
0100
0010
1000
0010
0100
0010
0001
1000
0010
,
0200
0300
0100
0000
0100
0010
1000
0001
1000
0010
0100
0010
,
0200
0300
0100
0000
0100
0010
1000
0010
1000
0100
1000
0100
,
0020
0030
0010
0000
0010
0001
1000
0100
1000
0001
0010
0001
,
0200
0300
0100
0001
0100
0010
0100
1000
0100
0010
0100
0001
,
0100
0010
0100
0001
0010
0001
1000
0010
1000
0100
0010
0100
,
1000
0001
1000
0010
0100
0010
1000
0010
1000
0001
0100
0001
,
1000
0100
1000
0001
0010
0001
1000
0001
1000
0010
0100
0010
,
0100
0001
0100
0001
0010
0001
1000
0010
1000
0001
0100
0001
,
0100
0001
0100
0001
0100
0001
0100
0001
0100
0001
0100
0001
0100
0001
0100
0001
0100
0001
1000
0001
1000
0001
1000
0001
,
1000
0001
1000
0001
1000
0001
1000
0001
1000
0001
1000
0001
1000
0100
1000
0100
1000
0100
1000
0100
1000
0100
1000
0100
,
1000
0100
1000
0100
1000
0100
0010
0100
0010
0100
0010
0100
0010
0100
0010
0100
0010
0100
0010
0100
0010
0100
0010
0100
,
0010
0001
0010
0001
0010
0001
0010
0001
0010
0001
0010
0001
0010
0001
0010
0001
0010
0001
1000
0001
1000
0001
1000
0001
,
1000
0001
1000
0001
1000
0001
1000
0001
1000
0001
1000
0001
1000
0010
1000
0010
1000
0010
1000
0010
1000
0010
1000
0010
,
1000
0010
1000
0010
1000
0010
0100
0010
0100
0010
0100
0010
0100
0010
0100
0010
0100
0010
0100
0010
0100
0010
0100
0010
,
0200
0310
1000
0010
0100
0010
1000
0010
0100
0010
1000
0010
0100
0010
1000
0010
0100
0010
1000
0001
1000
0010
1000
0001
,
1000
0010
1000
0001
1000
0010
1000
0001
2000
3010
2000
3001
2000
3001
0010
0001
1000
0001
0010
0001
1000
0001
0010
0001
,
1000
0001
0010
0001
1000
0001
0010
0100
0010
0001
0010
0100
0010
0001
0010
0100
0010
0001
0010
0100
0010
0001
0020
0130
,
0020
0130
1000
0100
0010
0100
1000
0100
0010
0100
1000
0100
0010
0100
1000
0100
0010
0100
1000
0001
1000
0100
1000
0001
,
1000
0100
1000
0001
1000
0100
1000
0001
2000
3100
2000
3001
2000
3001
0100
0001
1000
0001
0100
0001
1000
0001
0100
0001
,
1000
0001
0100
0001
1000
0001
0100
0010
0100
0001
0100
0010
M100
0001
M100
0010
0100
M001
0100
0010
0100
0001
0100
0010
,
0100
0000
0010
0100
0000
0100
0010
0000
0010
1000
0000
1000
,
0001
1000
0001
1000
0001
1000
0001
1000
0001
1000
0001
1000
0001
1000
0001
1000
0001
1000
0100
1000
0100
1000
0100
1000
,
0100
0000
1000
0001
0000
0001
1000
0000
1000
0010
0000
0010
,
0100
0001
0100
0001
0100
0001
0100
0001
0100
0001
0100
0001
0100
0001
0100
0001
0100
0001
1000
0001
1000
0001
1000
0001
,
2000
0000
0000
3001
0100
0010
0200
0000
0000
0301
1000
0001
,
0010
0100
0010
0001
0100
0001
1000
0010
1000
0001
0010
0001
,
0020
0000
0000
0130
1000
0100
2000
0000
0000
3001
0010
0100
,
1000
0001
1000
0010
0100
0010
1000
0010
1000
0001
0010
0001
,
1000
0001
1000
0001
1000
0001
1000
0001
1000
0001
1000
0001
1000
0001
1000
0001
1000
0001
1000
0001
1000
0001
1000
0001
,
0100
0010
1000
0001
0100
0010
1000
0001
0100
0010
1000
0001
0100
0010
1000
0001
0100
0010
1000
0001
0100
0010
1000
0001
,
0200
0300
0100
0000
0100
0100
0010
1000
0010
0100
0001
0100
,
0020
0030
0010
0000
0010
0010
0000
0010
0100
0001
1000
0001
,
1000
0100
1000
0100
1000
0100
1000
0100
1000
0100
1000
0100
1000
0100
1000
0100
1000
0100
1000
0100
1000
0100
1000
0100
,
0010
0001
1000
0100
0010
0001
1000
0100
0010
0001
1000
0100
0010
0001
1000
0100
0010
0001
1000
0100
0010
0001
1000
0100
,
0010
0100
0010
0100
0001
0100
1000
0010
1000
0010
0001
0010
,
010M
M010
0100
M010
M001
0010
010M
10M0
0100
001M
1000
0010
,
2000
3002
2003
3200
0302
0203
0320
0032
0023
0230
2300
3200
,
0310
0000
0001
0000
0100
0000
0100
0000
0010
0000
1000
0000
1000
0000
0100
0000
0010
0000
0010
0001
0010
0001
0010
0001
,
0010
0000
0000
0000
;

//---------------dance-single - Kyzentun----------------
#NOTES:
     dance-single:
     Kyzentun:
     Challenge:
     13:
     1.000,1.000,0.000,0.503,1.000,743.000,0.000,43.000,100.000,0.000,0.000,1.000,1.000,0.000,0.503,1.000,743.000,0.000,43.000,100.000,0.000,0.000:
0000
0000
0000
0000
,
0001
0100
0001
1000
0100
1000
0010
0000
0020
0000
1030
0001
,
1000
0000
1000
2000
0000
0000
3000
1000
0100
0010
0100
0010
,
0001
0100
0001
1000
0100
1000
0010
0000
0020
0000
1030
0100
,
1000
0000
1000
2000
0000
0000
3000
1000
0010
0100
0010
1000
,
0001
0010
0001
1000
0010
1000
0100
0010
0100
1000
0100
1000
,
0001
0100
0001
0010
0100
0010
0001
1000
0001
0100
0010
0100
,
0001
0010
0001
0100
0010
0100
0010
1000
0010
0100
0001
0100
,
0010
1000
0010
1000
0001
1000
010M
001M
0100
100M
0010
0100
,
0010
1000
0010
1000
0001
1000
0100
0000
0200
0000
1300
0010
,
1000
0000
0000
0000
1000
0000
2000
0000
000M
00M0
0M00
00M0
300M
00M0
010M
00M0
100M
0000
0001
0000
0100
0000
0001
0000
,
0010
0001
0010
0100
1000
0100
1000
0000
2000
0000
3001
0100
,
0001
0000
0000
0000
0001
0000
0002
0000
M000
0M00
00M0
0M00
M003
0M00
M010
0M00
M001
0000
0100
0000
0010
0000
0100
0000
,
0001
0100
0001
0100
0000
0000
0010
0100
0010
0100
0000
0000
0010
1000
0010
1000
0000
0000
0001
1000
0001
1000
0000
0000
,
0001
0010
0001
0010
0000
0000
0100
0010
0100
0010
0000
0000
0100
1000
0100
1000
0000
0000
0001
1000
0001
1000
0000
0000
,
0001
0100
0001
0100
0000
0000
0010
0100
0010
0100
0000
0000
0010
1000
0010
1000
0000
0000
0100
1000
0100
1000
0000
0000
,
0100
0010
0100
0010
0000
0000
0001
0010
0001
0010
0000
0000
M001
0100
M001
0100
0000
0000
M010
0100
0010
0100
0000
0000
,
0020
0030
0010
0000
0010
1000
0001
0010
0001
1000
0010
1000
,
0200
0300
0100
0000
0100
0010
0001
0100
0001
1000
0100
1000
,
0020
0030
0010
0000
0010
0100
0001
0010
0001
1000
0100
1000
,
0020
0030
0010
1000
0001
0100
0010
0100
0001
0010
0100
1000
,
0200
0300
0100
0000
0100
1000
0001
0100
0001
1000
0010
1000
,
0200
0300
0100
0000
0100
0010
0001
0010
0001
1000
0100
1000
,
0020
0030
0010
0000
0010
1000
0001
1000
0001
0010
0100
0010
,
0002
0003
0001
1000
0100
0010
010M
10M0
0001
1M00
0010
0100
,
0010
1000
0010
0100
0001
0100
0010
1000
0010
1000
0001
1000
,
0010
0100
0010
1000
0001
1000
0001
0100
0001
1000
0100
1000
,
00M1
01M0
00M1
1M00
0M10
1M00
0M01
0M10
0M01
1M00
0M10
1M00
,
0100
0010
0100
1000
0010
1000
0001
0100
0001
0010
0100
0010
,
0001
1000
0001
1000
0001
0000
1000
0000
0100
0000
0010
0000
0001
0000
0010
0001
0010
0001
0010
0001
0010
0001
0010
0000
,
0001
0000
1000
0000
0010
0000
0100
0000
0010
1000
0010
1000
0010
1000
0010
1000
0010
0000
1000
0000
0001
0000
0100
0000
,
0010
0000
0100
0001
0100
0001
0100
0001
0100
0001
0100
0000
0001
0000
1000
0000
0010
0000
0100
0000
0010
1000
0010
1000
,
0010
1000
0010
1000
0010
0000
1000
0000
0001
0000
1000
0000
0001
0000
0010
0001
0010
0001
0010
0001
0010
0001
0010
0000
,
0001
0000
0010
0000
0100
0000
1000
0000
0100
0010
0100
0010
0100
0010
0100
0010
0100
0000
1000
0000
0001
0000
0100
0000
,
0001
0000
1000
0010
1000
0010
1000
0010
1000
0010
1000
0000
0010
0000
1000
0000
0001
0000
0010
0000
0001
1000
0001
1000
,
0002
1003
0001
1000
0001
0000
1000
0000
0100
0000
0010
0000
0100
0000
1000
0001
1000
0001
1000
0001
1000
0001
1000
0000
,
0001
0000
0010
0000
0001
0000
0100
0000
0002
0103
0002
0103
0002
0103
0001
0100
0001
0000
0100
0000
0010
0000
1000
0000
,
0100
0000
0010
0100
0010
0100
0010
0100
0010
0100
0010
0000
0100
0000
1000
0000
0100
0000
0010
0000
0001
0010
0002
0013
,
0002
0013
0001
0010
0001
0000
0010
0000
0001
0000
0100
0000
0010
0000
1000
0010
1000
0010
1000
0010
1000
0010
1000
0000
,
0010
0000
1000
0000
0100
0000
1000
0000
0002
0103
0002
0103
0002
0103
0001
0100
0001
0000
0100
0000
0001
0000
0010
0000
,
0100
0000
1000
0001
1000
0001
1000
0001
1000
0001
1000
0000
00M1
0000
01M0
0000
0001
0000
10M0
0000
0100
0010
0100
0010
,
0100
0000
0100
1000
0000
1000
0001
0000
0001
0010
0000
0010
,
M001
0010
M001
0010
0000
0000
0M01
1000
0001
1000
0000
0000
00M1
0100
00M1
0100
0000
0000
0000
0000
000M
0100
0010
0100
,
0010
0000
0010
1000
0000
1000
0001
0000
0001
0100
0000
0100
,
001M
1000
001M
1000
0000
0000
0010
0100
001M
0100
0000
0000
0010
1000
001M
1000
000M
0000
0000
0000
0000
1000
010M
1000
,
0200
0000
0000
0310
0001
0010
0002
0000
0000
1003
0010
0100
,
0010
1000
0010
0100
0001
0100
M001
M010
M001
1000
0010
1000
,
020M
000M
000M
13M0
01M0
100M
0200
0000
0000
1300
010M
001M
,
010M
100M
010M
0010
0001
0010
0001
1000
0001
M100
M010
0100
,
M001
0100
0001
0100
M000
0000
M010
0100
M010
0100
0000
0000
0010
1000
001M
1000
0000
0000
0100
1000
010M
1000
0000
0000
,
010M
0010
0100
0010
000M
0000
M001
0010
M001
0010
0000
0000
0001
0100
M001
0100
0000
0000
0010
0100
001M
0100
0000
0000
,
0020
0030
0010
0000
0010
1000
0001
0010
0100
0010
0001
1000
,
0020
0030
0010
0000
0010
0010
0000
0010
1000
0001
0100
0010
,
1M00
0001
1000
0001
0M00
0000
0M10
0001
0M10
0001
0000
0000
0010
0100
M010
0100
0000
0000
1000
0100
100M
0100
0000
0000
,
100M
0010
1000
0010
000M
0000
010M
0010
M100
0010
0000
0000
0100
0001
M100
0001
0000
0000
0010
0001
0010
0001
0000
0000
,
0010
1000
0010
0001
1000
0001
0100
1000
0100
0010
1000
0010
,
1M00
0M01
1000
01M0
00M1
0100
M010
0M01
0010
M100
0001
0100
,
2000
3200
0320
2030
3020
0230
2300
3002
0203
0320
0032
0023
,
0130
0000
0010
0000
1000
0000
1000
0000
0001
0000
0010
0000
0010
0000
0100
0000
1000
0000
1000
0010
1000
0010
1000
0010
,
1000
0000
0000
0000
;

//---------------dance-single - Kyzentun----------------
#NOTES:
     dance-single:
     Kyzentun:
     Hard:
     11:
     1.000,1.000,0.000,0.503,1.000,639.000,0.000,43.000,97.000,0.000,0.000,1.000,1.000,0.000,0.503,1.000,639.000,0.000,43.000,97.000,0.000,0.000:
0000
0000
0000
0000
,
1000
0010
1000
0001
0010
0001
0100
0000
0200
0000
0310
0001
,
0010
0000
0010
0020
0000
0000
0030
0010
1000
0001
0010
0100
,
1000
0010
1000
0100
0010
0100
0010
0000
0020
0000
0130
0001
,
0100
0000
0100
0200
0000
0000
0300
0100
1000
0001
0100
0010
,
1000
0100
1000
0010
0100
0010
1000
0100
1000
0001
0010
0001
,
1000
0010
1000
0100
0010
0100
1000
0100
1000
0001
0100
0001
,
0010
0100
0010
0100
1000
0100
0010
1000
0010
0001
1000
0001
,
0010
0001
0010
0100
0001
0100
10M0
00M1
1000
01M0
1000
0100
,
0010
0001
0010
0100
1000
0100
0010
0000
0020
0000
0031
1000
,
0001
0000
0000
0000
0001
0000
0002
0000
M000
0M00
00M0
0M00
M003
0M00
M010
0M00
M001
0000
0010
0000
0001
0000
1000
0000
,
0010
0100
0010
1000
0001
1000
0010
0000
0020
0000
1030
0001
,
1000
0000
0000
0000
1000
0000
2000
0000
000M
00M0
0M00
00M0
300M
00M0
010M
00M0
100M
0000
0100
0000
0010
0000
0001
0000
,
1000
0010
0100
0010
0001
0010
1000
0001
0010
1000
0010
0100
,
1000
0100
0001
0100
0010
0100
1000
0001
0100
0010
0100
1000
,
0100
0001
1000
0100
0001
0100
0010
0001
1000
0010
0001
0010
,
0100
0010
1000
0001
0010
0100
0010
1000
0010
0100
1000
0001
,
0200
0300
0100
0000
0100
0010
1000
0010
1000
0001
0010
0001
,
0020
0030
0010
0000
0010
0100
1000
0100
1000
0001
0100
0001
,
0200
0300
0100
0000
0100
0001
0010
0100
0010
0001
1000
0001
,
2000
3000
1000
0010
0100
0010
0001
0010
0100
0010
1000
0010
,
0200
0300
0100
0000
0100
0001
1000
0010
1000
0001
0100
0001
,
0200
0300
0100
0000
0100
0001
1000
0100
1000
0001
0010
0001
,
0020
0030
0010
0000
0010
0001
1000
0010
1000
0100
0001
0100
,
0002
0003
0001
0100
0010
0100
100M
010M
0010
M100
0001
0100
,
1000
0100
1000
0001
0100
0001
0010
0100
0010
0001
0010
0001
,
1000
0010
1000
0100
0010
0100
1000
0001
1000
0010
0001
0010
,
M100
M001
M100
001M
100M
001M
010M
100M
010M
00M1
10M0
00M1
,
0010
0100
0010
0001
0100
0001
1000
0100
1000
0001
0010
0001
,
1000
0100
1000
0001
1000
0100
1000
0001
1000
0010
0100
0010
,
0001
0010
0100
0010
1000
0010
0100
1000
0100
0010
0100
1000
,
0100
0010
0100
0001
1000
0001
0100
0001
1000
0001
0010
0001
,
0010
0100
0010
1000
0010
0100
0010
0001
0010
0100
0001
0100
,
0010
0100
1000
0100
0010
0100
1000
0001
1000
0010
1000
0001
,
1000
0100
1000
0001
0100
0001
1000
0001
0100
0001
1000
0001
,
0020
1030
0010
0001
0010
1000
0010
0001
0010
0100
0001
0100
,
1000
0100
0001
0100
0020
0230
2300
3010
1000
0100
1000
0001
,
1000
0010
1000
0001
0010
0001
0100
0001
0010
0001
1000
0002
,
0203
1300
0100
0001
0100
0010
0100
1000
0100
0010
0001
0010
,
1000
0010
0001
0010
0200
0320
2030
3100
1000
0010
1000
0001
,
1000
0100
1000
0001
0100
0001
M010
0M01
1000
0M01
0010
0001
,
0100
0000
0100
0010
0000
0010
1000
0000
1000
0001
0000
0001
,
0M10
100M
0010
M001
0010
0100
001M
100M
0010
0000
M010
0001
,
0010
0000
0010
0001
0000
0001
1000
0000
1000
0010
0000
0010
,
010M
100M
0100
0001
M100
0010
0100
100M
010M
0000
0100
M001
,
0200
0000
0000
0301
1000
0001
2000
0000
0000
3010
0100
0010
,
1000
0100
1000
0001
0100
0001
M010
M100
M010
0001
1000
0001
,
2M00
0M00
0M00
301M
010M
001M
0200
0000
0000
0310
100M
001M
,
010M
10M0
01M0
0001
1000
0001
0010
0100
0010
010M
100M
0100
,
M010
0001
0M10
100M
0M10
0001
0010
010M
0010
1000
001M
0100
,
M010
0001
0M10
1M00
0M10
0001
0010
M100
0010
0001
M010
0100
,
0020
0030
0010
0000
0010
0001
1000
0010
1000
0001
0010
0001
,
0020
0030
0010
0000
0010
0010
0000
0010
0001
1000
0001
0010
,
010M
1000
01M0
M001
01M0
1000
0100
M010
0100
0001
M100
0010
,
010M
1000
01M0
00M1
01M0
1000
0100
001M
0100
1000
0100
0010
,
0001
1000
0001
1000
0001
1000
0010
0100
0010
0100
0010
0100
,
100M
01M0
1000
010M
10M0
0100
M001
0M10
0001
M010
0001
0010
,
0002
0023
2030
3002
0203
2300
3002
0203
2300
3002
0023
2030
,
3001
0000
0100
0000
0010
0000
0010
0000
0100
0000
1000
0000
1000
0000
0100
0000
0010
0000
1000
0010
1000
0010
1000
0010
,
1000
0000
0000
0000
;

//---------------dance-single - Correct gall----------------
#NOTES:
     dance-single:
     Correct gall:
     Edit:
     10:
     0.655,1.000,0.000,0.140,1.000,380.000,0.000,12.000,0.000,0.000,51.000,0.655,1.000,0.000,0.140,1.000,380.000,0.000,12.000,0.000,0.000,51.000:
0000
0000
0000
0000
,
0000
1000
0010
0000
0010
0100
0000
0100
0010
0000
0010
1000
,
0000
1000
0001
0000
0001
0010
0000
0010
0100
0000
0100
0010
,
0000
0010
0001
0000
0001
0100
0000
0100
0010
0000
0010
1000
,
0000
1000
0100
0000
0100
0001
0000
0001
0100
0000
0100
0010
,
0000
0010
0001
0000
0001
0100
0000
0100
0010
0000
0010
0001
,
0000
0001
0010
0000
0010
1000
0000
1000
0001
0000
0001
0010
,
0000
0010
0001
0000
0001
0100
0000
0100
0010
0000
0010
0100
,
0000
0100
0001
0100
0001
0100
0001
0100
0000
0010
1000
0010
,
0000
0010
1000
0000
1000
0001
0000
0001
0100
0000
0100
0001
,
0000
0001
1000
0000
1000
0100
0000
0100
1000
0000
1000
0001
,
0000
0001
0010
0000
0010
0001
0000
0001
1000
0000
1000
0010
,
0000
0010
1000
0000
1000
0001
0000
0001
0100
0000
0100
0010
,
0400
4300
3400
0340
,
0034
0043
4030
3400
,
0340
4030
3040
0430
,
4300
0004
0000
0000
0000
0000
0000
0000
0000
0000
0000
0000
,
3003
0001
1000
0000
1000
0010
0000
0010
0100
0000
0100
0010
,
0000
0010
0001
0000
0001
0010
0000
0010
1000
0000
1000
0100
,
0000
0100
0010
0000
0010
0100
0000
0100
0001
0000
0001
0100
,
0000
0100
1000
0000
1000
0001
0000
0001
0010
0000
0010
0100
,
0000
0100
0010
0000
0010
1000
0000
1000
0010
0000
0010
0001
,
0000
0001
0100
0000
0100
0010
0000
0010
0100
0000
0100
1000
,
0000
1000
0100
0000
0100
0001
0000
0001
1000
0000
1000
0010
,
0000
0010
0100
0000
0100
1000
0000
1000
0100
0000
0100
0010
,
0000
0010
1000
0000
1000
0001
0000
0001
1000
0000
1000
0010
,
0000
0010
0100
0000
0100
0010
0000
0010
1000
0000
1000
0001
,
0000
0001
0010
0000
0010
1000
0000
1000
0010
0000
0010
0100
,
0000
0100
0001
0000
0001
0100
0000
0100
1000
0000
1000
0001
,
0400
0004
0000
0000
0000
0000
0000
0000
0300
4003
0400
0000
,
0000
0000
0000
0000
0000
3000
0340
0004
0000
0000
0000
0000
,
0000
0000
0030
4003
0040
0000
0000
0000
0000
0000
0000
3000
,
0430
0004
0000
0000
0000
0000
0000
0000
0300
0043
0400
0000
,
0000
0000
0000
0000
0000
0030
4300
0004
0000
0000
0000
0000
,
0000
0000
3000
0403
0040
0000
0000
0000
0000
0000
0000
0300
,
4030
0400
0000
0000
0000
0000
0000
0000
3000
0340
4000
0000
,
0000
0000
0000
0000
0000
0000
3000
0004
0000
0000
0000
0000
,
0000
0000
0030
0403
0040
0000
0000
0000
0000
0000
0000
0000
,
0030
4000
0000
0000
0000
0000
0000
0000
0000
3000
0004
0000
,
0000
0000
0000
0000
0000
0300
4003
0400
0000
0000
0000
0000
,
0000
0000
3000
0340
0004
0000
0000
0000
0000
0000
0000
0030
,
1003
0000
0010
0100
0000
0010
0001
0000
0010
0100
0000
0010
,
4000
3004
0043
0430
,
0310
0000
0100
1000
0000
0100
0010
0000
0100
0001
0000
0100
,
4000
3004
0403
0340
,
0030
1000
0010
0000
1000
0100
0000
0010
0001
0000
1000
0010
,
0000
0100
0010
0100
0010
0100
0010
0100
0010
0100
0010
0100
,
0000
0001
0010
0000
0001
1000
0000
0010
1000
0000
0001
0010
,
0000
0100
1000
0001
1000
0001
1000
0001
1000
0001
1000
0001
,
1000
0000
0001
0001
0001
0000
0000
1000
0000
0000
1000
0000
,
1000
0000
0001
0001
0001
0000
0000
0100
0000
0000
0100
0000
,
0000
0100
1000
0000
0100
0001
0000
1000
0010
0000
1000
0100
,
0000
0010
0100
0000
1000
0001
0000
0100
0010
0000
1000
0010
,
1000
0000
1000
1000
1000
0000
0000
0001
0000
0000
1000
0000
,
0001
0000
1000
1000
1000
0000
0000
0001
0000
1000
0000
0000
,
0000
0010
1000
0000
0010
0001
0000
1000
0100
0000
0001
0010
,
0000
0100
0001
0000
0100
0010
0000
0001
1000
0000
0010
1000
,
0002
0203
0302
2003
3200
2300
3002
0023
0032
2003
3020
2030
,
3001
0100
0001
0100
0001
0100
0001
0100
0001
0100
0001
0100
,
0001
0000
0000
0000
;

//---------------dance-single - Oblig Hands----------------
#NOTES:
     dance-single:
     Oblig Hands:
     Edit:
     6:
     0.479,0.552,0.000,1.000,0.000,180.000,0.000,107.000,0.000,32.000,0.000,0.479,0.552,0.000,1.000,0.000,180.000,0.000,107.000,0.000,32.000,0.000:
0000
0000
0000
0000
,
1000
0010
1000
0001
,
0010
0002
0000
0000
,
1003
0100
1000
0001
,
0100
0002
0000
0000
,
0023
0032
2003
3020
,
0032
0023
0230
0302
,
0023
0230
0302
0203
,
0320
0032
0203
0320
,
0130
0010
0100
0001
,
1000
0002
0000
0000
,
0013
0100
0010
0001
,
1000
0002
0000
0000
,
0203
0302
0203
0320
,
0032
0023
0230
2300
,
3200
0302
0023
0230
,
0302
0203
2300
3020
,
0230
0000
0310
0100
,
0002
0000
1003
0010
,
2000
0000
3001
0010
,
0001
1000
0100
1000
,
0020
0000
0130
0001
,
0200
0000
0310
1000
,
0020
0000
1030
0100
,
1000
0010
0001
0010
,
0200
0320
2030
3020
,
0230
0302
0023
0230
,
2300
3020
2030
3020
,
2030
3200
0302
0203
,
0320
0000
0000
0200
,
0000
0000
2000
0000
,
0300
0002
0000
0030
,
0200
0000
0003
0002
,
0000
3000
0020
0000
,
0003
2000
0000
0030
,
0002
0000
3000
0020
,
0000
0300
2000
0000
,
0030
0200
0000
0003
,
0020
0000
3000
0002
,
0000
0030
2000
0000
,
0003
0020
0000
0000
,
3330
0100
1000
0100
,
2000
0200
0020
0002
,
3333
1000
0010
0100
,
0002
0200
0020
2000
,
3333
0001
0010
0100
,
0010
0001
1000
0010
,
0200
0000
0301
0100
,
0010
0001
0010
0100
,
0002
0200
0020
2003
,
0302
0230
3020
2000
,
3333
0001
0100
1000
,
0100
0010
1000
0001
,
2000
0002
0020
3200
,
2003
0032
0320
0200
,
3333
0001
0010
1000
,
0010
0100
0001
0100
,
2000
3020
0230
0302
,
0023
0200
0002
2000
,
3333
0000
0000
0000
;

//---------------dance-single - Kyzentun----------------
#NOTES:
     dance-single:
     Kyzentun:
     Medium:
     8:
     0.701,1.000,0.000,0.503,1.000,377.000,0.000,43.000,80.000,0.000,72.000,0.701,1.000,0.000,0.503,1.000,377.000,0.000,43.000,80.000,0.000,72.000:
0000
0000
0000
0000
0000
0000
0000
0000
0000
0000
0000
1000
,
0010
0000
0010
0100
0000
0100
0001
0000
0002
0000
1003
0010
,
1000
0000
1000
0002
0000
0000
0003
0000
0010
0100
0000
0100
,
1000
0000
1000
0001
0000
0001
0100
0000
0200
0000
0310
0100
,
0010
0000
0010
2000
0000
0000
3000
0000
0001
0010
0000
0010
,
0100
0000
0100
1000
0000
1000
0001
0000
0001
0010
0000
0010
,
0001
0000
0001
1000
0000
1000
0010
0000
0010
0100
0000
0100
,
0010
0000
0010
0001
0000
0001
0010
0000
0010
0100
0000
0100
,
1000
0000
1000
0100
0000
0100
M001
M000
0001
M010
0000
0010
,
0100
0000
0100
1000
0000
1000
0001
0000
0002
0000
1003
0010
,
1000
0000
0000
0000
1000
0000
0002
0000
M000
0M00
00M0
0M00
M003
0M00
00M0
0M00
M010
0000
0001
0000
0000
0000
0001
0000
,
1000
0000
1000
0010
0000
0010
0100
0000
0200
0000
0310
1000
,
0010
0000
0000
0000
0010
0000
2000
0000
000M
00M0
0M00
00M0
300M
00M0
0M00
00M0
100M
0000
0100
0000
0000
0000
0100
0000
,
4000
3004
4003
3400
,
0304
0403
0340
0034
,
0403
0340
0430
4300
,
3400
0304
4003
3040
,
2030
3000
1000
0000
0000
1000
0010
0000
1000
0001
0000
1000
,
0200
0300
0100
0000
0000
0100
1000
0000
0100
0001
0000
0100
,
0020
0030
0010
0000
0000
0010
1000
0000
0010
0100
0000
0010
,
0002
0003
0001
1000
0001
1000
0001
1000
0001
1000
0001
1000
,
0002
0003
0001
0000
0000
0001
0010
0000
0001
1000
0000
0001
,
0200
0300
0100
0000
0000
0100
0001
0000
0100
1000
0000
0100
,
0020
0030
0010
0000
0000
0010
0001
0000
0010
0100
0000
0010
,
2000
3000
1000
0001
1000
0001
10M0
0M01
1000
00M1
1000
0001
,
1000
0000
1000
0100
0000
0100
0010
0000
0010
0100
0000
0100
,
1000
0000
1000
0010
0000
0010
0100
0000
0100
0001
0000
0001
,
1000
0010
1000
0001
0010
0001
1000
0100
1000
0001
0100
0001
,
1000
0000
1000
0010
0000
0010
0100
0000
0100
0010
0000
0010
,
0400
0304
4003
3400
,
0340
0430
0304
0403
,
4300
3040
0034
0043
,
0430
4300
3400
0340
,
4030
3004
0043
0430
,
0304
0403
4300
3400
,
2300
3004
0403
4300
,
3400
0000
0000
0340
2030
3020
2030
0000
0000
3004
0000
0000
,
0403
0000
0000
0304
0000
0000
4003
0000
0000
3400
0300
0200
,
2300
3004
0043
0034
,
4003
0000
0000
3400
0320
0230
0320
0000
0000
0034
0000
0000
,
4003
0000
0000
3040
0000
0000
M430
000M
0000
M340
0000
0000
,
1030
0000
1000
0010
0000
0010
0100
0000
0100
0001
0000
0001
,
M040
0M00
0000
M430
0000
0000
034M
M000
0000
0000
000M
0000
,
0130
0000
0100
1000
0000
1000
0010
0000
0010
1000
0000
1000
,
040M
00M0
0000
4300
000M
0000
3040
000M
0M00
0000
0000
000M
,
2030
0000
0000
3010
0100
0010
0200
0000
0000
0301
0000
0001
,
1000
0000
1000
0010
0000
0010
M001
0M00
M001
0010
0000
0010
,
M200
000M
M000
03M1
M100
00M1
0200
0000
0000
0301
1000
0001
,
0010
0100
0010
0001
0000
0001
0010
0000
0010
M100
000M
0100
,
40M0
0004
00M0
0M00
00M0
0000
0000
0M00
0000
0000
00M0
0000
,
0M00
0000
00M0
0M00
00M0
0000
0000
0M00
0000
0000
0M00
3000
,
0203
0300
0100
0000
0000
0100
0010
0000
0100
1000
0000
0100
,
0002
0003
0001
0000
0001
0001
0000
0000
0001
1000
0000
0001
,
M040
0400
000M
M000
000M
0000
0000
M000
0000
0000
000M
0000
,
M000
0000
000M
M000
000M
0000
0000
M000
0000
0000
0000
0030
,
1300
0100
1000
0100
1000
0100
0010
0001
0010
0001
0010
0001
,
1M00
001M
1000
0M10
100M
0010
M100
00M1
0100
M001
0100
0001
,
0200
2300
3200
2300
3200
2300
3200
0320
0230
0320
0230
0320
,
1030
0000
0100
0000
1000
0000
0010
0000
0001
0000
0010
0000
0100
0000
1000
0000
0100
0000
0004
0400
0000
0000
0000
0000
,
0303
0000
0000
0000
;

//---------------dance-single - crossovers----------------
#NOTES:
     dance-single:
     crossovers:
     Edit:
     13:
     1.000,1.000,0.000,0.503,1.000,743.000,0.000,43.000,100.000,0.000,0.000,1.000,1.000,0.000,0.503,1.000,743.000,0.000,43.000,100.000,0.000,0.000: // measure 1
0000
0000
0000
0000
,  // measure 2
0001
0100
0001
1000
0100
1000
0010
0000
0020
0000
1030
0001
,  // measure 3
1000
0000
1000
2000
0000
0000
3000
1000
0100
0010
0100
0010
,  // measure 4
0001
1000
0001
0100
1000
0100
0010
0000
0020
0000
1030
0001
,  // measure 5
1000
0000
1000
2000
0000
0000
3000
1000
0010
0100
0010
1000
,  // measure 6
0001
0010
0001
1000
0010
1000
0100
0010
0100
1000
0001
1000
,  // measure 7
0010
0001
0010
0100
0001
0100
0010
1000
0010
0100
1000
0100
,  // measure 8
0001
1000
0001
0010
0100
0010
0001
0100
0001
1000
0100
1000
,  // measure 9
0001
0010
0001
1000
0010
1000
010M
001M
0100
100M
0010
0100
,  // measure 10
0010
1000
0010
1000
0001
1000
0100
0000
0200
0000
1300
0010
,  // measure 11
1000
0000
0000
0000
1000
0000
2000
0000
00M0
000M
00M0
000M
30M0
000M
01M0
000M
10M0
0000
0001
0000
0100
0000
0001
0000
,  // measure 12
0010
0001
0010
0100
0001
0100
1000
0000
2000
0000
3001
0100
,  // measure 13
0001
0000
0000
0000
0001
0000
0002
0000
M000
0M00
M000
0M00
M003
0M00
M010
0M00
M001
0000
0100
0000
0010
0000
0100
0000
,  // measure 14
0001
0100
0001
0100
0000
0000
0010
0100
0010
0100
0000
0000
0010
1000
0010
1000
0000
0000
0001
1000
0001
1000
0000
0000
,  // measure 15
0001
0010
0001
0010
0000
0000
0100
0010
0100
0010
0000
0000
0100
1000
0100
1000
0000
0000
0001
1000
0001
1000
0000
0000
,  // measure 16
0001
0100
0001
0100
0000
0000
0010
0100
0010
0100
0000
0000
0010
1000
0010
1000
0000
0000
0100
1000
0100
1000
0000
0000
,  // measure 17
0100
0010
0100
0010
0000
0000
0001
0010
0001
0010
0000
0000
M001
0100
M001
0100
0000
0000
M010
0100
0010
0100
0000
0000
,  // measure 18
0020
0030
0010
0000
0010
1000
0001
0010
0001
1000
0010
1000
,  // measure 19
0200
0300
0100
0000
0100
0010
0001
0100
0001
1000
0100
1000
,  // measure 20
0020
0030
0010
0000
0010
0100
0001
0010
0001
1000
0100
1000
,  // measure 21
0020
0030
0010
1000
0001
0100
1000
0100
0001
0010
0100
1000
,  // measure 22
0200
0300
0100
0000
0100
1000
0001
0100
0001
1000
0010
1000
,  // measure 23
0200
0300
0100
0000
0100
0010
0001
0010
0001
1000
0100
1000
,  // measure 24
0020
0030
0010
0000
0010
1000
0001
1000
0001
0010
0100
0010
,  // measure 25
0002
0003
0001
1000
0100
0001
01M0
10M0
0001
1M00
0010
0001
,  // measure 26
0010
1000
0010
0100
1000
0100
0001
1000
0001
0100
0010
0100
,  // measure 27
0001
0010
0001
1000
0010
1000
0001
0100
0001
1000
0100
1000
,  // measure 28
001M
M100
001M
1M00
00M1
10M0
01M0
00M1
M100
M010
0M01
M010
,  // measure 29
0100
1000
0100
0010
1000
0010
0001
1000
0001
0100
0010
0100
,  // measure 30
0001
1000
0001
1000
0001
0000
1000
0000
0100
0000
0010
0000
0001
0000
0010
0001
0010
0001
0010
0001
0010
0001
0010
0000
,  // measure 31
0001
0000
1000
0000
0010
0000
0100
0000
0010
1000
0010
1000
0010
1000
0010
1000
0010
0000
1000
0000
0001
0000
0100
0000
,  // measure 32
0010
0000
0100
0001
0100
0001
0100
0001
0100
0001
0100
0000
0001
0000
1000
0000
0010
0000
0100
0000
0010
1000
0010
1000
,  // measure 33
0010
1000
0010
1000
0010
0000
1000
0000
0001
0000
1000
0000
0001
0000
0010
0001
0010
0001
0010
0001
0010
0001
0010
0000
,  // measure 34
0001
0000
0010
0000
0100
0000
1000
0000
0100
0010
0100
0010
0100
0010
0100
0010
0100
0000
1000
0000
0001
0000
0100
0000
,  // measure 35
0001
0000
1000
0010
1000
0010
1000
0010
1000
0010
1000
0000
0010
0000
1000
0000
0001
0000
0010
0000
0001
1000
0001
1000
,  // measure 36
0002
1003
0001
1000
0001
0000
1000
0000
0100
0000
0010
0000
0100
0000
1000
0001
1000
0001
1000
0001
1000
0001
1000
0000
,  // measure 37
0001
0000
0010
0000
0001
0000
0100
0000
0002
0103
0002
0103
0002
0103
0001
0100
0001
0000
0100
0000
0010
0000
1000
0000
,  // measure 38
0100
0000
0010
0100
0010
0100
0010
0100
0010
0100
0010
0000
0100
0000
1000
0000
0100
0000
0010
0000
0001
0010
0002
0013
,  // measure 39
0002
0013
0001
0010
0001
0000
0010
0000
0001
0000
0100
0000
0010
0000
1000
0010
1000
0010
1000
0010
1000
0010
1000
0000
,  // measure 40
0010
0000
1000
0000
0100
0000
1000
0000
0002
0103
0002
0103
0002
0103
0001
0100
0001
0000
0100
0000
0001
0000
0010
0000
,  // measure 41
0100
0000
1000
0001
1000
0001
1000
0001
1000
0001
1000
0000
00M1
0000
01M0
0000
0001
0000
10M0
0000
0100
0010
0100
0010
,  // measure 42
0100
0000
0100
1000
0000
1000
0001
0000
0001
0010
0000
0010
,  // measure 43
M001
0010
M001
0010
0000
0000
0M01
1000
0001
1000
0000
0000
00M1
0100
00M1
0100
0000
0000
0000
0000
000M
0100
0010
0100
,  // measure 44
0010
0000
0010
1000
0000
1000
0001
0000
0001
0100
0000
0100
,  // measure 45
001M
1000
001M
1000
0000
0000
0010
0100
001M
0100
0000
0000
0010
1000
001M
1000
000M
0000
0000
0000
0000
1000
010M
1000
,  // measure 46
0200
0000
0000
0310
0001
0010
0002
0000
0000
1003
0010
0100
,  // measure 47
0010
0001
0010
0100
0001
0100
M010
M001
M010
1000
0100
1000
,  // measure 48
020M
000M
000M
13M0
01M0
100M
0200
0000
0000
1300
010M
001M
,  // measure 49
010M
100M
010M
0010
1000
0010
0100
1000
0100
M010
M001
0010
,  // measure 50
M001
0100
0001
0100
M000
0000
M010
0100
M010
0100
0000
0000
0010
1000
001M
1000
0000
0000
0100
1000
010M
1000
0000
0000
,  // measure 51
010M
0010
0100
0010
000M
0000
M001
0010
M001
0010
0000
0000
0001
0100
M001
0100
0000
0000
0010
0100
001M
0100
0000
0000
,  // measure 52
0020
0030
0010
0000
0010
1000
0100
0010
1000
0010
0100
1000
,  // measure 53
0002
0003
0001
0000
0001
0001
0000
0001
0100
1000
0100
0001
,  // measure 54
1M00
0001
1000
0001
0M00
0000
0M10
0001
0M10
0001
0000
0000
0010
0100
M010
0100
0000
0000
1000
0100
100M
0100
0000
0000
,  // measure 55
100M
0010
1000
0010
000M
0000
010M
0010
M100
0010
0000
0000
0100
0001
M100
0001
0000
0000
0010
0001
0010
0001
0000
0000
,  // measure 56
0010
1000
0010
0001
1000
0001
0100
1000
0100
0010
1000
0010
,  // measure 57
1M00
0M01
1000
01M0
00M1
0100
M010
0M01
0010
M100
0001
0100
,  // measure 58
2000
3200
0320
2030
3020
0230
2300
3002
0203
0320
0032
0023
,  // measure 59
0130
0000
0010
0000
1000
0000
1000
0000
0001
0000
0010
0000
0010
0000
0100
0000
1000
0000
1000
0010
1000
0010
1000
0010
,  // measure 60
1000
0000
0000
0000
;
