#TITLE:clowns;
#SUBTITLE:;
#ARTIST:Unknown artist;
#TITLETRANSLIT:;
#SUBTITLETRANSLIT:;
#ARTISTTRANSLIT:;
#GENRE:;
#CREDIT:;
#BANNER:;
#BACKGROUND:;
#LYRICSPATH:;
#CDTITLE:;
#MUSIC:06 Clowns.mp3;
#OFFSET:0.070;
#SAMPLESTART:100.012;
#SAMPLELENGTH:12.000;
#SELECTABLE:YES;
#BPMS:0.000=133.008;
#STOPS:;
#TIMESIGNATURES:0.000=4=4
;
#BGCHANGES:;
#KEYSOUNDS:;

//---------------dance-double - Blank----------------
#NOTES:
     dance-double:
     Blank:
     Challenge:
     1:
     0.548,0.428,0.000,0.151,0.000,709.000,0.000,29.000,0.000,0.000,0.000,0.548,0.428,0.000,0.151,0.000,709.000,0.000,29.000,0.000,0.000,0.000: // measure 8
00000000
00000000
00010000
00000010
00001000
00000010
00000001
00000100
,  // measure 2
00001000
00000020
00000000
00000000
00000000
00000000
00000230
00000000
,  // measure 3
00000000
00000320
00001000
00000000
00000000
00000000
00000000
00000000
,  // measure 4
00000030
00000000
00000000
00000000
,  // measure 5
00000000
00000000
00010000
00000010
00000100
00000010
00000001
00000010
,  // measure 6
00001000
00000200
00000000
00000000
00000000
00000000
00002300
00000000
,  // measure 7
00000000
00003020
00000000
00000000
00000000
00000000
00000031
00000010
,  // measure 8
00000001
00000200
00000000
00000000
00000000
00000000
00000000
00000000
,  // measure 9
00000000
00000000
00001300
00010000
01000000
00001000
01000000
00010000
,  // measure 10
00100000
10000000
01000000
00010000
10000000
00100000
10000000
00100000
,  // measure 11
01000000
10000000
01000000
10000000
01000000
10000000
00100000
01000000
,  // measure 12
00001000
01000000
00100000
01000000
00001000
00100000
01000000
00100000
,  // measure 13
01000000
00100000
00001000
00010000
00001000
00100000
00010000
00001000
,  // measure 14
00100000
00010000
00001000
00010000
00000010
00000100
00010000
00000010
,  // measure 15
00010000
00001000
00000100
00001000
00000010
00000100
00000010
00001000
,  // measure 16
00000001
00001000
00000100
00010000
00000100
00010000
00001000
00000010
,  // measure 17
00010000
00001000
00000010
00000100
00010000
00000100
00010000
00000100
,  // measure 18
00000001
00000100
00010000
00001000
00000010
00000001
00000100
00001000
,  // measure 19
00010000
01000000
00001000
00100000
00001000
00010000
00001000
00000100
,  // measure 20
00001000
00000001
00000010
00000001
00000010
00000001
00000100
00000001
,  // measure 21
00000010
00000001
00000010
00000100
00001000
00010000
00000010
00000100
,  // measure 22
00010000
00000100
00000010
00010000
00001000
00100000
00001000
00010000
,  // measure 23
01000000
10000000
00010000
00100000
01000000
00010000
00001000
01000000
,  // measure 24
00010000
01000000
00001000
01000000
00001000
00100000
01000000
00001000
,  // measure 25
00010000
02000000
00000000
00000000
00000000
00000000
03100000
10000000
,  // measure 26
00010000
00200000
00000000
00000000
00000000
00000000
00320000
00000000
,  // measure 27
00000000
02030000
00000000
00000000
00000000
00000000
03001000
01000000
,  // measure 28
00010000
00002000
00000000
00000000
00003000
00000000
00000100
00000001
,  // measure 29
00000100
00001000
00100000
00001000
01000000
00010000
10000000
00010000
,  // measure 30
01000000
00200000
00000000
00000000
00000000
00000000
02300000
00000000
,  // measure 31
00000000
23000000
00000000
00000000
00000000
00000000
31000000
00100000
,  // measure 32
00010000
10000000
00100000
00010000
00100000
10000000
00100000
00010000
,  // measure 33
01000000
00010000
00100000
00001000
00010000
01000000
00100000
00001000
,  // measure 34
00000100
00000010
00000001
00000100
00001000
00100000
01000000
00010000
,  // measure 35
00001000
01000000
00010000
00001000
00010000
00100000
10000000
00100000
,  // measure 36
01000000
10000000
00010000
10000000
00100000
00010000
01000000
10000000
,  // measure 37
00100000
01000000
00001000
00010000
01000000
10000000
01000000
10000000
,  // measure 38
00100000
01000000
10000000
00100000
00010000
00000100
00100000
00010000
,  // measure 39
00001000
00000010
00001000
00000010
00001000
00000100
00001000
00000010
,  // measure 40
00000100
00000020
00000000
00000000
00000000
00000000
00000230
00000000
,  // measure 41
00000000
00002300
00013000
00000100
00010000
00001000
00000010
00010000
,  // measure 42
00000100
00000001
00001000
00000100
00000010
00000100
00000001
00000100
,  // measure 43
00001000
00000010
00000001
00000010
00001000
00010000
00001000
01000000
,  // measure 44
00001000
00100000
10000000
00100000
00001000
00100000
00001000
01000000
,  // measure 45
00001000
01000000
00001000
00100000
00010000
00001000
00100000
01000000
,  // measure 46
00001000
00010000
00000010
00010000
00001000
01000000
00100000
10000000
,  // measure 47
00100000
10000000
01000000
10000000
00100000
10000000
01000000
00010000
,  // measure 48
10000000
00100000
10000000
00100000
01000000
10000000
00010000
00100000
,  // measure 49
00010000
00100000
00001000
00100000
00010000
10000000
00010000
10000000
,  // measure 50
00100000
00010000
10000000
01000000
00010000
01000000
10000000
01000000
,  // measure 51
10000000
00010000
00100000
01000000
10000000
01000000
10000000
00100000
,  // measure 52
01000000
00001000
00010000
01000000
00010000
01000000
10000000
00100000
,  // measure 53
10000000
00010000
01000000
00010000
00100000
00000100
00010000
00100000
,  // measure 54
01000000
00100000
01000000
00100000
10000000
01000000
00100000
00010000
,  // measure 55
00100000
00001000
00100000
01000000
00001000
01000000
00100000
01000000
,  // measure 56
00001000
00010000
00000100
00010000
00100000
00000100
00100000
00010000
,  // measure 57
10000000
01000000
10000000
00010000
00100000
01000000
00001000
00100000
,  // measure 58
00001000
01000000
00010000
01000000
00010000
00100000
00010000
00001000
,  // measure 59
00000100
00000001
00000010
00000001
00000100
00000001
00000010
00000001
,  // measure 60
00000100
00000001
00000100
00000001
00001000
00000010
00000001
00000100
,  // measure 61
00000010
00001000
00010000
00000010
00000100
00000001
00000010
00001000
,  // measure 62
00000100
00010000
00001000
00100000
00010000
00001000
00000010
00000100
,  // measure 63
00001000
00010000
00100000
00001000
00100000
00001000
00010000
00000100
,  // measure 64
00100000
00010000
10000000
00010000
01000000
00001000
00100000
00001000
,  // measure 65
00000100
00001000
00100000
01000000
10000000
00100000
00010000
00000100
,  // measure 66
00001000
00000100
00001000
00100000
01000000
10000000
00010000
10000000
,  // measure 67
00100000
10000000
01000000
10000000
01000000
10000000
00100000
01000000
,  // measure 68
00100000
01000000
10000000
01000000
00010000
01000000
10000000
01000000
,  // measure 69
10000000
00100000
10000000
00100000
00010000
00000100
00001000
00000010
,  // measure 70
00000100
00000001
00001000
00000010
00000001
00000010
00001000
00010000
,  // measure 71
00000100
00010000
00000010
00010000
00000010
00000100
00000001
00000100
,  // measure 72
00000001
00000010
00000001
00000100
00001000
00010000
00100000
01000000
,  // measure 73
00100000
20000000
00000000
00000000
00000000
00000000
31000000
10000000
,  // measure 74
00100000
20000000
00000000
00000000
00000000
00000000
32000000
00000000
,  // measure 75
00000000
03020000
00000000
00000000
00000000
00000000
00031000
00010000
,  // measure 76
01000000
00020000
00000000
00000000
00000000
00000000
00032000
00000000
,  // measure 77
00000000
01003000
00010000
10000000
00100000
00010000
00001000
00100000
,  // measure 78
00000100
00002000
00000000
00003000
00000000
00000000
00010000
00000010
,  // measure 79
00001000
00000010
00010000
00000100
00100000
00001000
01000000
00010000
,  // measure 80
00001000
00020000
00000000
00030000
00000000
00000000
00000100
00010000
,  // measure 81
00000010
00001000
00000001
00001000
00000001
00000100
00001000
00100000
,  // measure 82
00000100
00010000
00000100
00000010
00010000
00001000
01000000
00100000
,  // measure 83
10000000
00010000
00100000
10000000
01000000
00100000
00001000
00000100
,  // measure 84
00001000
00000010
00000001
00000100
00000010
00001000
00010000
00001000
,  // measure 85
01000000
00100000
00010000
00001000
00100000
01000000
00100000
00010000
,  // measure 86
00001000
00010000
00100000
10000000
00100000
00010000
00001000
00000010
,  // measure 87
00010000
00001000
00000100
00000001
00000100
00000001
00000100
00001000
,  // measure 88
00000001
00000010
00000001
00000100
00000001
00000010
00001000
00000001
,  // measure 89
00000100
00000001
00000100
00001000
00000001
00000010
00001000
00000010
,  // measure 90
00010000
00000100
00000010
00010000
00001000
00010000
00100000
01000000
,  // measure 91
00010000
01000000
10000000
01000000
00100000
01000000
00100000
00010000
,  // measure 92
10000000
00100000
00010000
10000000
00010000
00001000
01000000
00001000
,  // measure 93
01000000
00010000
00100000
00001000
00100000
00010000
00000010
00001000
,  // measure 94
00000100
00010000
00000010
00000100
00010000
00000100
00000010
00010000
,  // measure 95
00000010
00010000
00000010
00001000
00010000
01000000
00010000
00100000
,  // measure 96
00010000
00100000
10000000
01000000
00010000
00001000
00000010
00001000
,  // measure 97
00000100
00000010
00001000
00000001
00000010
00001000
00010000
00100000
,  // measure 98
01000000
00100000
00001000
00010000
00000100
00000010
00000001
00000100
,  // measure 99
00000010
00010000
00001000
00000010
00010000
00001000
00100000
01000000
,  // measure 100
00010000
00001000
01000000
00010000
10000000
00010000
00100000
10000000
,  // measure 101
00100000
00010000
10000000
00010000
01000000
00001000
01000000
00010000
,  // measure 102
00100000
00020000
00000000
00000000
00000000
00000000
20030000
00000000
,  // measure 103
00000000
30020000
00000000
00000000
00000000
00000000
00000000
00000000
,  // measure 104
00030000
00000000
00000000
00000000
;
