#TITLE:Chloe;
#SUBTITLE:;
#ARTIST:SeleP feat. Lily;
#TITLETRANSLIT:;
#SUBTITLETRANSLIT:;
#ARTISTTRANSLIT:;
#GENRE:;
#CREDIT:;
#BANNER:;
#BACKGROUND:;
#LYRICSPATH:;
#CDTITLE:;
#MUSIC:chloe.ogg;
#OFFSET:-0.028;
#SAMPLESTART:48.028;
#SAMPLELENGTH:12.000;
#SELECTABLE:YES;
#BPMS:0.000=125.000
;
#STOPS:
;
#BGCHANGES:;
#KEYSOUNDS:;
#ATTACKS:;

//---------------dance-double - Kyzentun----------------
#NOTES:
     dance-double:
     Kyzentun:
     Challenge:
     11:
     0.732,0.812,0.000,0.264,0.985,644.000,0.000,35.000,40.000,0.000,2.000,0.732,0.812,0.000,0.264,0.985,644.000,0.000,35.000,40.000,0.000,2.000:
00000000
00000000
00000000
00000000
,
00000000
00000000
00000000
00000000
,
00000000
00000000
00000000
00000000
,
00000000
00000000
00000000
00000000
,
00001000
00000000
00000000
00000000
00010000
00000000
00000000
00000100
00000000
00000100
00000000
00000000
00000010
00000000
00000000
00000010
,
00000000
00000000
00000000
00000000
00000001
00000000
00000000
00000100
00000000
00000100
00000000
00000000
00001000
00000000
01000000
00001000
,
01000000
00000000
00010000
00000000
00010000
00000000
00000000
00100000
00000000
00100000
00000000
00100000
01000000
00000000
01000000
00100000
,
00010000
00100000
00010000
10000000
00100000
10000000
00100000
01000000
00001000
01000000
00001000
00010000
00000010
00010000
00000010
00001000
,
00000001
00000010
00000100
00000010
00000002
00000003
00001000
00000010
00000100
00000010
00002000
00003000
00000001
00000010
00000100
00000010
,
00000001
00000100
00000010
00001000
00000020
00000000
00010030
00001000
00100000
00001000
00020000
00030000
00001000
01000000
00010000
01000000
,
00100000
10000000
00010000
00100000
02000000
03000000
00010000
01000000
00100000
01000000
20000000
30000000
00010000
01000000
00001000
00010000
,
00000100
00001000
00000100
00010000
00000010
00001000
00000001
00000010
00000200
00000000
00000000
00000000
00000000
00000000
00000000
00000000
,
00000310
00000001
00001000
00000001
00000200
00000300
00000010
00000100
00001000
00000100
00000020
00000030
00001000
00000010
00010000
00001000
,
00010000
00000100
00001000
00000100
00020000
00000000
00031000
01000000
00010000
01000000
00100000
01000000
10000000
01000000
00100000
00010000
,
00100000
01000000
00010000
10000000
02000000
00000000
03100000
00010000
10000000
00010000
02000000
00000000
03100000
01000000
00001000
01000000
,
00000100
00010000
00000100
00001000
00000001
00000100
00000010
00000100
00000002
00000000
00000000
00000000
00000000
00000000
00000000
00000000
,
00000003
00000000
00000100
00000000
00000010
00000000
00000100
00000001
00000000
00000001
00001000
00000000
00000100
00000000
00000010
00000100
,
00001000
00000000
00000010
00000000
00000100
00000000
00001000
00020000
00000000
00000000
00000000
00000000
00031000
00000000
00100000
00000000
,
01000000
00000000
10000000
00000000
01000000
00000000
00010000
00001000
00000000
00000000
00010000
00000000
00000010
00000000
00000100
00000000
,
00001000
00000000
00010000
00000000
00001000
00000000
00000100
00000020
00000000
00000000
00000000
00000000
00001030
00000000
00000001
00000000
,
00000010
00000000
00001000
00000000
00010000
00000000
01000000
00200000
00000000
00000000
00000000
00000000
00000000
00000000
00000000
00000000
,
00310000
00000000
01000000
00000000
00100000
00000000
00010000
00002000
00000000
00000000
00000000
00000000
00013000
00000000
00000100
00000000
,
00000010
00000000
00001000
00000000
00000010
00000000
00000001
00000200
00000000
00000000
00000310
00000000
00001000
00000000
00010000
00000000
,
01000000
00000000
10000000
00000000
01000000
00000000
00010000
00200000
00000000
00000000
00000000
00000000
01300000
00000000
00010000
00000000
,
00001000
00000000
00000010
00000000
00000100
00000000
00001000
00000020
00000000
00000000
00000000
00000000
00000000
00000000
00000000
00000000
,
00000230
00000000
00000000
00000000
00000301
00000000
00001000
00000200
00000000
00000000
00000000
00000000
00000310
00000000
00001000
00000000
,
00010000
00000000
01000000
00200000
00000000
00000000
00000000
00000000
00000000
00000000
00000000
00000000
00000000
00000000
00310000
10000000
,
00200000
00000000
00000000
00000000
01300000
00000000
00100000
00020000
00000000
00000000
00031000
00000000
00000010
00000000
00000001
00000000
,
00000010
00000000
00001000
00020000
00000000
00000000
00000000
00000000
00000000
00000000
00000000
00000000
00031000
00000000
00100000
00000000
,
02000000
00000000
00000000
00000000
03010000
00000000
00001000
00000020
00000000
00000000
00000000
00000000
00000130
00000000
00001000
00000000
,
00000010
00000000
00000001
00000000
00000010
00000000
00000100
00002000
00000000
00000000
00000000
00000000
00013000
00000000
00100000
00000000
,
00020000
00000000
00000000
00000000
00031000
00000000
00000100
00000020
00000000
00000000
00001030
00000000
00000100
00000000
00000001
00000000
,
00000100
00000000
00001000
00000020
00000000
00000000
00000000
00000000
00000000
00000000
00000000
00000000
00000030
00000000
00000000
00000000
,
00000000
00000000
00000000
00000000
00000000
00000000
00000000
00000000
00000000
00000000
00000000
00000000
00000000
00000000
00000000
00000000
00000000
00000000
00000000
00000000
00000000
00000000
00000010
00001000
,
00000001
00000000
00000000
00000100
00000000
00000000
00000010
00000000
00000000
00000100
00000000
00000000
00000001
00000000
00000000
00000000
00000010
00000100
00001000
00000000
00000000
00000100
00000000
00000000
,
00010000
00000000
00000000
00001000
00000000
00000000
00000000
00000000
00000000
00001000
00000000
00000000
01000000
00000000
00000000
00001000
00000000
00000000
00000000
00000000
00000000
00000000
01000000
00100000
,
10000000
00000000
00000000
00100000
00000000
00000000
01000000
00000000
00000000
00010000
00000000
00000000
10000000
00000000
00000000
00000000
00100000
01000000
10000000
00000000
00000000
01000000
00000000
00000000
,
00100000
00000000
00000000
10000000
00000000
00000000
00000000
00000000
00000000
10000000
00000000
00000000
00010000
00000000
00000000
00100000
00000000
00000000
00001000
00000000
00000000
00010000
00000100
00001000
,
00000001
00000000
00000000
00001000
00000000
00000000
00000010
00000000
00000000
00000100
00000000
00000000
00000001
00000000
00000000
00000000
00000100
00000010
00001000
00000000
00000000
00000010
00000000
00000000
,
00000100
00000000
00000000
00001000
00000000
00000000
00000000
00000000
00000000
00001000
00000000
00000000
00010000
00000000
00000000
00000100
00000000
00000000
00000000
00000000
00000000
00000000
00000010
00000100
,
00001000
00000000
00000000
00000100
00000000
00000000
00000010
00000000
00000000
00000100
00000000
00000000
00010000
00000000
00000000
00000000
00001000
00100000
00010000
00000000
00000000
00100000
00000000
00000000
,
00010000
10000000
00000000
00000000
00000000
00000000
00000000
00000000
,
10000000
00100000
01000000
00100000
10000000
00000000
00010000
00100000
01000000
00100000
00010000
00000000
01000000
00001000
00010000
00001000
,
00100000
00000010
00010000
00000010
00001000
00000001
00000010
00000001
00001000
00000010
00000100
00000010
00001000
00000001
00000100
00000001
,
00010000
00000100
00001000
00000100
00010000
00000000
00001000
01000000
00010000
01000000
00001000
00000000
00100000
00010000
10000000
00010000
,
01000000
00100000
00010000
00100000
01000000
00010000
10000000
00010000
00100000
01000000
00010000
01000000
00100000
00010000
01000000
00010000
,
10000000
00100000
01000000
00100000
10000000
00000000
00001000
01000000
00010000
01000000
00001000
00000000
00010000
00000100
00001000
00000100
,
00000010
00000001
00001000
00000001
00000010
00000100
00000001
00000100
00000010
00000001
00001000
00000001
00000100
00000010
00001000
00000010
,
00010000
00001000
00100000
00001000
00010000
00000000
00001000
01000000
00010000
01000000
00100000
00000000
01000000
00100000
00010000
00100000
,
01000000
00010000
10000000
00010000
00100000
01000000
00010000
01000000
00100000
00001000
00010000
00001000
01000000
00000100
00010000
00000100
,
00001000
00000100
00000001
00000100
00001000
00000000
00000001
00000100
00001000
00000100
00000001
00000000
00000010
00000001
00000100
00000010
,
00000100
00001000
00000100
00000010
00010000
00000000
00001000
00100000
01000000
00010000
01000000
00100000
00010000
10000000
00100000
01000000
,
10000000
01000000
00100000
10000000
00010000
00100000
00001000
00010000
00000100
00001000
00000100
00000010
00001000
00000010
00000100
00001000
,
00000001
00000100
00001000
00000100
00000010
00000001
00000010
00001000
00000002
00000000
00000000
00000000
00000000
00000000
00000000
00000000
,
00000013
00000001
00000100
00000001
00000010
00000000
00000100
00010000
00000010
00010000
00000100
00000000
00100000
00001000
01000000
00001000
,
00100000
01000000
00100000
00010000
01000000
00000000
00100000
10000000
01000000
10000000
00100000
01000000
00010000
00100000
00010000
01000000
,
00001000
00100000
00000100
00001000
00000010
00000000
00000100
00000001
00000010
00000100
00001000
00000000
00000010
00010000
00000100
00000010
,
00000100
00010000
00000010
00000100
00000010
00010000
00000100
01000000
00000400
04000000
00000000
00000000
00000000
00000000
00000000
03000000
,
00010300
00001000
01000000
00100000
00010000
00000000
00100000
10000000
00010000
00100000
01000000
00000000
00010000
01000000
00100000
00001000
,
00010000
00000010
00000100
00001000
00000100
00000000
00000010
00001000
00000001
00000010
00001000
00000010
00000100
00000001
00000100
00001000
,
00000010
00010000
00001000
00100000
01000000
00000000
00100000
00010000
01000000
00100000
01000000
10000000
01000000
00010000
10000000
01000000
,
00010000
01000000
00100000
00001000
01000000
00100000
10000000
01000000
00020000
00000000
00000000
00000000
00000000
00000000
00000000
00000000
,
00031000
00010000
00000100
00000010
00000100
00000000
00000001
00000100
00001000
00000100
00000010
00000000
00001000
00000010
00000001
00001000
,
00000010
00000001
00000010
00001000
00000001
00000000
00000100
00001000
00000100
00000010
00010000
00001000
01000000
00100000
01000000
10000000
,
01000000
00010000
10000000
01000000
00010000
00000000
01000000
00100000
00010000
01000000
00010000
00000000
01000000
10000000
01000000
00010000
,
00100000
00001000
00010000
00000010
00000100
00001000
00000100
00001000
00020000
00000000
00000000
00000000
00000000
00000000
00000000
00030000
,
000MM000
00M00M00
0M0000M0
M000000M
000MM000
00M00M00
0M0000M0
M000000M
000MM000
00M00M00
0M0000M0
M000000M
000MM000
00M00M00
0M0000M0
M000000M
,
000MM000
00M00M00
0M0000M0
M000000M
00000000
00000000
00000000
00000000
00000000
00000000
00000000
00000000
00000000
00000000
00000000
00000000
;
