#VERSION:0.77;
#TITLE:Bubble Pop;
#SUBTITLE:;
#ARTIST:4Minute;
#TITLETRANSLIT:;
#SUBTITLETRANSLIT:;
#ARTISTTRANSLIT:;
#GENRE:K-Pop;
#ORIGIN:;
#CREDIT:Gloves;
#BANNER:banner.png;
#BACKGROUND:background.png;
#LYRICSPATH:;
#CDTITLE:cdtitle.png;
#MUSIC:Bubble Pop.ogg;
#OFFSET:-0.070000;
#SAMPLESTART:101.559998;
#SAMPLELENGTH:13.380000;
#SELECTABLE:YES;
#DISPLAYBPM:146.000000;
#BPMS:0.000000=146.000000,
312.000000=73.000000;
#STOPS:;
#DELAYS:;
#WARPS:;
#TIMESIGNATURES:0.000000=4=4;
#TICKCOUNTS:0.000000=4;
#COMBOS:0.000000=1;
#SPEEDS:0.000000=1.000000=0.000000=0;
#SCROLLS:0.000000=1.000000;
#LABELS:0.000000=Song Start;
#BGCHANGES:;
#KEYSOUNDS:;
#ATTACKS:;

//---------------dance-double - Stretches----------------
#NOTEDATA:;
#CHARTNAME:;
#STEPSTYPE:dance-double;
#DESCRIPTION:Stretches;
#CHARTSTYLE:Pad;
#DIFFICULTY:Challenge;
#METER:8;
#RADARVALUES:0.582,0.540,0.175,0.890,0.004,396.000,23.000,117.000,7.000,7.000,16.000,0.000,0.000,0.582,0.540,0.175,0.890,0.004,396.000,23.000,117.000,7.000,7.000,16.000,0.000,0.000;
#CREDIT:Kyzentun;
#OFFSET:-0.070000;
#BPMS:0.000000=146.000000
,312.000000=73.000000
;
#STOPS:;
#DELAYS:;
#WARPS:;
#TIMESIGNATURES:0.000000=4=4
;
#TICKCOUNTS:0.000000=4
;
#COMBOS:0.000000=1
;
#SPEEDS:0.000000=1.000000=0.000000=0
;
#SCROLLS:0.000000=1.000000
;
#FAKES:;
#LABELS:0.000000=Song Start
;
#ATTACKS:;
#DISPLAYBPM:146.000000;
#NOTES:
// measure 0
00000000
00000000
00000000
00000000
,  // measure 1
00000000
00000000
00000000
00000000
,  // measure 2
00000000
00000000
00000000
00000000
,  // measure 3
00000000
00000000
00000000
00000000
,  // measure 4
00000000
00000000
00000000
00000000
,  // measure 5
00000000
00000000
00000000
00000000
00000000
00000000
00010000
00001000
,  // measure 6
00200000
00000000
00310000
10000000
00200000
00000000
10300000
00010000
,  // measure 7
00200000
00301000
00200000
00002000
,  // measure 8
00020000
00333000
00001000
00010000
00000200
00000000
00000310
00000001
,  // measure 9
00002000
00000000
00003010
00000100
00001000
00000100
00000002
00000000
,  // measure 10
00002000
00003003
00000002
00000003
00000001
00000001
00000001
00000002
,  // measure 11
00000000
00000003
M0000000
00001000
00000100
00000010
00001000
00010000
,  // measure 12
00000000
00000000
00000200
00000300
00000100
00000100
00000100
00000100
,  // measure 13
00040000
00030000
00000000
00000000
M0040000
00030000
00040000
00030000
00000000
00000000
00040000
00030000
00000000
00000000
00000000
00000000
,  // measure 14
00000000
00000000
00001000
01000000
00200000
00000000
10300000
01000000
,  // measure 15
00200000
00000000
00310000
01000000
00200000
00000000
02000000
00000000
,  // measure 16
20000000
33300000
00100000
01000000
00002000
00000000
00013000
00000010
,  // measure 17
00000200
00000000
00000301
00000010
00000200
00000000
00000020
00000000
,  // measure 18
00000002
00000333
00000020
00000030
00000010
00000010
00000010
00000010
,  // measure 19
00000000
00000000
M0000000
00000100
00001000
00000010
00000100
00001000
,  // measure 20
00010000
00000000
00000000
00000000
00001000
01000000
00100000
00010000
,  // measure 21
00002000
00003000
00001000
00001000
00000000
00002000
00023000
00000000
,  // measure 22
00030020
00000000
00000230
00000000
00001300
00000100
00000002
00000000
,  // measure 23
00000023
00000000
00001030
00001000
00000000
00020000
02030000
00000000
,  // measure 24
03200000
00000000
02300000
00000000
03010000
01000000
20000000
00000000
,  // measure 25
30200000
00000000
00310000
00010000
00000000
00001000
00000020
00000000
,  // measure 26
00000230
00000000
00000320
00000000
00001030
00000010
00000002
00000000
,  // measure 27
00000203
00000000
00001300
00001000
00000000
00020000
00030000
00000000
,  // measure 28
00000100
00000100
01000000
01000000
00000010
00000010
10000001
00000000
,  // measure 29
00100000
00100000
00000100
00000100
10000001
00000000
10000002
00000000
,  // measure 30
02000003
00000000
03000100
00010000
00001000
00010000
00200000
00000000
,  // measure 31
00320000
00000000
00031000
00001000
00000000
00000020
00000230
00000000
,  // measure 32
00020300
00000000
00030010
00000100
00001000
00010000
00200000
00000000
,  // measure 33
00320000
00000000
00031000
00001000
00000000
00200000
02300000
00000000
,  // measure 34
23000000
00000000
30200000
00000000
00310000
00001000
00000020
00000000
,  // measure 35
00000230
00000000
00010300
00010000
00000000
00001000
00000000
00000000
,  // measure 36
00100000
00100000
00000010
00000010
01000000
01000000
10000001
00000000
,  // measure 37
00000100
00000100
00100000
00100000
10000001
00000000
10000001
00000000
,  // measure 38
01000000
00000000
00000100
00000000
00010000
00010000
00001000
00001000
,  // measure 39
00000000
00100000
00100000
00000000
00020000
00000000
00000000
00000000
,  // measure 40
10030000
00000000
00100000
00100000
02000000
03000000
10000000
10000000
,  // measure 41
00000000
00000000
02000000
00000000
03100000
00000000
02000000
00000000
03010000
00000000
02000000
00000000
03001000
00000000
00020000
00030000
,  // measure 42
00020000
00030000
00000100
00000000
00000010
00000010
00000001
00000001
,  // measure 43
00000000
00000100
00000200
00000300
00000020
00000000
00000000
00000000
,  // measure 44
00000230
00000300
00000000
00000000
00001000
00000000
00001000
00000000
00020000
00030000
00000000
00000000
00001000
00000000
00001000
00000000
,  // measure 45
00400000
00300000
00000000
00000000
00400000
00300000
00400000
00300000
00000000
00000000
00400000
00300000
00000000
00000000
00000000
00000000
,  // measure 46
00010000
00100000
01000000
00010000
00001000
00000100
00000020
00000000
,  // measure 47
00001030
00000010
00000100
00001000
00010000
01000000
00200000
00000000
,  // measure 48
00310000
10000000
00100000
00010000
00100000
10000000
01000000
00000000
,  // measure 49
MM000000
00000000
00MM0000
00000000
00001000
00000010
00000100
00001000
,  // measure 50
00020000
00000000
00000000
00002000
00000000
00000000
02000000
00000000
,  // measure 51
00000000
00000200
00000000
03033300
01000000
01000000
00000100
00000100
,  // measure 52
10000001
00000000
10000002
00000003
01000000
00000100
00010000
00001000
,  // measure 53
00400000
00300000
00000000
00000000
00000400
00000300
00040000
00030000
00000000
00000000
00004000
00003000
00000000
00000000
00000000
00000000
,  // measure 54
01000000
00000000
00100000
00010000
00002000
00000000
00003010
00001000
,  // measure 55
00020000
00000000
01030000
00010000
00002000
00000000
00200000
00000000
,  // measure 56
00020000
00333000
00100000
00000100
00002000
00000000
00003010
00010000
,  // measure 57
00000200
00000000
00100300
00001000
02000000
00000000
00002000
00000000
,  // measure 58
00020000
03033000
00000020
00000030
00000010
00000010
00000010
00000020
,  // measure 59
00000000
00000030
00000100
00001000
00010000
00100000
10000000
01000000
,  // measure 60
00010000
00000000
00001000
00000000
00000100
00000001
00000010
00000100
,  // measure 61
00004000
00003000
00000000
00000000
00004000
00003000
00004000
00003000
00000000
00000000
00004000
00003000
00000002
00000000
00000000
00000000
,  // measure 62
00000023
00000000
00002030
00000000
00003010
00001000
00020000
00000000
,  // measure 63
00230000
00000000
01300000
02000000
00000000
03100000
20000000
00000000
,  // measure 64
30200000
00000000
00320000
00000000
00130000
00010000
00002000
00000000
,  // measure 65
00003020
00000000
00000130
00000200
00000000
00000310
00000002
00000000
,  // measure 66
00000203
00000000
00002300
00000000
00003100
00001000
00020000
00000000
,  // measure 67
00030200
00000000
01000300
01000000
00000000
00001000
00000000
00000000
,  // measure 68
01000000
01000000
00000100
00000100
00100000
00100000
10000001
00000000
,  // measure 69
00000010
00000010
01000000
01000000
10000001
00000000
20000001
00000000
,  // measure 70
30000200
00000000
00100300
00001000
01000000
00100000
00020000
00000000
,  // measure 71
00032000
00000000
00003100
00000010
00000000
00001000
00000200
00000000
,  // measure 72
00020300
00000000
00030010
00010000
00000100
00000010
00002000
00000000
,  // measure 73
00023000
00000000
01030000
00100000
00000000
00010000
02000000
00000000
,  // measure 74
03002000
00000000
00203000
00000000
00301000
00010000
00000010
00000000
,  // measure 75
00000200
00000000
00000310
00000010
00000000
00010000
00000000
00000000
,  // measure 76
00000010
00000010
00100000
00100000
00000100
00000100
10000001
00000000
,  // measure 77
01000000
01000000
00000100
00000100
10000001
00000000
10000001
00000000
,  // measure 78
10000001
00000000
10000001
00000000
10000001
00000000
10000001
00000000
10000001
00000000
10000001
10000001
10000001
00000000
10000001
00000000
;

//---------------dance-double - Stretches----------------
#NOTEDATA:;
#CHARTNAME:;
#STEPSTYPE:dance-double;
#DESCRIPTION:Stretches;
#CHARTSTYLE:;
#DIFFICULTY:Hard;
#METER:8;
#RADARVALUES:0.587,0.540,0.190,0.890,0.004,398.000,25.000,117.000,7.000,0.000,16.000,0.000,0.000,0.587,0.540,0.190,0.890,0.004,398.000,25.000,117.000,7.000,0.000,16.000,0.000,0.000;
#CREDIT:Kyzentun;
#OFFSET:-0.070000;
#BPMS:0.000000=146.000000
,312.000000=73.000000
;
#STOPS:;
#DELAYS:;
#WARPS:;
#TIMESIGNATURES:0.000000=4=4
;
#TICKCOUNTS:0.000000=4
;
#COMBOS:0.000000=1
;
#SPEEDS:0.000000=1.000000=0.000000=0
;
#SCROLLS:0.000000=1.000000
;
#FAKES:;
#LABELS:0.000000=Song Start
;
#ATTACKS:;
#DISPLAYBPM:146.000000;
#NOTES:
00000000
00000000
00000000
00000000
,
00000000
00000000
00000000
00000000
,
00000000
00000000
00000000
00000000
,
00000000
00000000
00000000
00000000
,
00000000
00000000
00000000
00000000
,
00000000
00000000
00000000
00000000
00000000
00000000
00010000
00001000
,
00200000
00000000
00310000
10000000
00200000
00000000
10300000
00010000
,
00200000
00301000
00200000
00302000
,
00023000
00030000
00001000
00010000
00000200
00000000
00000310
00000001
,
00002000
00000000
00003010
00000100
00001000
00000100
00000002
00000000
,
00002000
00003003
00000002
00000003
00000001
00000001
00000001
00000002
,
00000000
00000003
0000000M
00001000
00000100
00000010
00001000
00010000
,
00000000
00000000
00000200
00000300
00000100
00000100
00000100
00000100
,
00040000
00030000
00000000
00000000
00040M00
00030000
00040000
00030000
00000000
00000000
00040000
00030000
00000000
00000000
00000000
00000000
,
00000000
00000000
00001000
01000000
00200000
00000000
10300000
01000000
,
00200000
00000000
00310000
01000000
00200000
00000000
02300000
00000000
,
03200000
00300000
00100000
01000000
00002000
00000000
00013000
00000010
,
00000200
00000000
00000301
00000010
00000200
00000000
00000320
00000000
,
00000032
00000003
00000020
00000030
00000010
00000010
00000010
00000010
,
00000000
00000000
000000M0
00000100
00001000
00000010
00000100
00001000
,
00010000
00000000
00000000
00000000
00001000
01000000
00100000
00010000
,
00002000
00003000
00001000
00001000
00000000
00002000
00023000
00000000
,
00030020
00000000
00000230
00000000
00001300
00000100
00000002
00000000
,
00000023
00000000
00001030
00001000
00000000
00020000
02030000
00000000
,
03200000
00000000
02300000
00000000
03010000
01000000
20000000
00000000
,
30200000
00000000
00310000
00010000
00000000
00001000
00000020
00000000
,
00000230
00000000
00000320
00000000
00001030
00000010
00000002
00000000
,
00000203
00000000
00001300
00001000
00000000
00020000
00030000
00000000
,
00001000
00001000
00010000
00010000
00001000
00001000
00011000
00000000
,
00010000
00010000
00001000
00001000
00011000
00000000
00012000
00000000
,
02003000
00000000
03000100
00010000
00001000
00010000
00200000
00000000
,
00320000
00000000
00031000
00001000
00000000
00000020
00000230
00000000
,
00020300
00000000
00030010
00000100
00001000
00010000
00200000
00000000
,
00320000
00000000
00031000
00001000
00000000
00200000
02300000
00000000
,
23000000
00000000
30200000
00000000
00310000
00001000
00000020
00000000
,
00000230
00000000
00010300
00010000
00000000
00001000
00000000
00000000
,
00010000
00010000
00001000
00001000
00010000
00010000
00011000
00000000
,
00001000
00001000
00010000
00010000
00011000
00000000
00011000
00000000
,
01000000
00000000
00001000
00000000
00010000
00010000
00001000
00001000
,
00000000
00100000
00100000
00000000
00020000
00000000
00000000
00000000
,
10030000
00000000
00100000
00100000
02000000
03000000
10000000
10000000
,
00000000
00000000
02000000
00000000
03100000
00000000
02000000
00000000
03010000
00000000
02000000
00000000
03001000
00000000
00020000
00030000
,
00020000
00030000
00000100
00000000
00000010
00000010
00000001
00000001
,
00000000
00000100
00000200
00000300
00000020
00000000
00000000
00000000
,
00000230
00000300
00000000
00000000
00001000
00000000
00001000
00000000
00020000
00030000
00000000
00000000
00001000
00000000
00001000
00000000
,
00400000
00300000
00000000
00000000
00400000
00300000
00400000
00300000
00000000
00000000
00400000
00300000
00000000
00000000
00000000
00000000
,
00010000
00100000
01000000
00010000
00001000
00000100
00000020
00000000
,
00001030
00000010
00000100
00001000
00010000
01000000
00200000
00000000
,
00310000
10000000
00100000
00010000
00100000
10000000
01000000
00000000
,
MM110000
00000000
00MM1100
00000000
00001000
00000010
00000100
00001000
,
00020000
00030000
00000000
00002000
00003000
00000000
02000000
03000000
,
00000000
00020000
00030000
00000000
01000000
01000000
00100000
00100000
,
10010000
00000000
10020000
00030000
10000000
00010000
00100000
00001000
,
00400000
00300000
00000000
00000000
00000400
00000300
00040000
00030000
00000000
00000000
00004000
00003000
00000000
00000000
00000000
00000000
,
01000000
00000000
00100000
00010000
00002000
00000000
00003010
00001000
,
00020000
00000000
01030000
00010000
00002000
00000000
00203000
00000000
,
00320000
00030000
00100000
00000100
00002000
00000000
00003010
00010000
,
00000200
00000000
00100300
00001000
02000000
00000000
03002000
00000000
,
00023000
00030000
00000020
00000030
00000010
00000010
00000010
00000020
,
00000000
00000030
00000100
00001000
00010000
00100000
10000000
01000000
,
00010000
00000000
00001000
00000000
00000100
00000001
00000010
00000100
,
00004000
00003000
00000000
00000000
00004000
00003000
00004000
00003000
00000000
00000000
00004000
00003000
00000002
00000000
00000000
00000000
,
00000023
00000000
00002030
00000000
00003010
00001000
00020000
00000000
,
00230000
00000000
01300000
02000000
00000000
03100000
20000000
00000000
,
30200000
00000000
00320000
00000000
00130000
00010000
00002000
00000000
,
00003020
00000000
00000130
00000200
00000000
00000310
00000002
00000000
,
00000203
00000000
00002300
00000000
00003100
00001000
00020000
00000000
,
00030200
00000000
00010300
00010000
00000000
00001000
00000000
00000000
,
00010000
00010000
00001000
00001000
00010000
00010000
00011000
00000000
,
00001000
00001000
00010000
00010000
00011000
00000000
00021000
00000000
,
00030200
00000000
00010300
00001000
01000000
00100000
00020000
00000000
,
00032000
00000000
00003100
00000010
00000000
00001000
00000200
00000000
,
00020300
00000000
00030010
00010000
00000100
00000010
00002000
00000000
,
00023000
00000000
01030000
00100000
00000000
00010000
02000000
00000000
,
03002000
00000000
00203000
00000000
00301000
00010000
00000010
00000000
,
00000200
00000000
00000310
00000010
00000000
00010000
00000000
00000000
,
00001000
00001000
00010000
00010000
00001000
00001000
00011000
00000000
,
00010000
00010000
00001000
00001000
00011000
00000000
00011000
00000000
,
00110000
00000000
01100000
00000000
11000000
00000000
10100000
00000000
01100000
00000000
01010000
00110000
00101000
00000000
00011000
00000000
;
