#TITLE:Atlanta;
#SUBTITLE:;
#ARTIST:Bond;
#TITLETRANSLIT:;
#SUBTITLETRANSLIT:;
#ARTISTTRANSLIT:;
#GENRE:;
#CREDIT:MWOK sync and graphics;
#BANNER:atlantabn.png;
#BACKGROUND:atlanta.png;
#LYRICSPATH:;
#CDTITLE:;
#MUSIC:Atlanta.ogg;
#OFFSET:-0.393;
#SAMPLESTART:40.400;
#SAMPLELENGTH:12.000;
#SELECTABLE:YES;
#BPMS:0.000=144.000;
#STOPS:;
#BGCHANGES:;
#KEYSOUNDS:;

//---------------dance-double - Kyzentun----------------
#NOTES:
     dance-double:
     Kyzentun:
     Challenge:
     10:
     1.000,0.412,0.000,1.000,0.410:
00001000
00000100
00000001
00000000
00001000
00000100
00000001
00000000
,
00000001
00000100
00001000
00000000
00000001
00000100
00001000
00000000
,
00010000
01000000
10000000
00000000
00010000
01000000
10000000
00000000
,
10000000
01000000
00010000
00000000
10000000
01000000
00010000
00000000
,
00001000
00000010
00000100
00000010
00010000
00100000
01000000
00100000
,
00001000
00000100
00000010
00000100
00010000
01000000
00100000
01000000
,
00001000
00000010
00000001
00000010
00010000
00100000
10000000
00100000
,
00001000
00000100
00000001
00000100
00010000
01000000
10000000
01000000
,
00002000
00000000
02000000
00000000
,
00000020
00000000
00000000
00000000
00000000
00003000
03001000
01000000
00001000
00000000
01000000
00000000
00010000
00000000
01000000
00000000
,
00200030
00000000
02000000
00000000
,
20000000
00000000
00000000
00000000
00000000
00300000
03100000
01000000
00100000
00000000
01000000
00000000
00010000
00000000
01000000
00000000
,
30002000
00020000
00000000
00000000
,
00000000
00000000
00000000
00000000
00100000
10000000
00000010
00100000
,
00000002
00000020
00000000
00000000
,
00000000
00000000
00000000
00003000
00031000
00010000
00000100
00001000
,
00000233
00000300
00000100
00000000
00001000
00000000
00000100
00000000
00000020
00000030
00000010
00000000
00000100
00000000
00010000
00000000
,
00002000
00003000
00001000
00000000
00100000
00000000
00002000
02003000
03020000
00030000
00020000
00030000
20000000
30000000
02000000
03000000
,
00200000
00300000
00100000
00000000
00001000
00000000
00010000
00000000
00000020
00000030
00000010
00000000
00000100
00000000
00000001
00000000
,
00000020
00000030
00000010
00000000
00000100
00000000
00002000
00003200
00020300
00030000
00020000
00030000
00002000
00003000
02000000
03000000
,
00020000
00030000
00010000
00000000
00200000
00300000
01000000
00000000
00100000
00000000
00100000
00000000
00010000
00000000
01000000
00000000
,
00001000
00000000
00001000
00000000
00010000
00000000
00000010
00000000
00000200
00000300
00000200
00000300
00000002
00000003
00000020
00000030
,
00000200
00000300
00000100
00000000
00020000
00030000
00001000
00000000
00100000
00000000
00100000
00000000
00010000
00000000
10000000
00000000
,
00100000
00000000
00100000
00000000
01000000
00000000
00001000
00000000
00020000
00030000
00020000
00030000
00000200
00000300
00000020
00000030
,
00000200
00000300
00000100
00000000
00000001
00000000
00000100
00000000
00020000
00030000
00010000
00000000
00001000
00000000
01000000
00000000
,
20000000
30000000
10000000
00000000
01000000
00000000
00200000
20300000
30020000
00030000
00020000
00030000
00200000
00300000
02000000
03000000
,
00020000
00030000
00010000
00000000
00001000
00000000
00000100
00000000
00000002
00000003
00000001
00000000
00000010
00000000
00001000
00000000
,
00020000
00030000
00010000
00000000
00000100
00000000
00000020
00000230
00002300
00003000
00002000
00003000
00000020
00000030
00000200
00000300
,
00002000
00003000
00001000
00000000
00020000
00030000
00100000
00000000
00010000
00000000
00010000
00000000
00001000
00000000
00000010
00000000
,
00001000
00000000
00001000
00000000
00010000
00000000
01000000
00000000
20000000
30000000
20000000
30000000
00200000
00300000
02000000
03000000
,
20000000
30000000
10000000
00000000
02000000
03000000
00001000
00000000
00000100
00000000
00000100
00000000
00000010
00000000
00001000
00000000
,
00000100
00000000
00000100
00000000
00000001
00000000
00000100
00000000
00000020
00000030
00000020
00000030
00002000
00003000
00020000
00030000
,
00200000
00300000
00100000
00000000
02000000
03000000
01000000
00000000
00020000
00030000
00010000
00000000
20000000
30000000
10000000
00000000
,
02000000
03000000
01000000
00000000
00020000
00030000
00010000
00000000
00002000
00003000
00001000
00000000
00000200
00000300
00000100
00000000
,
00000001
00000001
00000100
00000100
00001000
00001000
00010000
00010000
,
00001000
00001000
00000010
00000010
00000100
00000100
00010000
00010000
,
00001000
01000000
00200000
00310000
00002000
00003010
00000200
00001300
,
00000020
00000130
00002000
01003000
00200000
10300000
00020000
00130000
,
00002000
00003010
00000200
00001300
00000002
00000013
00002000
00103000
,
02000000
03010000
00002000
00003100
00000020
00010030
00002000
00103000
,
02000000
13000000
01000000
10000000
02000000
13000000
01000000
10000000
02000000
03000000
01000000
00000000
02000000
03000000
01000000
00000000
,
00200000
00301000
00100000
00001000
00200000
00301000
00100000
00001000
00200000
00300000
00100000
00000000
00200000
00300000
00100000
00000000
,
00000200
00010300
00000100
00010000
00000200
00010300
00000100
00010000
00000200
00000300
00000100
00000000
00000200
00000300
00000100
00000000
,
00002000
00003001
00001000
00000001
00002000
00003001
00001000
00000001
00002000
00003000
00001000
00000000
00002000
00003000
00001000
00000000
,
00000001
00000100
00000001
00000100
00000002
00000103
00000001
00000100
00000010
00010000
00000010
00010000
00000020
00010030
00000010
00010000
,
00001000
00100000
00001000
00100000
00002000
00103000
00001000
00100000
00010000
10000000
00010000
10000000
00020000
10030000
00010000
10000000
,
00100000
01000000
00100000
01000000
00200000
01300000
00100000
01000000
00001000
00010000
00001000
00010000
00002000
00013000
00001000
00010000
,
00000100
00001000
00000100
00001000
00000200
00001300
00000100
00001000
00000001
00000100
00000001
00000100
00000002
00000103
00000001
00000100
,
00000002
00000000
00000200
00000000
,
00000020
00000000
00000000
00000000
00000000
00000003
00000301
00000100
00000001
00000000
00000100
00000000
00000001
00000000
00000100
00000000
,
00002030
00000000
00020000
00000000
,
00000200
00000000
00000000
00000000
00000000
00003000
00031000
00010000
00001000
00000000
00010000
00000000
00100000
00000000
01000000
00000000
,
00200300
02000000
00000000
00000000
,
00000000
00000000
00000000
00000000
00010000
10000000
00010000
10000000
,
00020000
00000000
00000000
00000000
20000000
00000000
00000000
00000000
30030000
00000000
00000000
00300000
03100000
01000000
00100000
01000000
,
00100000
00000000
00000000
01000000
00000000
00000000
00100000
00000000
00000000
01000000
00000000
00000000
00100000
00000000
00000000
01000000
00000000
00000000
00100000
00000000
00000000
01000000
00000000
00000000
00100000
00000000
01000000
00000000
00100000
00000000
01000000
00000000
00100000
00000000
01000000
00000000
00100000
00000000
01000000
00000000
00100000
00000000
01000000
00000000
00100000
00000000
01000000
00000000
,
00200000
00300000
00100000
00000000
01000000
00000000
00100000
00000000
20000000
30000000
10000000
00000000
00100000
00000000
01000000
00000000
,
00002000
00003000
00001000
00000000
00010000
00000000
00000200
00002300
00003002
00000003
00000002
00000003
00000020
00000030
00000200
00000300
,
00020000
00030000
00010000
00000000
00001000
00000000
00100000
00000000
02000000
03000000
01000000
00000000
10000000
00000000
00100000
00000000
,
02000000
03000000
01000000
00000000
00001000
00000000
00020000
00032000
02003000
03000000
02000000
03000000
00002000
00003000
00200000
00300000
,
00000020
00000030
00000010
00000000
00002000
00003000
00000001
00000000
00000100
00000000
00000100
00000000
00000010
00000000
00010000
00000000
,
00000100
00000000
00000100
00000000
00000010
00000000
00000001
00000000
00020000
00030000
00020000
00030000
00000200
00000300
02000000
03000000
,
00020000
00030000
00010000
00000000
02000000
03000000
00100000
00000000
10000000
00000000
10000000
00000000
00010000
00000000
00100000
00000000
,
01000000
00000000
01000000
00000000
00100000
00000000
00001000
00000000
00020000
00030000
00020000
00030000
00000020
00000030
00000200
00000300
,
00002000
00003000
00001000
00000000
00010000
00000000
01000000
00000000
00020000
00030000
00010000
00000000
01000000
00000000
10000000
00000000
,
00200000
00300000
00100000
00000000
00010000
00000000
00002000
00023000
00230000
00300000
00200000
00300000
00020000
00030000
00002000
00003000
,
02000000
03000000
01000000
00000000
00001000
00000000
00000100
00000000
00000002
00000003
00000001
00000000
00000010
00000000
00001000
00000000
,
00020000
00030000
00010000
00000000
01000000
00000000
00200000
00320000
02030000
03000000
02000000
03000000
00200000
00300000
20000000
30000000
,
00200000
00300000
00100000
00000000
00020000
00030000
00000010
00000000
00000100
00000000
00000100
00000000
00001000
00000000
00000100
00000000
,
00000001
00000000
00000001
00000000
00000010
00000000
00000001
00000000
00000200
00000300
00000200
00000300
00002000
00003000
00020000
00030000
,
00200000
00300000
00100000
00000000
00020000
00030000
00001000
00000000
01000000
00000000
01000000
00000000
00100000
00000000
00010000
00000000
,
00001000
00000000
00000000
00010000
00000000
00000000
00001000
00000000
00000000
00010000
00000000
00000000
00001000
00000000
00000000
00010000
00000000
00000000
00001000
00000000
00000000
00010000
00000000
00000000
00002000
00000000
00010000
00003000
00001000
00000000
00020000
00000000
00001000
00030000
00010000
00000000
00002000
00000000
00010000
00003000
00001000
00000000
00020000
00000000
00001000
00030000
00010000
00000000
,
00002000
00003000
00000000
00000000
00000000
00000000
00000000
00000000
00000000
00000000
00000000
00000000
00000000
00000000
00000000
00000000
;

//---------------dance-double - Kyzentun----------------
#NOTES:
     dance-double:
     Kyzentun:
     Hard:
     9:
     0.737,0.411,0.429,0.476,0.005:
00010000
00001000
00010000
00000000
00010000
00001000
00010000
00000000
,
00000100
00000010
00000100
00000000
00000100
00000010
00000100
00000000
,
00010000
00001000
00010000
00000000
00010000
00001000
00010000
00000000
,
00100000
01000000
00100000
00000000
00100000
01000000
00100000
00000000
,
10000000
00100000
10000000
00100000
01000000
00010000
01000000
00010000
,
00100000
00001000
00100000
00001000
00010000
00000100
00010000
00000100
,
00001000
00000010
00001000
00000010
00000100
00000001
00000100
00000001
,
00000010
00000100
00000010
00000100
00010000
00001000
00010000
00001000
,
02000000
00000000
00020000
00000000
,
00002000
00000000
00000000
03000000
01030000
00010000
01000000
00010000
,
20003000
00000000
02000000
00000000
,
00200000
00000000
00000000
30000000
13000000
01000000
10000000
01000000
,
00320000
00002000
00000000
00000000
,
00000000
00000000
00000000
00000000
00100000
00000010
00100000
00000010
,
00200000
00000020
00000000
00000000
,
00000000
00000000
00000000
00030000
00013000
00001000
00010000
00001000
,
00310030
00010000
00001000
01000000
00010000
00010000
10000000
01000000
,
00100000
00100000
01000000
10000000
00010000
00010000
00100000
00001000
,
00010000
00010000
00000010
00001000
00000010
00000010
00000100
00000001
,
00001000
00001000
00000100
00000010
00000100
00000100
00010000
00001000
,
01000000
01000000
00010000
10000000
00100000
00100000
10000000
00010000
,
01000000
01000000
00001000
00010000
00000010
00000010
00001000
00000001
,
00000010
00000010
00000001
00000100
00000010
00000010
00010000
00001000
,
01000000
01000000
00010000
00100000
01000000
01000000
00100000
01000000
,
00010000
00010000
00001000
00000100
00000001
00000001
00001000
00000100
,
00000001
00000001
00000100
00001000
00000010
00000010
00000100
00001000
,
00010000
00010000
00100000
01000000
10000000
10000000
01000000
00010000
,
00100000
00100000
00010000
01000000
00001000
00001000
00010000
00000100
,
00000010
00000010
00001000
00000010
00000001
00000001
00001000
00000100
,
00000010
00000010
00001000
00010000
01000000
01000000
10000000
01000000
,
00010000
00010000
01000000
00100000
00001000
00001000
00010000
00001000
,
00000100
00000100
00000001
00000100
00000010
00000010
00001000
00000100
,
00010000
00002000
00203000
02300000
,
23000000
00000000
00000000
00000000
30020000
00000000
00000000
00000000
00230000
00000000
00000000
00000000
00302000
00000000
00000000
00003000
,
00011000
00001100
00000110
00000011
,
00001010
00011000
00110000
10100000
,
11000000
02000000
03200000
00302000
,
00023000
00000000
00000000
00000000
00030020
00000000
00000000
00000000
00000230
00000000
00000000
00000000
00000302
00000000
00000000
00000003
,
00000101
00001100
00011000
01010000
,
11000000
01100000
00110000
00011000
,
00010000
00010000
00010000
00010000
00010000
00010000
00010000
00010000
,
00000010
00000010
00000010
00000010
00000010
00000010
00000010
00000010
,
00001000
00001000
00001000
00001000
00001000
00001000
00001000
00001000
,
00000001
00000001
00000001
00000001
00000001
00000001
00000001
00000001
,
00000011
00000011
00000022
00000033
00000110
00000110
00000220
00000330
,
00001100
00001100
00002200
00003300
00011000
00011000
00022000
00033000
,
01010000
01010000
02020000
03030000
01100000
01100000
02200000
03300000
,
10100000
10100000
20200000
30300000
01010000
01010000
02020000
03030000
,
02000000
00000000
00002000
00000000
,
00200000
00000000
00000000
00000000
00000000
00000000
00000000
03000000
01003000
00000000
00001000
00000000
01000000
00000000
00001000
00000000
,
00320000
00000000
00000200
00000000
,
00000020
00000000
00000000
00000000
00000000
00000000
00000000
00030000
00010300
00000000
00000100
00000000
00010000
00000000
00000100
00000000
,
00002030
00000200
00000000
00000000
,
00000000
00000000
00000000
00000000
00000001
00000010
00000001
00000010
,
00000002
00000020
00000000
00000000
,
00000033
00000000
00000000
00000000
00003300
00001100
00001100
00001100
,
00001100
00001000
00000100
00001000
00000001
00000001
00000100
00000010
,
00010000
00010000
00001000
00100000
00001000
00001000
00100000
01000000
,
10000000
10000000
01000000
10000000
00010000
00010000
01000000
00100000
,
01000000
01000000
00001000
00010000
00000010
00000010
00001000
00000001
,
00000010
00000010
00000001
00000100
00000010
00000010
00010000
00001000
,
00010000
00010000
00001000
01000000
00100000
00100000
10000000
00010000
,
00100000
00100000
01000000
10000000
00100000
00100000
10000000
01000000
,
00100000
00100000
00001000
00010000
00000100
00000100
00000010
00000001
,
00000100
00000100
00001000
00010000
00100000
00100000
00010000
00001000
,
01000000
01000000
00100000
00010000
00100000
00100000
10000000
00010000
,
00100000
00100000
01000000
00010000
00001000
00001000
00000100
00000001
,
00001000
00001000
00000100
00000010
00001000
00001000
00010000
00000100
,
00001000
00001000
00000010
00000100
00001000
00001000
00010000
01000000
,
10000000
10000000
00010000
01000000
00100000
00100000
00010000
00001000
,
00000010
00000010
00000100
00001000
00000001
00000001
00000100
00000010
,
00001000
00000000
00001000
00000000
00000400
00004000
00000000
00000000
00000000
00000000
00000000
00000000
00000000
00000000
00000000
00000000
,
00003300
00000000
00000000
00000000
;

//---------------dance-double - Kyzentun----------------
#NOTES:
     dance-double:
     Kyzentun:
     Medium:
     8:
     0.663,0.411,0.390,0.705,0.000:
00001000
00010000
00001000
00000000
00001000
00010000
00001000
00000000
,
00100000
01000000
00100000
00000000
00100000
01000000
00100000
00000000
,
00001000
00010000
00001000
00000000
00001000
00010000
00001000
00000000
,
00000100
00000010
00000100
00000000
00000100
00000010
00000100
00000000
,
00000001
00000100
00000001
00000100
00000010
00001000
00000010
00001000
,
00000100
00010000
00000100
00010000
00001000
00100000
00001000
00100000
,
00010000
01000000
00010000
01000000
00100000
10000000
00100000
10000000
,
01000000
00100000
01000000
00100000
00001000
00010000
00001000
00010000
,
00000020
00000000
00002000
00000000
,
00020000
00000000
00000000
00000030
00003010
00001000
00000010
00001000
,
00030002
00000000
00000200
00000000
,
00000020
00000000
00000000
00000003
00000301
00000100
00000001
00000100
,
00002030
00020000
00000000
00000000
,
00000000
00000000
00000000
00000000
00000010
00100000
00000010
00100000
,
00000020
00200000
00000000
00000000
,
00000000
00000000
00000000
00003000
00031000
00010000
00001000
00010000
,
00321030
00001000
00000000
00030000
01002000
01000000
00000000
00003000
,
02010000
00010000
00000000
03010000
10000000
01000000
00100000
00001000
,
00012000
00010000
00000000
00003000
00020100
00000100
00000000
00030000
,
00001200
00001000
00000000
00001300
00000001
00000010
00000100
00010000
,
00002000
00000000
00020000
00000000
00100000
00100000
00000000
00000000
,
00000010
00000010
00000000
00033000
00001000
00010000
00000100
00001000
,
00000200
00000000
00000020
00000000
00000001
00000001
00000000
00000000
,
00000001
00000001
00000000
00000330
00000100
00000010
00000001
00000010
,
00000021
00000001
00000000
00000030
00002100
00000100
00000000
00003000
,
00012000
00010000
00000000
00013000
00001000
01000000
00010000
10000000
,
20100000
00100000
00000000
30000000
00120000
00100000
00000000
00030000
,
00021000
00001000
00000000
00031000
00010000
00000010
00001000
00000010
,
00000200
00000000
00000002
00000000
00000010
00000010
00000000
00000000
,
00001000
00001000
00000000
00000303
00000100
00001000
00010000
00001000
,
00200000
00000000
00020000
00000000
00001000
00001000
00000000
00000000
,
10000000
10000000
00000000
00330000
00100000
00010000
10000000
00100000
,
01000000
00002000
00023000
00030200
,
00000320
00000000
00002030
00000000
00003020
00000000
00000032
00000003
,
00000101
00001100
00000110
00000011
,
00001010
00011000
00110000
10100000
,
11000000
02000000
03200000
00302000
,
00023000
00000000
00000000
00000000
00030020
00000000
00000000
00000000
00000230
00000000
00000000
00000000
00000302
00000000
00000000
00000003
,
00000101
00001100
00011000
01010000
,
11000000
01100000
00110000
00011000
,
00010000
00000100
00010000
00000100
00010000
00000100
00010000
00000100
,
00001000
00000001
00001000
00000001
00001000
00000001
00001000
00000001
,
00000100
00000010
00000100
00000010
00000100
00000010
00000100
00000010
,
00010000
00001000
00010000
00001000
00010000
00001000
00010000
00001000
,
01000000
00010000
10000000
01000000
00010000
00001000
00000100
00000001
,
00000100
00001000
00010000
01000000
10000000
00100000
00010000
00001000
,
00000010
00000001
00000010
00001000
00010000
00100000
10000000
00100000
,
00010000
00001000
00010000
01000000
00010000
00001000
00000100
00001000
,
00020000
00000000
00002000
00000000
,
00200000
00000000
00000000
00030000
00013000
00001000
00010000
00001000
,
00320000
00000000
00000200
00000000
,
00000020
00000000
00000000
00000000
00000000
00000000
00000000
00030000
00010300
00000000
00000100
00000000
00010000
00000000
00000100
00000000
,
00002030
00000200
00000000
00000000
,
00000000
00000000
00000000
00000000
00000001
00000010
00000001
00000010
,
00000002
00000020
00000000
00000000
,
00000033
00000000
00000000
00000000
00003300
00001000
00000100
00001000
,
00002100
00000100
00000000
00003000
00012000
00010000
00000000
00003000
,
00210000
00010000
00000000
00310000
00100000
01000000
10000000
00100000
,
10200000
10000000
00000000
00300000
02010000
00010000
00000000
03000000
,
00012000
00010000
00000000
00013000
00000010
00001000
00000001
00001000
,
00000200
00000000
00020000
00000000
00000010
00000010
00000000
00000000
,
00100000
00100000
00000000
00030300
00000100
00010000
00001000
00100000
,
00020000
00000000
02000000
00000000
00100000
00100000
00000000
00000000
,
10000000
10000000
00000000
03030000
00010000
10000000
00100000
01000000
,
02010000
00010000
00000000
03000000
00012000
00010000
00000000
00003000
,
00210000
00010000
00000000
00310000
00100000
00001000
00010000
00000010
,
00001020
00001000
00000000
00000030
00000210
00000010
00000000
00000300
,
00001020
00001000
00000000
00001030
00000010
00010000
00001000
01000000
,
00020000
00000000
20000000
00000000
00100000
00100000
00000000
00000000
,
00001000
00001000
00000000
30030000
00010000
00100000
00001000
00010000
,
00000020
00000000
00000200
00000000
00001000
00001000
00000000
00000000
,
00010000
00010000
00000000
00000330
00000010
00001000
00010000
00001000
,
00000010
00000000
00000000
00000000
;

//---------------dance-double - Kyzentun----------------
#NOTES:
     dance-double:
     Kyzentun:
     Easy:
     5:
     0.437,0.274,0.162,0.867,0.000:
00001000
00010000
00001000
00010000
,
00100000
01000000
00100000
01000000
,
00001000
00010000
00001000
00010000
,
00000100
00000010
00000100
00000010
,
00000001
00000100
00000001
00000100
,
00000010
00010000
00000010
00010000
,
00001000
01000000
00001000
01000000
,
00010000
10000000
00010000
10000000
,
00002000
00000000
00200000
00000000
,
00020000
00000000
00000000
00333000
,
00002000
00000000
00020000
00000000
,
00000020
00000000
00000000
00033030
,
00002000
00020000
00000000
00000000
,
00000000
00000000
00000010
00100000
,
00000020
00200000
00000000
00000000
,
00000000
00033000
00001000
00010000
,
00302030
00000000
00023000
00000000
,
00030200
00000000
00001300
00000001
,
00000200
00000000
00000320
00000000
,
00002030
00000000
00003001
00000010
,
00002000
00020000
00100000
00000000
,
00000010
00033000
00001000
00100000
,
00020000
02000000
00100000
00000000
,
10000000
03030000
00010000
10000000
,
00200000
00000000
20300000
00000000
,
32000000
00000000
03010000
00001000
,
00000020
00000000
00000230
00000000
,
00002300
00000000
00003100
00000010
,
00000002
00000200
00000010
00000000
,
00001000
00000303
00000001
00000100
,
00002000
00020000
00100000
00000000
,
00000010
00033000
00001000
00100000
,
02000000
23000000
30020000
00230000
,
00320000
00000000
02030000
00000000
03200000
00000000
02300000
03000000
,
01100000
01100000
01010000
01010000
,
00011000
00011000
00001100
00001100
,
00000110
00000020
00000230
00002300
,
00003002
00000000
00002003
00000000
00003020
00000000
00000230
00000300
,
00000110
00000110
00001010
00001010
,
00011000
00011000
00110000
00110000
,
00020000
02030000
03200000
20300000
,
32000000
03200000
02300000
03020000
,
00032000
00023000
00030020
00002030
,
00003002
00000023
00000230
00000320
,
00000031
00000100
00001000
00010000
,
00100000
10000000
01000000
00010000
,
00001000
00000010
00000001
00000100
,
00001000
00010000
01000000
10000000
,
00020000
00000000
02000000
00000000
,
00200000
00000000
00000000
03330000
,
00002000
00000000
00020000
00000000
,
00200000
00000000
00000000
00333000
,
00000200
00002000
00000000
00000000
,
00000000
00000000
00000010
00010000
,
00000020
00020000
00000000
00000000
,
00000000
00003300
00000100
00001000
,
00030230
00000000
00000320
00000000
,
00000032
00000000
00000013
00001000
,
00020000
00000000
00032000
00000000
,
02003000
00000000
03010000
00100000
,
02000000
20000000
00100000
00000000
,
00010000
33000000
01000000
00010000
,
00002000
00020000
00100000
00000000
,
00000010
00033000
00001000
00000100
,
00000002
00000000
00000023
00000000
,
00000230
00000000
00000301
00000100
,
00020000
00000000
00032000
00000000
,
02003000
00000000
03100000
10000000
,
02000000
20000000
00100000
00000000
,
00010000
33000000
01000000
00010000
,
00000200
00000020
00000001
00000000
,
00001000
00000330
00000100
00010000
,
00000010
00000000
00000000
00000000
;
