#TITLE:Addicted;
#SUBTITLE:;
#ARTIST:Kelly Clarkson;
#TITLETRANSLIT:;
#SUBTITLETRANSLIT:;
#ARTISTTRANSLIT:;
#GENRE:;
#CREDIT:Steps, Kyzentun - Sync, Kyzentun;
#BANNER:;
#BACKGROUND:;
#LYRICSPATH:;
#CDTITLE:cdtitle.png;
#MUSIC:addicted.ogg;
#OFFSET:0.000;
#SAMPLESTART:63.409;
#SAMPLELENGTH:14.000;
#SELECTABLE:YES;
#BPMS:0.000=66.678;
#STOPS:;
#TIMESIGNATURES:0.000=4=4
;
#BGCHANGES:;
#KEYSOUNDS:;

//---------------dance-single - Kyzentun----------------
#NOTES:
     dance-single:
     Kyzentun:
     Hard:
     9:
     0.409,0.567,0.419,0.239,0.609,295.000,56.000,32.000,14.000,18.000,2.000,0.409,0.567,0.419,0.239,0.609,295.000,56.000,32.000,14.000,18.000,2.000: // measure 1
0000
0000
0000
0000
,  // measure 2
0000
0000
0000
1000
0100
0010
0001
0000
0010
0010
0000
0000
,  // measure 3
0100
0100
1000
0001
0100
0001
1000
0000
0000
0001
0000
0000
,  // measure 4
1000
0000
0010
0100
0000
0000
0110
0000
0000
1010
0000
0110
,  // measure 5
0110
0000
0000
0010
0000
0100
0100
0000
0000
0001
0000
0000
,  // measure 6
0100
0000
0100
0001
0000
1000
0010
0000
1000
0100
0000
0010
,  // measure 7
0100
0000
0000
1000
0000
0001
0001
0000
1000
0010
0000
0100
,  // measure 8
0010
0000
1000
0010
0000
0100
0001
0000
1000
0010
0001
0010
,  // measure 9
1000
1000
1000
0100
0001
0100
2200
0000
0000
0020
0000
0030
,  // measure 10
0020
0000
3000
0000
0300
1000
0001
0000
0100
0000
0001
0000
0202
0000
0000
0000
0300
0000
0133
0000
0000
0000
0001
0000
,  // measure 11
0101
0000
0000
0100
0010
1000
2200
0000
0000
0002
0000
0003
,  // measure 12
3302
0000
0003
0002
0100
0010
0100
0000
0010
0100
0000
0220
,  // measure 13
0003
0000
0330
0000
0000
0010
0001
0000
1000
0000
0010
0000
2020
0000
0000
0000
0000
0000
0002
0000
0000
0000
0000
0000
,  // measure 14
3030
0000
0010
1000
0000
0100
0010
0000
0100
1000
0000
0010
,  // measure 15
1003
0000
0000
0010
0000
1000
0001
0010
0010
0010
0000
0001
,  // measure 16
1000
0010
0010
0010
0000
0100
0010
0000
1000
0100
0000
1000
,  // measure 17
0001
0000
0000
0000
0000
0001
0100
0000
1000
0000
0100
0000
0101
0000
0000
0000
0000
0000
0100
0000
0000
0000
0000
0000
,  // measure 18
0100
0000
0000
0000
0000
0000
0000
0000
0000
0000
0000
0000
0000
0000
0000
0000
0000
0000
0000
0000
0000
0000
0000
0000
0000
0000
0000
0000
0000
0000
0000
0000
0000
0000
0000
0000
0000
0000
0000
0000
0001
0000
0000
0000
0000
0000
0000
0000
0100
0000
0000
0000
0000
0000
0000
0000
0000
0000
0000
0000
0000
0000
0000
0000
1000
0000
0000
0000
0000
0000
0000
0000
0000
0000
0000
0000
0000
0000
0000
0000
0100
0000
0000
0000
0000
0000
0000
0000
0000
0000
0000
0000
0000
0000
0000
0000
0101
0000
0000
0000
0000
0000
0000
0000
0000
0000
0000
0000
0000
0000
0000
0000
0000
0000
0000
0000
0000
0000
0000
0000
0000
0000
0000
0000
0000
0000
0000
0000
0000
0000
0000
0000
0000
0000
0000
0000
0000
0000
0000
0000
0000
0000
M000
0000
00M0
0000
0000
0000
0000
0000
0000
0000
0000
0000
0000
0000
0000
0000
0000
0000
00M0
0000
0000
0000
0000
0000
0000
0000
0000
0000
0000
0000
0000
0000
0000
0000
00M0
0000
0000
0000
0000
0000
0000
0000
0000
0000
0000
0000
0000
0000
0000
0000
,  // measure 19
00M0
0000
0000
00M0
00M0
1000
1001
0001
0001
M011
0010
0010
,  // measure 20
0110
0100
0100
110M
1000
1000
1010
0010
0010
1M10
1000
1000
,  // measure 21
1001
0001
0001
01M1
0100
0100
1100
1000
1000
110M
0100
0100
,  // measure 22
0110
0010
0010
M011
0001
0001
0011
0010
0010
011M
0100
0100
,  // measure 23
0101
0000
0001
0000
0001
0000
1001
0000
1000
0001
1000
0000
1001
0000
0001
0000
0010
0000
0110
0000
0100
0000
1000
0000
,  // measure 24
1001
0000
0001
0000
0100
0000
0110
0000
0010
1000
0001
0000
1100
0000
0010
0000
0100
0000
0011
0000
1000
0000
0010
0000
,  // measure 25
0110
0000
1000
0000
0100
0000
1010
0000
0001
0001
0100
0001
1001
0000
0100
0000
0001
0000
0101
0000
0100
0000
0010
0000
,  // measure 26
0011
0000
1000
0010
0100
0000
0101
0100
0001
1000
0100
0000
0011
0000
0110
0000
1100
0000
1001
0000
0101
0000
0110
0000
,  // measure 27
0101
0000
1010
0000
0110
0000
1001
0000
0440
0000
0000
0000
0000
0000
0000
0000
0330
1000
0001
0000
0100
0000
0010
0000
,  // measure 28
2020
0000
0000
0000
0000
0000
0002
0000
0000
0000
0003
0000
0200
0000
0000
0000
0030
0010
3001
0000
1000
0000
0010
0000
,  // measure 29
0002
0000
0000
2003
0000
0010
0020
0300
3000
1030
0001
0010
,  // measure 30
0220
0000
0000
0002
0000
0000
2003
0000
0000
3332
0100
1000
,  // measure 31
0010
0000
0000
0000
0100
0000
0010
0000
0000
0000
1000
0000
0003
0000
0000
0000
0000
1000
0100
0000
0001
0000
0100
0000
,  // measure 32
2200
0000
0000
3300
0000
0000
0000
0000
1000
0001
0000
0100
,  // measure 33
0010
0000
1000
0010
0000
0100
0001
0000
0000
0100
0000
0001
,  // measure 34
1000
0100
0100
0100
0000
1000
0001
0100
0100
0100
0000
0010
,  // measure 35
0100
0000
0000
0000
0001
0000
0010
0000
0000
0000
0001
0000
1000
0000
0000
0000
0000
1000
0010
0000
0001
0000
0010
0000
,  // measure 36
1010
0000
0000
0000
0000
0000
0010
0000
0000
0000
0000
0000
0010
0000
0000
0000
0000
1000
0010
0000
0001
0000
0010
0000
,  // measure 37
2020
0000
0000
0030
,  // measure 38
3000
0000
0000
0000
;
