#TITLE:140BPM Streamathon Warmup;
#SUBTITLE:;
#ARTIST:oGame vs MCW;
#TITLETRANSLIT:;
#SUBTITLETRANSLIT:;
#ARTISTTRANSLIT:;
#GENRE:;
#CREDIT:;
#BANNER:140.PNG;
#BACKGROUND:;
#LYRICSPATH:;
#CDTITLE:;
#MUSIC:140BPM Streamathon Warmup.ogg;
#OFFSET:-0.039;
#SAMPLESTART:56.600;
#SAMPLELENGTH:12.000;
#SELECTABLE:YES;
#BPMS:0.000=140.000;
#STOPS:;
#BGCHANGES:;
#KEYSOUNDS:;

//---------------dance-single - Blank----------------
#NOTES:
     dance-single:
     Wildfireskunk:
     Edit:
     14:
     1.000,0.760,0.001,0.003,1.000: // measure 1
0000
0000
0000
0000
,  // measure 2
1000
0100
0010
0001
1000
0100
0010
0001
1000
0100
0010
0001
1000
0100
0010
0001
,  // measure 3
1000
0010
0100
0001
1000
0010
0100
0001
1000
0010
0100
0001
1000
0010
0100
0001
,  // measure 4
1000
0100
0010
0001
1000
0100
0010
0001
1000
0100
0010
0001
1000
0100
0010
0001
,  // measure 5
1000
0010
0100
0001
1000
0010
0100
0001
1000
0010
0100
0001
1000
0010
0100
0001
,  // measure 6
1000
0100
0010
0001
0010
0100
1000
0001
0100
0010
1000
0100
0010
0001
0010
0001
,  // measure 7
0100
0010
1000
0100
0010
0100
1000
0001
0100
0010
0100
0001
1000
0100
0010
0001
,  // measure 8
0100
0010
1000
0100
0010
0001
0100
0010
1000
0100
0010
0001
0100
0010
0100
0001
,  // measure 9
0010
0100
1000
0010
0100
0001
0010
0100
1000
0100
0010
0001
0010
0100
1000
0100
,  // measure 10
1000
0001
1000
0001
1000
0010
1000
0010
0100
0010
0100
0010
1000
0010
1000
0010
,  // measure 11
1000
0001
1000
0001
0010
0001
0010
0001
0100
0001
0100
0001
1000
0001
1000
0001
,  // measure 12
1000
0100
0010
0001
1000
0100
0010
0001
0010
0100
1000
0001
0010
0100
1000
0001
,  // measure 13
0100
0010
1000
0001
0100
0010
1000
0010
0100
0001
1000
0010
0100
0001
1000
0100
,  // measure 14
0010
0001
1000
0100
0010
0001
0010
0100
0010
0001
0010
0100
0010
0001
0010
0100
,  // measure 15
0010
0001
0100
0010
1000
0100
0010
0100
1000
0100
0010
0100
1000
0100
0010
0100
,  // measure 16
1000
0001
0010
0100
1000
0001
0010
0100
1000
0001
0010
0100
1000
0001
1000
0100
,  // measure 17
0010
0001
1000
0001
1000
0001
1000
0100
0010
0001
1000
0100
0010
0001
1000
0100
,  // measure 18
1000
0001
1000
0100
1000
0001
1000
0001
0100
0001
1000
0001
0100
0001
1000
0001
,  // measure 19
0100
0010
0100
0001
1000
0100
0010
0100
1000
0001
0100
0010
1000
0100
0010
0001
,  // measure 20
0010
0100
0010
0001
1000
0100
0010
0001
0010
0100
1000
0100
0010
0001
0010
0100
,  // measure 21
1000
0001
0100
0010
1000
0100
0010
0001
0100
0010
0100
0001
0010
0100
0010
0001
,  // measure 22
1000
0100
0010
0100
1000
0001
1000
0100
1000
0001
0100
0010
0100
0001
0100
0001
,  // measure 23
1000
0100
1000
0010
1000
0010
0100
0001
0100
0010
1000
0100
0010
0100
1000
0001
,  // measure 24
0100
0010
0100
0001
1000
0100
1000
0010
1000
0100
1000
0001
0100
0001
0010
0001
,  // measure 25
0100
0001
0010
0100
1000
0100
0010
0001
0010
0001
0010
0100
1000
0100
1000
0001
,  // measure 26
0100
0010
1000
0100
0010
0001
0010
0100
1000
0100
0010
0100
0010
0001
0010
0100
,  // measure 27
0010
0100
1000
0100
0010
0001
0100
0010
0100
0001
0100
0010
1000
0010
0100
0001
,  // measure 28
0100
0010
0100
0001
0010
0100
0010
0001
0010
0100
1000
0100
1000
0100
0010
0001
,  // measure 29
0100
0010
0100
0010
1000
0100
0010
0001
0010
0100
0010
0001
1000
0100
1000
0001
,  // measure 30
1000
0001
0100
0001
1000
0001
0100
0010
1000
0001
1000
0010
0100
0001
1000
0100
,  // measure 31
1000
0001
0010
0100
0010
0001
1000
0100
0010
0100
1000
0001
0010
0100
0010
0001
,  // measure 32
1000
0001
0100
0001
0010
0100
1000
0010
0100
0001
1000
0100
0010
0100
0010
0100
,  // measure 33
1000
0001
1000
0001
0100
0010
1000
0001
1000
0010
0100
0001
0100
0010
1000
0100
,  // measure 34
0010
0001
0010
0100
1000
0100
0010
0001
0010
0100
1000
0100
0010
0001
0010
0100
,  // measure 35
1000
0100
0010
0100
1000
0100
0010
0100
1000
0100
0010
0001
0010
0100
0010
0001
,  // measure 36
0010
0100
0010
0001
1000
0100
0010
0100
1000
0001
0100
0010
0100
0010
0100
0001
,  // measure 37
0010
0100
1000
0001
1000
0001
1000
0100
0010
0001
1000
0100
0010
0001
1000
0001
,  // measure 38
1000
0001
0010
0100
1000
0001
0010
0100
1000
0100
0010
0001
1000
0100
0010
0001
,  // measure 39
0100
0010
1000
0001
0100
0010
1000
0010
0100
0001
1000
0010
0100
0001
0100
0001
,  // measure 40
0010
0001
0100
0001
0010
0100
1000
0100
1000
0010
1000
0100
1000
0010
1000
0001
,  // measure 41
1000
0100
0010
0001
1000
0001
0010
0100
1000
0001
1000
0100
1000
0001
0100
0010
,  // measure 42
1000
0001
0100
0001
1000
0001
0100
0010
1000
0001
1000
0010
0100
0001
1000
0100
,  // measure 43
1000
0100
1000
0001
0010
0001
0010
0100
0010
0100
0010
0001
1000
0100
1000
0001
,  // measure 44
0100
0001
1000
0010
1000
0001
0100
0001
1000
0010
0100
0010
1000
0100
1000
0010
,  // measure 45
0100
0001
0010
0100
0010
0001
0100
0010
1000
0100
0010
0001
0010
0100
1000
0001
,  // measure 46
0100
0010
0100
0010
1000
0100
0010
0100
1000
0001
0100
0010
0100
0010
0100
0001
,  // measure 47
1000
0100
1000
0001
0100
0010
1000
0100
0010
0001
0100
0010
1000
0100
0010
0001
,  // measure 48
0010
0100
1000
0010
0100
0001
0010
0100
1000
0010
0100
0001
0010
0100
1000
0001
,  // measure 49
0010
0100
1000
0001
0010
0100
1000
0001
0010
0100
1000
0100
0010
0001
1000
0100
,  // measure 50
0010
0001
1000
0100
0010
0001
1000
0100
0010
0001
0010
0100
1000
0001
0010
0100
,  // measure 51
1000
0100
0010
0001
1000
0100
0010
0001
0010
0100
1000
0100
0010
0001
0010
0100
,  // measure 52
1000
0100
0010
0001
0010
0100
1000
0001
0010
0100
1000
0100
0010
0001
1000
0100
,  // measure 53
0010
0001
1000
0010
0100
0001
1000
0100
0010
0001
1000
0010
0100
0001
1000
0100
,  // measure 54
0010
0001
1000
0100
0010
0100
1000
0001
0010
0100
1000
0001
0100
0010
1000
0100
,  // measure 55
0010
0001
1000
0100
0010
0100
1000
0010
0100
0010
1000
0100
0010
0100
1000
0001
,  // measure 56
0010
0100
0010
0001
0100
0010
0100
0001
0010
0100
0010
0001
1000
0100
1000
0010
,  // measure 57
1000
0100
0010
0001
0100
0010
1000
0100
1000
0001
0100
0001
1000
0001
0010
0100
,  // measure 58
1000
0001
0100
0010
0100
0001
1000
0001
1000
0001
0100
0010
1000
0100
0010
0100
,  // measure 59
1000
0001
0100
0001
1000
0100
1000
0001
0100
0001
0010
0100
1000
0010
1000
0001
,  // measure 60
0010
0001
1000
0010
0100
0001
0010
0100
1000
0100
0010
0100
1000
0100
1000
0010
,  // measure 61
1000
0100
1000
0010
1000
0010
1000
0100
1000
0001
0010
0001
0100
0001
0010
0001
,  // measure 62
0100
0001
0010
0001
0100
0001
0010
0100
1000
0100
0010
0100
1000
0100
0010
0001
,  // measure 63
0010
0100
0010
0001
1000
0100
0010
0001
0010
0001
1000
0100
0010
0001
0010
0001
,  // measure 64
1000
0100
1000
0100
0010
0100
0010
0100
0010
0001
0010
0001
1000
0001
1000
0001
,  // measure 65
0100
0001
0100
0001
0010
0100
0010
0100
1000
0100
1000
0100
1000
0001
1000
0001
,  // measure 66
0010
0100
1000
0100
0010
0001
0100
0010
1000
0100
0010
0100
1000
0001
0010
0100
,  // measure 67
1000
0010
0100
0001
0010
0100
0010
0100
1000
0001
1000
0010
0100
0010
1000
0100
,  // measure 68
0010
0100
0010
0100
1000
0001
0100
0010
0100
0010
1000
0100
0010
0001
0010
0100
,  // measure 69
1000
0001
0100
0010
1000
0100
0010
0001
0010
0100
1000
0001
0010
0100
1000
0100
,  // measure 70
0010
0001
1000
0100
1000
0100
1000
0100
0010
0001
0010
0100
1000
0100
0010
0001
,  // measure 71
0010
0001
0010
0001
0010
0100
1000
0001
1000
0100
0010
0001
1000
0001
0100
0010
,  // measure 72
0100
0001
1000
0001
1000
0100
0010
0001
1000
0100
0010
0001
1000
0100
1000
0001
,  // measure 73
1000
0100
1000
0001
1000
0001
0100
0001
1000
0001
0100
0001
1000
0001
0100
0010
,  // measure 74
0100
0001
1000
0100
0010
0100
1000
0001
0100
0010
1000
0100
0010
0001
0010
0100
,  // measure 75
0010
0001
1000
0100
0010
0001
0010
0100
1000
0100
0010
0001
0010
0100
1000
0001
,  // measure 76
0010
0100
1000
0001
0100
0010
1000
0001
0100
0010
1000
0010
0100
0001
1000
0010
,  // measure 77
0100
0001
1000
0100
0010
0001
1000
0100
0010
0001
0010
0100
0010
0001
0100
0001
,  // measure 78
1000
0001
0010
0100
1000
0001
0100
0010
0100
0001
1000
0001
1000
0001
0100
0010
,  // measure 79
1000
0100
0010
0100
1000
0001
0100
0001
1000
0100
1000
0001
0100
0001
0010
0100
,  // measure 80
1000
0010
1000
0001
0010
0100
1000
0100
0010
0001
0010
0100
1000
0001
0100
0010
,  // measure 81
1000
0100
0010
0001
0010
0001
0100
0010
1000
0100
0010
0100
1000
0001
0100
0010
,  // measure 82
0100
0001
1000
0100
0010
0001
0100
0010
1000
0100
0010
0001
0100
0010
1000
0100
,  // measure 83
0010
0001
0100
0010
0100
0001
0010
0100
1000
0010
0100
0001
0010
0100
1000
0100
,  // measure 84
0010
0001
0010
0100
1000
0100
1000
0001
1000
0001
1000
0010
1000
0010
0100
0010
,  // measure 85
1000
0001
0100
0001
1000
0001
0100
0010
1000
0001
1000
0010
0100
0001
1000
0100
,  // measure 86
1000
0001
0010
0100
0010
0001
1000
0100
0010
0100
1000
0001
0010
0100
0010
0001
,  // measure 87
1000
0001
0100
0001
0010
0100
1000
0010
0100
0001
1000
0100
0010
0100
0010
0100
,  // measure 88
1000
0001
1000
0001
0100
0010
1000
0001
1000
0010
0100
0001
0100
0010
1000
0100
,  // measure 89
0010
0001
0010
0100
1000
0100
0010
0001
0010
0100
1000
0100
0010
0001
0010
0100
,  // measure 90
1000
0100
0010
0100
1000
0100
0010
0100
1000
0100
0010
0001
0010
0100
0010
0001
,  // measure 91
0010
0100
0010
0001
1000
0100
0010
0100
1000
0001
0100
0010
0100
0010
0100
0001
,  // measure 92
0010
0100
1000
0001
1000
0001
1000
0100
0010
0001
1000
0100
0010
0001
1000
0001
,  // measure 93
1000
0001
0010
0100
1000
0001
0010
0100
1000
0100
0010
0001
1000
0100
0010
0001
,  // measure 94
0100
0010
1000
0001
0100
0010
1000
0010
0100
0001
1000
0010
0100
0001
0100
0001
,  // measure 95
0010
0001
0100
0001
0010
0100
1000
0100
1000
0010
1000
0100
1000
0010
1000
0001
,  // measure 96
1000
0100
0010
0001
1000
0001
0010
0100
1000
0001
1000
0100
1000
0001
0100
0010
,  // measure 97
1000
0001
0100
0001
1000
0001
0100
0010
1000
0001
1000
0010
0100
0001
1000
0100
,  // measure 98
1000
0100
1000
0001
0010
0001
0010
0100
0010
0100
0010
0001
1000
0100
1000
0001
,  // measure 99
0100
0001
1000
0010
1000
0001
0100
0001
1000
0010
0100
0010
1000
0100
1000
0010
,  // measure 100
0100
0001
0010
0100
0010
0001
0100
0010
1000
0100
0010
0001
0010
0100
1000
0001
,  // measure 101
0100
0010
0100
0010
1000
0100
0010
0100
1000
0001
0100
0010
0100
0010
0100
0001
,  // measure 102
1000
0100
1000
0001
0100
0010
1000
0100
0010
0001
0100
0010
1000
0100
0010
0001
,  // measure 103
0010
0100
1000
0010
0100
0001
0010
0100
1000
0001
0100
0001
1000
0001
0100
0010
,  // measure 104
1000
0001
1000
0010
0100
0001
1000
0100
1000
0001
0010
0100
0010
0001
1000
0100
,  // measure 105
0010
0100
1000
0001
0010
0100
0010
0001
1000
0001
0100
0001
0010
0100
1000
0010
,  // measure 106
0100
0001
1000
0100
0010
0100
0010
0100
1000
0001
1000
0001
0100
0010
1000
0001
,  // measure 107
1000
0010
0100
0001
0100
0010
1000
0100
0010
0001
0010
0100
1000
0100
0010
0001
,  // measure 108
0010
0100
1000
0100
0010
0001
0010
0100
1000
0100
0010
0100
1000
0100
0010
0100
,  // measure 109
1000
0100
0010
0001
0010
0100
0010
0001
0010
0100
0010
0001
1000
0100
0010
0100
,  // measure 110
1000
0001
0100
0010
0100
0010
0100
0001
0010
0100
1000
0001
1000
0001
1000
0100
,  // measure 111
0010
0001
1000
0100
0010
0001
1000
0001
1000
0001
0010
0100
1000
0001
0010
0100
,  // measure 112
1000
0100
0010
0001
1000
0100
0010
0001
0100
0010
1000
0001
0100
0010
1000
0010
,  // measure 113
0100
0001
1000
0010
0100
0001
0100
0001
0010
0001
0100
0001
0010
0100
1000
0100
,  // measure 114
1000
0010
1000
0100
1000
0010
1000
0001
1000
0100
0010
0001
1000
0001
0010
0100
,  // measure 115
1000
0001
1000
0100
1000
0001
0100
0010
1000
0001
0100
0001
1000
0001
0100
0010
,  // measure 116
1000
0001
1000
0010
0100
0001
1000
0100
1000
0100
1000
0001
0010
0001
0010
0100
,  // measure 117
0010
0100
0010
0001
1000
0100
1000
0001
0100
0001
1000
0010
1000
0001
0100
0001
,  // measure 118
1000
0010
0100
0010
1000
0100
1000
0010
0100
0001
0010
0100
0010
0001
0100
0010
,  // measure 119
1000
0100
0010
0001
0010
0100
1000
0001
0100
0010
0100
0010
1000
0100
0010
0100
,  // measure 120
1000
0001
0100
0010
0100
0010
0100
0001
1000
0100
1000
0001
0100
0010
1000
0100
,  // measure 121
0010
0001
0100
0010
1000
0100
0010
0001
0010
0100
1000
0010
0100
0001
0010
0100
,  // measure 122
1000
0010
0100
0001
0010
0100
1000
0001
0010
0100
1000
0001
0010
0100
1000
0001
,  // measure 123
0010
0100
1000
0100
0010
0001
1000
0100
0010
0001
1000
0100
0010
0001
1000
0100
,  // measure 124
0010
0001
0010
0100
1000
0001
0010
0100
1000
0100
0010
0001
1000
0100
0010
0001
,  // measure 125
0010
0100
1000
0100
0010
0001
0010
0100
1000
0100
0010
0001
0010
0100
1000
0001
,  // measure 126
0010
0100
1000
0100
0010
0001
1000
0100
0010
0001
1000
0010
0100
0001
1000
0100
,  // measure 127
0010
0001
1000
0010
0100
0001
1000
0100
0010
0001
1000
0100
0010
0100
1000
0001
,  // measure 128
0010
0100
1000
0001
0100
0010
1000
0100
0010
0001
1000
0100
0010
0100
1000
0010
,  // measure 129
0100
0010
1000
0100
0010
0100
1000
0001
0010
0100
0010
0001
0100
0010
0100
0001
,  // measure 130
0010
0100
0010
0001
1000
0100
1000
0010
1000
0100
0010
0001
0100
0010
1000
0100
,  // measure 131
1000
0001
0100
0001
1000
0001
0010
0100
1000
0001
0100
0010
0100
0001
1000
0001
,  // measure 132
1000
0001
0100
0010
1000
0100
0010
0100
1000
0001
0100
0001
1000
0100
1000
0001
,  // measure 133
0100
0001
0010
0100
1000
0010
1000
0001
0010
0001
1000
0010
0100
0001
0010
0100
,  // measure 134
1000
0100
0010
0100
1000
0100
1000
0010
1000
0100
1000
0010
1000
0010
1000
0100
,  // measure 135
1000
0001
0010
0001
0100
0001
0010
0001
0100
0001
0010
0001
0100
0001
0010
0100
,  // measure 136
1000
0100
0010
0100
1000
0100
0010
0001
0010
0100
0010
0001
1000
0100
0010
0001
,  // measure 137
0010
0001
1000
0100
0010
0001
0010
0001
1000
0100
1000
0100
0010
0100
0010
0100
,  // measure 138
0010
0001
0010
0001
1000
0001
1000
0001
0100
0001
0100
0001
0010
0100
0010
0100
,  // measure 139
1000
0100
1000
0100
1000
0001
1000
0001
0010
0100
1000
0100
0010
0001
0100
0010
,  // measure 140
1000
0100
0010
0100
1000
0001
0010
0100
1000
0010
0100
0001
0010
0100
0010
0100
,  // measure 141
1000
0001
1000
0010
0100
0010
1000
0100
0010
0100
0010
0100
1000
0001
0100
0010
,  // measure 142
0100
0010
1000
0100
0010
0001
0010
0100
1000
0001
0100
0010
1000
0100
0010
0001
,  // measure 143
0010
0100
1000
0001
0010
0100
1000
0100
0010
0001
1000
0100
1000
0100
1000
0100
,  // measure 144
0010
0001
0010
0100
1000
0100
0010
0001
0010
0001
0010
0001
0010
0100
1000
0001
,  // measure 145
1000
0100
0010
0001
1000
0001
0100
0010
0100
0001
1000
0001
1000
0100
0010
0001
,  // measure 146
1000
0100
0010
0001
1000
0100
1000
0001
1000
0100
1000
0001
1000
0001
0100
0001
,  // measure 147
1000
0001
0100
0001
1000
0001
0100
0010
0100
0001
1000
0100
0010
0100
1000
0001
,  // measure 148
0100
0010
1000
0100
0010
0001
0010
0100
0010
0001
1000
0100
0010
0001
0010
0100
,  // measure 149
1000
0100
0010
0001
0010
0100
1000
0001
0010
0100
1000
0001
0100
0010
1000
0001
,  // measure 150
0100
0010
1000
0010
0100
0001
1000
0010
0100
0001
1000
0100
0010
0001
1000
0100
,  // measure 151
0010
0001
0010
0100
0010
0001
0100
0001
1000
0001
0010
0100
1000
0001
0100
0010
,  // measure 152
0100
0001
1000
0001
1000
0001
0100
0010
1000
0100
0010
0100
1000
0001
0100
0001
,  // measure 153
1000
0100
1000
0001
0100
0001
0010
0100
1000
0010
1000
0001
0010
0100
1000
0100
,  // measure 154
0010
0001
0010
0100
1000
0001
0100
0010
1000
0100
0010
0001
0010
0001
0100
0010
,  // measure 155
1000
0100
0010
0100
1000
0001
0100
0010
0100
0001
1000
0100
0010
0001
0100
0010
,  // measure 156
1000
0100
0010
0001
0100
0010
1000
0100
0010
0001
0100
0010
0100
0001
0010
0100
,  // measure 157
1000
0010
0100
0001
0010
0100
1000
0100
0010
0001
0010
0100
1000
0100
1000
0001
,  // measure 158
1000
0001
1000
0010
1000
0010
0100
0010
1000
0001
0100
0001
1000
0001
0100
0010
,  // measure 159
1000
0001
1000
0010
0100
0001
1000
0100
1000
0001
0010
0100
0010
0001
1000
0100
,  // measure 160
0010
0100
1000
0001
0010
0100
0010
0001
1000
0001
0100
0001
0010
0100
1000
0010
,  // measure 161
0100
0001
1000
0100
0010
0100
0010
0100
1000
0001
1000
0001
0100
0010
1000
0001
,  // measure 162
1000
0010
0100
0001
0100
0010
1000
0100
0010
0001
0010
0100
1000
0100
0010
0001
,  // measure 163
0010
0100
1000
0100
0010
0001
0010
0100
1000
0100
0010
0100
1000
0100
0010
0100
,  // measure 164
1000
0100
0010
0001
0010
0100
0010
0001
0010
0100
0010
0001
1000
0100
0010
0100
,  // measure 165
1000
0001
0100
0010
0100
0010
0100
0001
0010
0100
1000
0001
1000
0001
1000
0100
,  // measure 166
0010
0001
1000
0100
0010
0001
1000
0001
1000
0001
0010
0100
1000
0001
0010
0100
,  // measure 167
1000
0100
0010
0001
1000
0100
0010
0001
0100
0010
1000
0001
0100
0010
1000
0010
,  // measure 168
0100
0001
1000
0010
0100
0001
0100
0001
0010
0001
0100
0001
0010
0100
1000
0100
,  // measure 169
1000
0010
1000
0100
1000
0010
1000
0001
1000
0100
0010
0001
1000
0001
0010
0100
,  // measure 170
1000
0001
1000
0100
1000
0001
0100
0010
1000
0001
0100
0001
1000
0001
0100
0010
,  // measure 171
1000
0001
1000
0010
0100
0001
1000
0100
1000
0100
1000
0001
0010
0001
0010
0100
,  // measure 172
0010
0100
0010
0001
1000
0100
1000
0001
0100
0001
1000
0010
1000
0001
0100
0001
,  // measure 173
1000
0010
0100
0010
1000
0100
1000
0010
0100
0001
0010
0100
0010
0001
0100
0010
,  // measure 174
1000
0100
0010
0001
0010
0100
1000
0001
0100
0010
0100
0010
1000
0100
0010
0100
,  // measure 175
1000
0001
0100
0010
0100
0010
0100
0001
1000
0100
1000
0001
0100
0010
1000
0100
,  // measure 176
0010
0001
0100
0010
1000
0100
0010
0001
0010
0100
1000
0010
0100
0001
0010
0100
,  // measure 177
1000
0100
0010
0001
1000
0010
0100
0001
1000
0100
0010
0001
1000
0010
0100
0001
,  // measure 178
1000
0010
0100
0001
1000
0100
0010
0001
1000
0010
0100
0001
1000
0100
0010
0001
,  // measure 179
1000
0010
0100
0001
1000
0100
0010
0001
1000
0100
0010
0001
1000
0100
0010
0001
,  // measure 180
1000
0010
0100
0001
1000
0010
0100
0001
1000
0010
0100
0001
1000
0100
0010
0001
,  // measure 181
1000
0100
0010
0001
0010
0100
1000
0001
0100
0010
1000
0100
0010
0001
0010
0001
,  // measure 182
0100
0010
1000
0100
0010
0100
1000
0001
0100
0010
0100
0001
1000
0100
0010
0001
,  // measure 183
0100
0010
1000
0100
0010
0001
0100
0010
1000
0100
0010
0001
0100
0010
0100
0001
,  // measure 184
0010
0100
1000
0010
0100
0001
0010
0100
1000
0100
0010
0001
0010
0100
1000
0100
,  // measure 185
1000
0001
1000
0001
1000
0010
1000
0010
0100
0010
0100
0010
1000
0010
1000
0010
,  // measure 186
1000
0001
1000
0001
0010
0001
0010
0001
0100
0001
0100
0001
1000
0001
1000
0001
,  // measure 187
1000
0100
0010
0001
1000
0100
0010
0001
0010
0100
1000
0001
0010
0100
1000
0001
,  // measure 188
0100
0010
1000
0001
0100
0010
1000
0010
0100
0001
1000
0010
0100
0001
1000
0100
,  // measure 189
0010
0001
1000
0100
0010
0001
0010
0100
0010
0001
0010
0100
0010
0001
0010
0100
,  // measure 190
0010
0001
0100
0010
1000
0100
0010
0100
1000
0100
0010
0100
1000
0100
0010
0100
,  // measure 191
1000
0001
0010
0100
1000
0001
0010
0100
1000
0001
0010
0100
1000
0001
1000
0100
,  // measure 192
0010
0001
1000
0001
1000
0001
1000
0100
0010
0001
1000
0100
0010
0001
1000
0100
,  // measure 193
1000
0001
1000
0100
1000
0001
1000
0001
0100
0001
1000
0001
0100
0001
1000
0001
,  // measure 194
0100
0010
0100
0001
1000
0100
0010
0100
1000
0001
0100
0010
1000
0100
0010
0001
,  // measure 195
0010
0100
0010
0001
1000
0100
0010
0001
0010
0100
1000
0100
0010
0001
0010
0100
,  // measure 196
1000
0001
0100
0010
1000
0100
0010
0001
0100
0010
0100
0001
0010
0100
0010
0001
,  // measure 197
1000
0100
0010
0100
1000
0001
1000
0100
1000
0001
0100
0010
0100
0001
0100
0001
,  // measure 198
1000
0100
1000
0010
1000
0010
0100
0001
0100
0010
1000
0100
0010
0100
1000
0001
,  // measure 199
0100
0010
0100
0001
1000
0100
1000
0010
1000
0100
1000
0001
0100
0001
0010
0001
,  // measure 200
0100
0001
0010
0100
1000
0100
0010
0001
0010
0001
0010
0100
1000
0100
1000
0001
,  // measure 201
0100
0010
1000
0100
0010
0001
0010
0100
1000
0100
0010
0100
0010
0001
0010
0100
,  // measure 202
0010
0100
1000
0100
0010
0001
0100
0010
0100
0001
0100
0010
1000
0010
0100
0001
,  // measure 203
0100
0010
0100
0001
0010
0100
0010
0001
0010
0100
1000
0100
1000
0100
0010
0001
,  // measure 204
0100
0010
0100
0010
1000
0100
0010
0001
0010
0100
0010
0001
1000
0100
1000
0001
,  // measure 205
1000
0001
0100
0001
1000
0001
0100
0010
1000
0001
1000
0010
0100
0001
1000
0100
,  // measure 206
1000
0001
0010
0100
0010
0001
1000
0100
0010
0100
1000
0001
0010
0100
0010
0001
,  // measure 207
1000
0001
0100
0001
0010
0100
1000
0010
0100
0001
1000
0100
0010
0100
0010
0100
,  // measure 208
1000
0001
1000
0001
0100
0010
1000
0001
1000
0010
0100
0001
0100
0010
1000
0100
,  // measure 209
0010
0001
0010
0100
1000
0100
0010
0001
0010
0100
1000
0100
0010
0001
0010
0100
,  // measure 210
1000
0100
0010
0100
1000
0100
0010
0100
1000
0100
0010
0001
0010
0100
0010
0001
,  // measure 211
0010
0100
0010
0001
1000
0100
0010
0100
1000
0001
0100
0010
0100
0010
0100
0001
,  // measure 212
0010
0100
1000
0001
1000
0001
1000
0100
0010
0001
1000
0100
0010
0001
1000
0001
,  // measure 213
1000
0001
0010
0100
1000
0001
0010
0100
1000
0100
0010
0001
1000
0100
0010
0001
,  // measure 214
0100
0010
1000
0001
0100
0010
1000
0010
0100
0001
1000
0010
0100
0001
0100
0001
,  // measure 215
0010
0001
0100
0001
0010
0100
1000
0100
1000
0010
1000
0100
1000
0010
1000
0001
,  // measure 216
1000
0100
0010
0001
1000
0001
0010
0100
1000
0001
1000
0100
1000
0001
0100
0010
,  // measure 217
1000
0001
0100
0001
1000
0001
0100
0010
1000
0001
1000
0010
0100
0001
1000
0100
,  // measure 218
1000
0100
1000
0001
0010
0001
0010
0100
0010
0100
0010
0001
1000
0100
1000
0001
,  // measure 219
0100
0001
1000
0010
1000
0001
0100
0001
1000
0010
0100
0010
1000
0100
1000
0010
,  // measure 220
0100
0001
0010
0100
0010
0001
0100
0010
1000
0100
0010
0001
0010
0100
1000
0001
,  // measure 221
0100
0010
0100
0010
1000
0100
0010
0100
1000
0001
0100
0010
0100
0010
0100
0001
,  // measure 222
1000
0100
1000
0001
0100
0010
1000
0100
0010
0001
0100
0010
1000
0100
0010
0001
,  // measure 223
0010
0100
1000
0010
0100
0001
0010
0100
1000
0010
0100
0001
0010
0100
1000
0001
,  // measure 224
0010
0100
1000
0001
0010
0100
1000
0001
0010
0100
1000
0100
0010
0001
1000
0100
,  // measure 225
0010
0001
1000
0100
0010
0001
1000
0100
0010
0001
0010
0100
1000
0001
0010
0100
,  // measure 226
1000
0100
0010
0001
1000
0100
0010
0001
0010
0100
1000
0100
0010
0001
0010
0100
,  // measure 227
1000
0100
0010
0001
0010
0100
1000
0001
0010
0100
1000
0100
0010
0001
1000
0100
,  // measure 228
0010
0001
1000
0010
0100
0001
1000
0100
0010
0001
1000
0010
0100
0001
1000
0100
,  // measure 229
0010
0001
1000
0100
0010
0100
1000
0001
0010
0100
1000
0001
0100
0010
1000
0100
,  // measure 230
0010
0001
1000
0100
0010
0100
1000
0010
0100
0010
1000
0100
0010
0100
1000
0001
,  // measure 231
0010
0100
0010
0001
0100
0010
0100
0001
0010
0100
0010
0001
1000
0100
1000
0010
,  // measure 232
1000
0100
0010
0001
0100
0010
1000
0100
1000
0001
0100
0001
1000
0001
0010
0100
,  // measure 233
1000
0001
0100
0010
0100
0001
1000
0001
1000
0001
0100
0010
1000
0100
0010
0100
,  // measure 234
1000
0001
0100
0001
1000
0100
1000
0001
0100
0001
0010
0100
1000
0010
1000
0001
,  // measure 235
0010
0001
1000
0010
0100
0001
0010
0100
1000
0100
0010
0100
1000
0100
1000
0010
,  // measure 236
1000
0100
1000
0010
1000
0010
1000
0100
1000
0001
0010
0001
0100
0001
0010
0001
,  // measure 237
0100
0001
0010
0001
0100
0001
0010
0100
1000
0100
0010
0100
1000
0100
0010
0001
,  // measure 238
0010
0100
0010
0001
1000
0100
0010
0001
0010
0001
1000
0100
0010
0001
0010
0001
,  // measure 239
1000
0100
1000
0100
0010
0100
0010
0100
0010
0001
0010
0001
1000
0001
1000
0001
,  // measure 240
0100
0001
0100
0001
0010
0100
0010
0100
1000
0100
1000
0100
1000
0001
1000
0001
,  // measure 241
0010
0100
1000
0100
0010
0001
0100
0010
1000
0100
0010
0100
1000
0001
0010
0100
,  // measure 242
1000
0010
0100
0001
0010
0100
0010
0100
1000
0001
1000
0010
0100
0010
1000
0100
,  // measure 243
0010
0100
0010
0100
1000
0001
0100
0010
0100
0010
1000
0100
0010
0001
0010
0100
,  // measure 244
1000
0001
0100
0010
1000
0100
0010
0001
0010
0100
1000
0001
0010
0100
1000
0100
,  // measure 245
0010
0001
1000
0100
1000
0100
1000
0100
0010
0001
0010
0100
1000
0100
0010
0001
,  // measure 246
0010
0001
0010
0001
0010
0100
1000
0001
1000
0100
0010
0001
1000
0001
0100
0010
,  // measure 247
0100
0001
1000
0001
1000
0100
0010
0001
1000
0100
0010
0001
1000
0100
1000
0001
,  // measure 248
1000
0100
1000
0001
1000
0001
0100
0001
1000
0001
0100
0001
1000
0001
0100
0010
,  // measure 249
0100
0001
1000
0100
0010
0100
1000
0001
0100
0010
1000
0100
0010
0001
0010
0100
,  // measure 250
0010
0001
1000
0100
0010
0001
0010
0100
1000
0100
0010
0001
0010
0100
1000
0001
,  // measure 251
0010
0100
1000
0001
0100
0010
1000
0001
0100
0010
1000
0010
0100
0001
1000
0010
,  // measure 252
0100
0001
1000
0100
0010
0001
1000
0100
0010
0001
0010
0100
0010
0001
0100
0001
,  // measure 253
1000
0001
0010
0100
1000
0001
0100
0010
0100
0001
1000
0001
1000
0001
0100
0010
,  // measure 254
1000
0100
0010
0100
1000
0001
0100
0001
1000
0100
1000
0001
0100
0001
0010
0100
,  // measure 255
1000
0010
1000
0001
0010
0100
1000
0100
0010
0001
0010
0100
1000
0001
0100
0010
,  // measure 256
1000
0100
0010
0001
0010
0001
0100
0010
1000
0100
0010
0100
1000
0001
0100
0010
,  // measure 257
0100
0001
1000
0100
0010
0001
0100
0010
1000
0100
0010
0001
0100
0010
1000
0100
,  // measure 258
0010
0001
0100
0010
0100
0001
0010
0100
1000
0010
0100
0001
0010
0100
1000
0100
,  // measure 259
0010
0001
0010
0100
1000
0100
1000
0001
1000
0001
1000
0010
1000
0010
0100
0010
,  // measure 260
1000
0001
0100
0001
1000
0001
0100
0010
1000
0001
1000
0010
0100
0001
1000
0100
,  // measure 261
1000
0001
0010
0100
0010
0001
1000
0100
0010
0100
1000
0001
0010
0100
0010
0001
,  // measure 262
1000
0001
0100
0001
0010
0100
1000
0010
0100
0001
1000
0100
0010
0100
0010
0100
,  // measure 263
1000
0001
1000
0001
0100
0010
1000
0001
1000
0010
0100
0001
0100
0010
1000
0100
,  // measure 264
0010
0001
0010
0100
1000
0100
0010
0001
0010
0100
1000
0100
0010
0001
0010
0100
,  // measure 265
1000
0100
0010
0100
1000
0100
0010
0100
1000
0100
0010
0001
0010
0100
0010
0001
,  // measure 266
0010
0100
0010
0001
1000
0100
0010
0100
1000
0001
0100
0010
0100
0010
0100
0001
,  // measure 267
0010
0100
1000
0001
1000
0001
1000
0100
0010
0001
1000
0100
0010
0001
1000
0001
,  // measure 268
1000
0001
0010
0100
1000
0001
0010
0100
1000
0100
0010
0001
1000
0100
0010
0001
,  // measure 269
0100
0010
1000
0001
0100
0010
1000
0010
0100
0001
1000
0010
0100
0001
0100
0001
,  // measure 270
0010
0001
0100
0001
0010
0100
1000
0100
1000
0010
1000
0100
1000
0010
1000
0001
,  // measure 271
1000
0100
0010
0001
1000
0001
0010
0100
1000
0001
1000
0100
1000
0001
0100
0010
,  // measure 272
1000
0001
0100
0001
1000
0001
0100
0010
1000
0001
1000
0010
0100
0001
1000
0100
,  // measure 273
1000
0100
1000
0001
0010
0001
0010
0100
0010
0100
0010
0001
1000
0100
1000
0001
,  // measure 274
0100
0001
1000
0010
1000
0001
0100
0001
1000
0010
0100
0010
1000
0100
1000
0010
,  // measure 275
0100
0001
0010
0100
0010
0001
0100
0010
1000
0100
0010
0001
0010
0100
1000
0001
,  // measure 276
0100
0010
0100
0010
1000
0100
0010
0100
1000
0001
0100
0010
0100
0010
0100
0001
,  // measure 277
1000
0100
1000
0001
0100
0010
1000
0100
0010
0001
0100
0010
1000
0100
0010
0001
,  // measure 278
0010
0100
1000
0010
0100
0001
0010
0100
1000
0001
0100
0001
1000
0001
0100
0010
,  // measure 279
1000
0001
1000
0010
0100
0001
1000
0100
1000
0001
0010
0100
0010
0001
1000
0100
,  // measure 280
0010
0100
1000
0001
0010
0100
0010
0001
1000
0001
0100
0001
0010
0100
1000
0010
,  // measure 281
0100
0001
1000
0100
0010
0100
0010
0100
1000
0001
1000
0001
0100
0010
1000
0001
,  // measure 282
1000
0010
0100
0001
0100
0010
1000
0100
0010
0001
0010
0100
1000
0100
0010
0001
,  // measure 283
0010
0100
1000
0100
0010
0001
0010
0100
1000
0100
0010
0100
1000
0100
0010
0100
,  // measure 284
1000
0100
0010
0001
0010
0100
0010
0001
0010
0100
0010
0001
1000
0100
0010
0100
,  // measure 285
1000
0001
0100
0010
0100
0010
0100
0001
0010
0100
1000
0001
1000
0001
1000
0100
,  // measure 286
0010
0001
1000
0100
0010
0001
1000
0001
1000
0001
0010
0100
1000
0001
0010
0100
,  // measure 287
1000
0100
0010
0001
1000
0100
0010
0001
0100
0010
1000
0001
0100
0010
1000
0010
,  // measure 288
0100
0001
1000
0010
0100
0001
0100
0001
0010
0001
0100
0001
0010
0100
1000
0100
,  // measure 289
1000
0010
1000
0100
1000
0010
1000
0001
1000
0100
0010
0001
1000
0001
0010
0100
,  // measure 290
1000
0001
1000
0100
1000
0001
0100
0010
1000
0001
0100
0001
1000
0001
0100
0010
,  // measure 291
1000
0001
1000
0010
0100
0001
1000
0100
1000
0100
1000
0001
0010
0001
0010
0100
,  // measure 292
0010
0100
0010
0001
1000
0100
1000
0001
0100
0001
1000
0010
1000
0001
0100
0001
,  // measure 293
1000
0010
0100
0010
1000
0100
1000
0010
0100
0001
0010
0100
0010
0001
0100
0010
,  // measure 294
1000
0100
0010
0001
0010
0100
1000
0001
0100
0010
0100
0010
1000
0100
0010
0100
,  // measure 295
1000
0001
0100
0010
0100
0010
0100
0001
1000
0100
1000
0001
0100
0010
1000
0100
,  // measure 296
0010
0001
0100
0010
1000
0100
0010
0001
0010
0100
1000
0010
0100
0001
0010
0100
,  // measure 297
1000
0010
0100
0001
0010
0100
1000
0001
0010
0100
1000
0001
0010
0100
1000
0001
,  // measure 298
0010
0100
1000
0100
0010
0001
1000
0100
0010
0001
1000
0100
0010
0001
1000
0100
,  // measure 299
0010
0001
0010
0100
1000
0001
0010
0100
1000
0100
0010
0001
1000
0100
0010
0001
,  // measure 300
0010
0100
1000
0100
0010
0001
0010
0100
1000
0100
0010
0001
0010
0100
1000
0001
,  // measure 301
0010
0100
1000
0100
0010
0001
1000
0100
0010
0001
1000
0010
0100
0001
1000
0100
,  // measure 302
0010
0001
1000
0010
0100
0001
1000
0100
0010
0001
1000
0100
0010
0100
1000
0001
,  // measure 303
0010
0100
1000
0001
0100
0010
1000
0100
0010
0001
1000
0100
0010
0100
1000
0010
,  // measure 304
0100
0010
1000
0100
0010
0100
1000
0001
0010
0100
0010
0001
0100
0010
0100
0001
,  // measure 305
0010
0100
0010
0001
1000
0100
1000
0010
1000
0100
0010
0001
0100
0010
1000
0100
,  // measure 306
1000
0001
0100
0001
1000
0001
0010
0100
1000
0001
0100
0010
0100
0001
1000
0001
,  // measure 307
1000
0001
0100
0010
1000
0100
0010
0100
1000
0001
0100
0001
1000
0100
1000
0001
,  // measure 308
0100
0001
0010
0100
1000
0010
1000
0001
0010
0001
1000
0010
0100
0001
0010
0100
,  // measure 309
1000
0100
0010
0100
1000
0100
1000
0010
1000
0100
1000
0010
1000
0010
1000
0100
,  // measure 310
1000
0001
0010
0001
0100
0001
0010
0001
0100
0001
0010
0001
0100
0001
0010
0100
,  // measure 311
1000
0100
0010
0100
1000
0100
0010
0001
0010
0100
0010
0001
1000
0100
0010
0001
,  // measure 312
0010
0001
1000
0100
0010
0001
0010
0001
1000
0100
1000
0100
0010
0100
0010
0100
,  // measure 313
0010
0001
0010
0001
1000
0001
1000
0001
0100
0001
0100
0001
0010
0100
0010
0100
,  // measure 314
1000
0100
1000
0100
1000
0001
1000
0001
0010
0100
1000
0100
0010
0001
0100
0010
,  // measure 315
1000
0100
0010
0100
1000
0001
0010
0100
1000
0010
0100
0001
0010
0100
0010
0100
,  // measure 316
1000
0001
1000
0010
0100
0010
1000
0100
0010
0100
0010
0100
1000
0001
0100
0010
,  // measure 317
0100
0010
1000
0100
0010
0001
0010
0100
1000
0001
0100
0010
1000
0100
0010
0001
,  // measure 318
0010
0100
1000
0001
0010
0100
1000
0100
0010
0001
1000
0100
1000
0100
1000
0100
,  // measure 319
0010
0001
0010
0100
1000
0100
0010
0001
0010
0001
0010
0001
0010
0100
1000
0001
,  // measure 320
1000
0100
0010
0001
1000
0001
0100
0010
0100
0001
1000
0001
1000
0100
0010
0001
,  // measure 321
1000
0100
0010
0001
1000
0100
1000
0001
1000
0100
1000
0001
1000
0001
0100
0001
,  // measure 322
1000
0001
0100
0001
1000
0001
0100
0010
0100
0001
1000
0100
0010
0100
1000
0001
,  // measure 323
0100
0010
1000
0100
0010
0001
0010
0100
0010
0001
1000
0100
0010
0001
0010
0100
,  // measure 324
1000
0100
0010
0001
0010
0100
1000
0001
0010
0100
1000
0001
0100
0010
1000
0001
,  // measure 325
0100
0010
1000
0010
0100
0001
1000
0010
0100
0001
1000
0100
0010
0001
1000
0100
,  // measure 326
0010
0001
0010
0100
0010
0001
0100
0001
1000
0001
0010
0100
1000
0001
0100
0010
,  // measure 327
0100
0001
1000
0001
1000
0001
0100
0010
1000
0100
0010
0100
1000
0001
0100
0001
,  // measure 328
1000
0100
1000
0001
0100
0001
0010
0100
1000
0010
1000
0001
0010
0100
1000
0100
,  // measure 329
0010
0001
0010
0100
1000
0001
0100
0010
1000
0100
0010
0001
0010
0001
0100
0010
,  // measure 330
1000
0100
0010
0100
1000
0001
0100
0010
0100
0001
1000
0100
0010
0001
0100
0010
,  // measure 331
1000
0100
0010
0001
0100
0010
1000
0100
0010
0001
0100
0010
0100
0001
0010
0100
,  // measure 332
1000
0010
0100
0001
0010
0100
1000
0100
0010
0001
0010
0100
1000
0100
1000
0001
,  // measure 333
1000
0001
1000
0010
1000
0010
0100
0010
1000
0001
0100
0001
1000
0001
0100
0010
,  // measure 334
1000
0001
1000
0010
0100
0001
1000
0100
1000
0001
0010
0100
0010
0001
1000
0100
,  // measure 335
0010
0100
1000
0001
0010
0100
0010
0001
1000
0001
0100
0001
0010
0100
1000
0010
,  // measure 336
0100
0001
1000
0100
0010
0100
0010
0100
1000
0001
1000
0001
0100
0010
1000
0001
,  // measure 337
1000
0010
0100
0001
0100
0010
1000
0100
0010
0001
0010
0100
1000
0100
0010
0001
,  // measure 338
0010
0100
1000
0100
0010
0001
0010
0100
1000
0100
0010
0100
1000
0100
0010
0100
,  // measure 339
1000
0100
0010
0001
0010
0100
0010
0001
0010
0100
0010
0001
1000
0100
0010
0100
,  // measure 340
1000
0001
0100
0010
0100
0010
0100
0001
0010
0100
1000
0001
1000
0001
1000
0100
,  // measure 341
0010
0001
1000
0100
0010
0001
1000
0001
1000
0001
0010
0100
1000
0001
0010
0100
,  // measure 342
1000
0100
0010
0001
1000
0100
0010
0001
0100
0010
1000
0001
1000
0001
1000
0000
,  // measure 343
2002
0000
0000
3003
0000
0000
0000
0000
;

//---------------dance-double - Kyzentun Science----------------
#NOTES:
     dance-double:
     Kyzentun Science:
     Challenge:
     10:
     0.853,1.000,0.008,0.591,0.894,1291.000,2.000,142.000,99.000,32.000,16.000,0.853,1.000,0.008,0.591,0.894,1291.000,2.000,142.000,99.000,32.000,16.000:
00000000
00000000
00000000
00000000
,  // measure 1
00010000
00001000
00010000
00001000
01000000
00000100
00010000
00000100
00010000
00001000
00100000
01000000
10000000
00010000
01000000
00001000
,
01000000
00000100
00010000
00000001
00001000
00000100
00010000
00001000
01000000
00010000
00100000
01000000
00100000
01000000
10000000
00010000
,
10000000
01000000
10000000
01000000
00100000
00001000
00100000
00010000
00100000
00010000
10000000
00100000
10000000
00100000
10000000
00001000
,
01000000
00000100
00010000
00000100
00001000
00000100
00000010
00000001
00000100
00000010
00001000
00000010
00010000
00001000
00100000
00001000
,
10000000
00001000
10000000
01000000
10000000
00010000
10000000
00010000
01000000
00001000
00010000
00000001
00001000
00000010
00010000
00001000
,
01000000
00010000
00100000
01000000
00100000
01000000
10000000
01000000
10000000
00010000
01000000
00010000
10000000
00001000
10000000
00001000
,
00010000
00001000
01000000
00010000
10000000
01000000
10000000
01000000
00100000
01000000
00100000
01000000
00100000
01000000
10000000
01000000
,
10000000
00100000
01000000
00010000
01000000
00010000
01000000
00010000
00100000
00010000
00100000
01000000
00100000
00010000
01000000
00010000
,
10000000
01000000
10000000
01000000
10000000
01000000
00100000
00001000
00010000
00001000
00100000
00001000
00100000
00000010
00100000
00000010
,
00001000
00000001
00000010
00000100
00001000
00000100
00000010
00000001
00000010
00000100
00000010
00000100
00001000
00000010
00001000
00000010
,
00000100
00000010
00000100
00000001
00000100
00000010
00010000
00000001
00010000
00000010
00001000
00000010
00010000
00000010
00010000
00001000
,
10000000
00001000
00100000
00001000
00100000
00010000
00100000
00010000
00100000
00001000
00100000
00000010
00001000
00000001
00000010
00000100
,
00001000
00000100
00001000
00000100
00001000
00000001
00001000
00000100
01000000
00000100
01000000
00001000
01000000
00010000
00100000
01000000
,
10000000
00010000
01000000
00010000
01000000
00010000
00100000
01000000
10000000
01000000
00100000
00010000
10000000
00001000
00100000
00001000
,
00010000
00001000
10000000
00001000
01000000
00001000
01000000
00010000
01000000
00010000
00100000
01000000
10000000
00010000
00100000
00010000
,
01000000
00010000
01000000
00001000
01000000
00001000
10000000
00001000
00100000
00000010
00010000
00000001
00000100
00000010
00000100
00000010
,
00001000
00000001
00000010
00000100
00000010
00000001
00010000
00000010
00001000
00000001
00010000
00000010
00001000
00000100
00001000
00000001
,
00001000
00000010
00010000
00000001
00010000
00001000
01000000
00001000
10000000
00001000
10000000
00010000
10000000
00001000
00100000
00001000
,
00100000
00000010
00010000
00000001
00000010
00000100
00000010
00000001
00001000
00000010
00010000
00000100
01000000
00000100
00010000
00000001
,
00001000
00000010
00001000
00000010
00001000
00000100
00001000
00000001
00001000
00000100
00000010
00000100
00000010
00000100
00010000
00000100
,
01000000
00000100
00010000
00001000
00010000
00000100
00010000
00000100
00010000
00001000
00100000
00000010
00010000
00001000
00010000
00000100
,
00000010
00000100
00000010
00000001
00000010
00000100
00001000
00000010
00001000
00000001
00000010
00000100
00000010
00000100
00000010
00000001
,
00000010
00000100
00010000
00000001
00010000
00000010
00100000
00000010
00100000
00000010
00100000
00001000
10000000
00001000
01000000
00000100
,
00001000
00000100
00000010
00000100
00000010
00000001
00000010
00000100
00001000
00000010
00000100
00000001
00000100
00000010
00001000
00000100
,
00001000
00000001
00000010
00000100
00001000
00000100
00001000
00000001
00010000
00000010
00100000
00000010
00010000
00001000
00010000
00001000
,
00010000
00000010
00000100
00000010
00001000
00000010
00001000
00000001
00001000
00000100
00010000
00000100
00000010
00000100
00000010
00000100
,
00001000
00000001
00010000
00000100
00010000
00000100
01000000
00000100
00010000
00001000
00100000
00010000
00100000
00000010
00010000
00000010
,
00001000
00000010
00000100
00000001
00000100
00000010
00000100
00000010
00010000
00000010
00010000
00000010
00001000
00000010
00000100
00000001
,
00000100
00000010
00001000
00000100
00010000
00000001
00010000
00000010
00100000
00000010
00010000
00001000
01000000
00010000
00100000
00010000
,
00100000
01000000
00100000
01000000
10000000
01000000
00100000
00010000
00100000
00010000
01000000
00001000
01000000
00001000
00010000
00001000
,
00010000
00001000
10000000
00010000
01000000
00001000
01000000
00000100
01000000
00000100
00010000
00000010
00010000
00001000
00100000
00001000
,
00010000
00001000
00010000
00000100
00001000
00000100
00001000
00000100
01000000
00000100
00010000
00001000
01000000
00001000
01000000
00000100
,
01000000
00000100
00010000
00001000
00100000
00010000
01000000
00010000
01000000
00100000
01000000
00100000
10000000
00010000
01000000
00100000
,
01000000
00100000
10000000
00010000
00100000
00000010
00010000
00000001
00001000
00000100
00000010
00000001
00000100
00000010
00000100
00000001
,
00000100
00000010
00001000
00000001
00000010
00000100
00010000
00000100
00001000
00000001
00001000
00000010
00000100
00000001
00001000
00000100
,
01000000
00001000
00010000
00001000
01000000
00001000
10000000
00001000
10000000
00100000
01000000
00100000
01000000
00010000
01000000
00001000
,
00100000
00010000
00100000
00001000
10000000
00010000
01000000
00100000
01000000
00100000
10000000
00100000
10000000
01000000
00100000
01000000
,
10000000
00010000
01000000
00100000
10000000
00100000
01000000
00100000
01000000
00001000
00010000
00001000
01000000
00001000
01000000
00001000
,
01000000
00010000
01000000
00001000
00010000
00000010
00100000
00001000
01000000
00000100
00010000
00000100
01000000
00000100
00010000
00000001
,
00010000
00000010
00001000
00000100
00001000
00000001
00001000
00000100
00010000
00000100
00010000
00000010
00001000
00000010
00000100
00000010
,
00000100
00000001
00001000
00000100
00000010
00000001
00000100
00000010
00000100
00000010
00000100
00000010
00000100
00000010
00001000
00000001
,
00010000
00000100
00010000
00001000
00100000
00001000
00100000
00000010
00010000
00000010
00000100
00000010
00000100
00000001
00000100
00000010
,
00001000
00000010
00001000
00000100
00001000
00000100
00001000
00000100
00001000
00000100
00010000
00000010
00010000
00001000
01000000
00001000
,
00010000
00001000
00100000
00010000
00100000
00001000
00010000
00000010
00000100
00000001
00000100
00000010
00001000
00000010
00010000
00000001
,
00001000
00000100
00000010
00000100
00000010
00000100
00000010
00000100
00010000
00000001
00001000
00000100
00001000
00000100
00000010
00000001
,
00001000
00000100
00001000
00000100
00001000
00000010
00010000
00001000
00010000
00001000
00010000
00000100
00010000
00000001
00001000
00000100
,
00000010
00000001
00010000
00000010
00001000
00000001
00000010
00000100
00001000
00000001
00000010
00000100
00000010
00000001
00000010
00000100
,
00010000
00000001
00010000
00000100
00001000
00000001
00000010
00000100
00000010
00000100
00000010
00000100
00001000
00000001
00000010
00000100
,
00010000
00000001
00010000
00000100
00010000
00000100
00001000
00000001
00000010
00000100
00001000
00000001
00000100
00000010
00001000
00000010
,
00001000
00000001
00000100
00000010
00000100
00000001
00000010
00000100
00000010
00000001
00001000
00000010
00000100
00000010
00001000
00000001
,
00010000
00000100
00001000
00000100
00001000
00000100
00001000
00000100
00000010
00000001
00010000
00000100
00010000
00001000
00100000
00001000
,
01000000
00000100
00010000
00000001
00001000
00000100
00001000
00000010
00001000
00000001
00000010
00000100
00000010
00000001
00000100
00000010
,
00001000
00000010
00001000
00000010
00001000
00000100
00001000
00000001
00001000
00000010
00010000
00000100
00010000
00001000
01000000
00000100
,
00010000
00000100
00010000
00001000
10000000
00001000
01000000
00010000
10000000
01000000
00100000
01000000
10000000
00001000
10000000
00010000
,
00100000
00001000
00010000
00000100
00010000
00001000
10000000
00010000
01000000
00100000
01000000
00010000
10000000
00100000
01000000
00001000
,
10000000
00001000
10000000
00001000
10000000
00001000
00100000
00001000
10000000
00100000
10000000
00100000
10000000
00100000
01000000
00100000
,
01000000
00100000
10000000
00100000
10000000
00001000
10000000
00010000
10000000
01000000
00100000
00010000
00100000
00001000
10000000
01000000
,
00100000
00010000
00100000
00010000
10000000
00010000
10000000
00100000
10000000
00100000
01000000
00100000
10000000
00010000
00100000
00010000
,
00100000
01000000
00100000
00001000
00100000
00001000
00100000
00001000
00100000
00000010
00100000
00001000
10000000
00100000
10000000
00100000
,
01000000
00100000
01000000
00010000
00100000
01000000
10000000
01000000
00100000
01000000
00100000
01000000
10000000
01000000
10000000
00001000
,
00100000
00010000
10000000
01000000
00100000
00010000
01000000
00100000
10000000
00010000
00100000
00001000
10000000
00001000
10000000
01000000
,
00100000
01000000
10000000
01000000
00100000
00010000
00100000
01000000
10000000
01000000
00100000
01000000
10000000
01000000
00100000
01000000
,
10000000
00001000
10000000
00001000
00100000
00001000
10000000
00010000
01000000
00010000
01000000
00100000
01000000
00100000
10000000
00100000
,
10000000
01000000
10000000
00010000
01000000
00010000
01000000
00001000
01000000
00010000
00100000
00001000
00100000
00010000
00100000
00010000
,
01000000
00010000
10000000
00100000
10000000
00100000
01000000
00100000
01000000
00001000
01000000
00010000
10000000
00100000
10000000
00010000
,
00100000
01000000
00100000
00001000
00100000
00001000
00100000
00000010
00100000
00001000
00100000
00000010
00001000
00000001
00010000
00000010
,
00001000
00000001
00000100
00000010
00001000
00000001
00000100
00000010
00010000
00000010
00100000
00001000
00100000
00010000
00100000
01000000
,
00100000
00001000
00100000
00000010
00010000
00000010
00010000
00000100
00001000
00000100
00000010
00000100
00000010
00000001
00000100
00000010
,
00001000
00000001
00000010
00000100
00000010
00000001
00000010
00000100
00000010
00000100
00000010
00000100
00000010
00000001
00000100
00000010
,
00001000
00000001
00000010
00000100
00001000
00000001
00010000
00001000
00100000
00001000
00010000
00001000
00010000
00000100
00010000
00000100
,
00001000
00000100
00000010
00000100
00001000
00000001
00000010
00000100
00001000
00000001
00001000
00000100
01000000
00000100
00010000
00001000
,
00010000
00001000
10000000
00010000
10000000
00001000
10000000
00010000
00100000
00010000
10000000
00010000
00100000
00001000
00100000
00000010
,
00100000
00000010
00010000
00000010
00100000
00001000
00100000
00010000
01000000
00010000
01000000
00100000
01000000
00100000
01000000
00010000
,
00100000
01000000
10000000
01000000
00100000
01000000
00100000
00010000
00100000
00010000
10000000
00001000
10000000
00001000
00010000
00001000
,
00010000
00001000
01000000
00010000
10000000
00010000
10000000
00001000
00100000
00000010
00010000
00000001
00000100
00000010
00000100
00000001
,
00001000
00000010
00001000
00000100
00001000
00000100
00010000
00000100
01000000
00001000
01000000
00001000
00010000
00001000
00010000
00001000
,
00100000
00010000
00100000
01000000
00100000
00010000
10000000
00010000
00100000
00000010
00010000
00001000
00010000
00000100
01000000
00001000
,
10000000
00001000
01000000
00001000
00100000
00000010
00100000
00001000
00010000
00000100
00010000
00000010
00010000
00000010
00001000
00000010
,
00001000
00000001
00001000
00000100
00010000
00000100
00000010
00000100
00001000
00000100
00001000
00000100
00000010
00000100
00000010
00000100
,
00010000
00000001
00010000
00000100
01000000
00000100
00010000
00000010
00001000
00000001
00010000
00000100
00010000
00000010
00100000
00001000
,
10000000
00010000
10000000
00001000
00100000
00010000
01000000
00100000
01000000
00010000
10000000
00010000
00100000
00001000
00100000
00001000
,
10000000
00001000
00100000
01000000
00100000
00010000
10000000
00010000
10000000
00001000
01000000
00001000
10000000
01000000
10000000
00010000
,
10000000
00001000
00100000
00010000
00100000
01000000
10000000
00001000
00100000
00010000
00100000
00001000
00100000
00001000
00100000
00000010
,
00100000
00001000
01000000
00000100
01000000
00001000
01000000
00001000
10000000
00001000
00100000
01000000
00100000
01000000
00100000
01000000
,
10000000
00100000
10000000
00100000
10000000
00100000
01000000
00010000
00100000
00010000
10000000
00100000
10000000
00010000
10000000
00100000
,
10000000
00010000
00100000
01000000
10000000
00010000
10000000
00100000
10000000
00001000
01000000
00001000
01000000
00010000
01000000
00010000
,
10000000
00100000
10000000
00100000
10000000
01000000
00100000
00010000
00100000
01000000
10000000
01000000
10000000
00010000
01000000
00001000
,
00010000
00001000
00100000
00000010
00100000
00010000
10000000
00010000
10000000
00100000
10000000
01000000
00100000
01000000
10000000
00010000
,
10000000
00010000
00100000
01000000
00100000
00001000
00010000
00001000
00010000
00000100
00010000
00001000
01000000
00000100
00001000
00000100
,
00001000
00000100
00001000
00000001
00001000
00000010
00001000
00000010
00001000
00000010
00000100
00000001
00010000
00000010
00001000
00000001
,
00010000
00000010
00010000
00000001
00001000
00000100
00001000
00000001
00001000
00000010
00100000
00001000
00100000
00010000
00100000
01000000
,
10000000
01000000
10000000
00100000
10000000
00100000
01000000
00100000
01000000
00010000
01000000
00010000
00100000
01000000
10000000
01000000
,
00100000
01000000
00100000
00010000
01000000
00001000
00010000
00000100
00010000
00001000
00010000
00000100
00001000
00000010
00001000
00000010
,
00001000
00000010
00000100
00000010
00000100
00000010
00010000
00000010
00001000
00000010
00001000
00000001
00000100
00000010
00000100
00000010
,
00001000
00000010
00001000
00000001
00000010
00000100
00000010
00000100
00001000
00000100
01000000
00001000
01000000
00000100
00010000
00000100
,
00010000
00001000
00010000
00000010
00001000
00000010
00001000
00000100
00001000
00000100
00000010
00000100
00000010
00000001
00001000
00000010
,
00001000
00000010
00001000
00000010
00100000
00001000
10000000
00010000
10000000
00100000
01000000
00010000
01000000
00100000
01000000
00100000
,
10000000
00001000
00100000
00010000
00100000
00010000
10000000
00001000
00100000
00010000
10000000
00010000
00100000
00010000
10000000
01000000
,
00100000
00010000
01000000
00100000
01000000
00010000
01000000
00010000
00100000
00001000
00010000
00001000
00100000
00010000
00100000
00001000
,
00100000
01000000
00100000
00010000
00100000
00001000
00100000
00001000
00010000
00000100
00000010
00000001
00000010
00000100
00000010
00000100
,
00000010
00000001
00000010
00000100
00010000
00000001
00010000
00000010
00001000
00000001
00000010
00000100
00000010
00000001
00001000
00000010
,
00001000
00000100
00010000
00001000
01000000
00000100
00010000
00000001
00010000
00001000
00100000
00010000
10000000
00010000
00100000
00001000
,
01000000
00001000
10000000
00010000
10000000
00010000
00100000
00010000
00100000
00000010
00100000
00000010
00100000
00001000
00100000
00010000
,
00100000
00001000
00010000
00000001
00010000
00000100
00001000
00000001
00000010
00000100
00000010
00000100
00010000
00001000
00010000
00000010
,
00100000
00000010
00010000
00000100
00010000
00000001
00010000
00000010
00100000
00000010
00100000
00001000
00010000
00001000
01000000
00000100
,
00001000
00000001
00000010
00000100
00000010
00000100
00000010
00000001
00001000
00000100
00000010
00000100
00000010
00000001
00000100
00000010
,
00000100
00000001
00000100
00000010
00001000
00000010
00001000
00000001
00001000
00000010
00000100
00000010
00010000
00000001
00010000
00000100
,
01000000
00001000
10000000
00010000
10000000
01000000
00100000
00010000
00100000
01000000
00100000
01000000
00100000
00001000
00010000
00000100
,
01000000
00001000
01000000
00010000
10000000
00010000
01000000
00001000
01000000
00000100
01000000
00000100
01000000
00001000
00010000
00000001
,
00001000
00000010
00000100
00000001
00001000
00000100
00000010
00000100
00001000
00000010
00010000
00000001
00001000
00000100
00000010
00000001
,
00000010
00000100
00001000
00000100
00001000
00000001
00001000
00000010
00010000
00000100
00010000
00000001
00001000
00000100
00000010
00000100
,
00000010
00000001
00010000
00000010
00001000
00000001
00001000
00000100
00010000
00001000
01000000
00010000
00100000
00010000
10000000
00001000
,
10000000
00010000
10000000
00010000
01000000
00001000
00100000
00010000
00100000
01000000
10000000
00010000
00100000
01000000
00100000
01000000
,
10000000
00010000
10000000
00100000
10000000
00010000
01000000
00001000
00010000
00000001
00001000
00000100
00010000
00000001
00010000
00000010
,
00001000
00000010
00000100
00000001
00000010
00000100
00001000
00000100
00010000
00001000
01000000
00000100
00010000
00000100
00001000
00000001
,
00001000
00000100
00000010
00000100
00010000
00001000
00100000
00000010
00010000
00000010
00001000
00000010
00001000
00000010
00010000
00000001
,
00010000
00000010
00000100
00000001
00000100
00000010
00000100
00000001
00001000
00000100
00001000
00000010
00001000
00000001
00000010
00000100
,
00000010
00000001
00000010
00000100
00001000
00000100
00010000
00000010
00001000
00000010
00000100
00000010
00000100
00000010
00000100
00000001
,
00001000
00000010
00001000
00000001
00000100
00000010
00010000
00000010
00010000
00000010
00001000
00000010
00001000
00000100
00010000
00000100
,
00010000
00000001
00001000
00000100
00000010
00000100
00010000
00001000
01000000
00000100
01000000
00001000
01000000
00000100
00010000
00001000
,
01000000
00001000
00100000
00000010
00100000
00000010
00100000
00000010
00100000
00001000
00100000
00010000
10000000
00010000
01000000
00001000
,
00010000
00000100
00001000
00000100
00000010
00000001
00010000
00000100
01000000
00001000
10000000
00010000
10000000
00010000
10000000
00010000
,
10000000
00100000
01000000
00010000
01000000
00100000
01000000
00001000
00010000
00001000
01000000
00001000
10000000
00001000
00010000
00001000
,
00010000
00000100
01000000
00000100
00010000
00000010
00010000
00000001
00010000
00000100
00001000
00000010
00010000
00000001
00010000
00000100
,
00010000
00000100
00010000
00000001
00000100
00000010
00001000
00000001
00000010
00000100
00000010
00000100
00001000
00000010
00001000
00000010
,
00010000
00001000
00010000
00001000
00010000
00000100
01000000
00001000
10000000
00100000
10000000
00100000
01000000
00010000
01000000
00100000
,
01000000
00010000
00100000
01000000
00100000
00010000
00100000
00010000
01000000
00010000
10000000
00100000
01000000
00010000
00100000
00010000
,
00100000
01000000
10000000
00010000
00100000
01000000
00100000
00001000
10000000
00001000
01000000
00000100
00010000
00000010
00001000
00000010
,
00001000
00000001
00001000
00000010
00000100
00000010
00001000
00000001
00000010
00000100
00001000
00000100
00001000
00000010
00000100
00000010
,
00000100
00000010
00001000
00000001
00001000
00000010
00010000
00000001
00000100
00000010
00001000
00000010
00010000
00000001
00010000
00001000
,
01000000
00010000
01000000
00001000
01000000
00001000
00100000
00001000
00010000
00000010
00010000
00000010
00001000
00000001
00000010
00000100
,
00001000
00000010
00000100
00000001
00000100
00000010
00001000
00000010
00010000
00001000
00010000
00000001
00001000
00000010
00010000
00000001
,
00001000
00000010
00001000
00000010
00001000
00000100
00001000
00000100
00000010
00000001
00001000
00000010
00000100
00000001
00000010
00000100
,
00001000
00000001
00010000
00000010
00100000
00000010
00100000
00001000
01000000
00001000
10000000
00010000
01000000
00010000
10000000
00010000
,
10000000
01000000
10000000
00001000
00100000
00001000
10000000
00010000
00100000
00001000
00010000
00001000
00010000
00000010
00000100
00000001
,
00001000
00000100
00001000
00000001
00000100
00000010
00000100
00000010
00000100
00000001
00001000
00000100
00010000
00000010
00010000
00000010
,
00010000
00001000
00100000
00000010
00100000
00000010
00001000
00000010
00001000
00000001
00000100
00000010
00001000
00000010
00000100
00000010
,
00010000
00000001
00001000
00000100
00000010
00000001
00000010
00000100
00001000
00000001
00010000
00000100
00010000
00000010
00001000
00000010
,
00000100
00000010
00001000
00000100
00000010
00000100
00001000
00000100
00000010
00000001
00000100
00000010
00000100
00000010
00001000
00000010
,
00001000
00000001
00010000
00001000
01000000
00010000
10000000
01000000
10000000
00010000
01000000
00010000
01000000
00001000
00010000
00000010
,
00000100
00000010
00000100
00000001
00000100
00000010
00001000
00000001
00010000
00000010
00010000
00000001
00000100
00000010
00000100
00000010
,
00001000
00000010
00001000
00000001
00000100
00000010
00010000
00000010
00001000
00000001
00000010
00000100
00001000
00000100
00001000
00000001
,
00000100
00000010
00001000
00000100
00000010
00000100
00000010
00000100
00000010
00000001
00000010
00000100
00010000
00000100
00010000
00001000
,
01000000
00001000
00100000
00001000
00010000
00000100
01000000
00000100
00010000
00000100
00010000
00000010
00100000
00000010
00010000
00001000
,
01000000
00000100
01000000
00000100
00010000
00000001
00000100
00000010
00001000
00000001
00001000
00000010
00000100
00000001
00000010
00000100
,
00000010
00000001
00000010
00000100
00001000
00000010
00001000
00000001
00001000
00000100
00000010
00000100
00000010
00000100
00010000
00000100
,
00001000
00000001
00001000
00000010
00010000
00000010
00100000
00010000
00100000
01000000
10000000
01000000
10000000
00010000
01000000
00001000
,
00010000
00000010
00100000
00001000
00100000
00010000
00100000
00010000
10000000
00100000
10000000
00010000
00100000
01000000
00100000
00010000
,
01000000
00010000
01000000
00100000
01000000
00010000
01000000
00010000
00100000
00010000
00100000
00001000
00100000
00001000
01000000
00000100
,
01000000
00001000
10000000
00001000
01000000
00001000
00100000
00001000
00010000
00000010
00010000
00000001
00010000
00000100
00001000
00000100
,
00000010
00000001
00000010
00000100
00001000
00000100
00010000
00000100
01000000
00000100
00001000
00000001
00000010
00000100
00000010
00000001
,
00000100
00000010
00000100
00000001
00001000
00000010
00000100
00000010
00001000
00000010
00100000
00001000
10000000
00001000
00100000
00001000
,
01000000
00010000
01000000
00001000
00010000
00000100
01000000
00000100
01000000
00010000
01000000
00001000
10000000
00001000
10000000
00010000
,
10000000
01000000
00100000
01000000
00100000
00001000
00010000
00000100
00010000
00000001
00010000
00000010
00100000
00001000
10000000
01000000
,
10000000
01000000
00100000
01000000
00100000
01000000
00100000
01000000
10000000
01000000
00100000
00010000
01000000
00100000
10000000
00010000
,
01000000
00001000
01000000
00001000
00010000
00000100
00010000
00000001
00000010
00000100
00001000
00000001
00001000
00000010
00000100
00000010
,
00000100
00000001
00000100
00000010
00010000
00000010
00010000
00001000
01000000
00001000
00100000
00000010
00100000
00001000
00100000
00001000
,
01000000
00001000
01000000
00000100
01000000
00000100
00010000
00000010
00100000
00001000
00100000
00000010
00100000
00000010
00010000
00000001
,
00000100
00000010
00001000
00000010
00001000
00000010
00010000
00001000
01000000
00000100
00001000
00000100
00000010
00000100
00000010
00000001
,
00000100
00000010
00001000
00000010
00001000
00000001
00010000
00000010
00001000
00000100
00010000
00000001
00010000
00000100
01000000
00001000
,
01000000
00000100
01000000
00000100
00010000
00000100
00001000
00000010
00000100
00000010
00001000
00000010
00001000
00000001
00000100
00000010
,
00001000
00000001
00000010
00000100
00000010
00000001
00001000
00000100
01000000
00000100
00010000
00000100
00010000
00001000
00010000
00000010
,
00100000
00010000
00100000
01000000
10000000
01000000
10000000
00100000
10000000
00010000
00100000
00001000
00100000
00010000
10000000
00010000
,
01000000
00001000
10000000
01000000
10000000
00010000
01000000
00010000
01000000
00100000
10000000
01000000
10000000
01000000
00100000
00010000
,
00100000
00010000
01000000
00010000
01000000
00010000
01000000
00010000
01000000
00001000
00010000
00001000
00100000
00010000
01000000
00010000
,
01000000
00010000
10000000
01000000
00100000
01000000
10000000
00001000
00100000
00001000
10000000
00001000
10000000
00010000
00100000
00010000
,
00100000
00000010
00010000
00000010
00100000
00000010
00010000
00001000
01000000
00001000
01000000
00001000
01000000
00000100
00010000
00000100
,
01000000
00000100
01000000
00000100
00001000
00000100
00000010
00000001
00001000
00000010
00010000
00001000
01000000
00100000
01000000
00100000
,
10000000
00100000
01000000
00010000
01000000
00010000
00100000
01000000
10000000
00010000
00100000
00001000
10000000
00001000
10000000
00100000
,
10000000
00100000
01000000
00010000
01000000
00001000
00010000
00000001
00010000
00000010
00010000
00001000
01000000
00001000
00100000
00010000
,
00100000
01000000
10000000
01000000
10000000
00100000
01000000
00100000
10000000
00100000
10000000
00010000
00100000
01000000
10000000
00001000
,
10000000
00001000
00100000
00000010
00100000
00000010
00010000
00000010
00100000
00000010
00010000
00000001
00000100
00000010
00001000
00000001
,
00001000
00000010
00010000
00000010
00100000
00010000
00100000
00001000
00100000
00001000
00100000
00001000
01000000
00000100
00010000
00000100
,
01000000
00000100
01000000
00001000
10000000
00010000
10000000
00100000
10000000
01000000
10000000
01000000
00100000
01000000
00100000
01000000
,
00100000
00010000
00100000
00000010
00100000
00001000
00100000
00010000
00100000
00001000
00100000
00000010
00001000
00000010
00001000
00000001
,
00001000
00000010
00000100
00000010
00000100
00000001
00001000
00000100
00001000
00000010
00010000
00000010
00001000
00000010
00001000
00000010
,
00000100
00000001
00000010
00000100
00000010
00000001
00000010
00000100
00001000
00000010
00010000
00000001
00001000
00000010
00000100
00000010
,
00000100
00000001
00010000
00000010
00010000
00001000
00010000
00000100
01000000
00000100
00010000
00000100
00001000
00000010
00010000
00000010
,
00010000
00000001
00001000
00000100
00010000
00000010
00100000
00001000
00100000
00001000
00010000
00001000
10000000
00010000
00100000
00010000
,
10000000
01000000
00100000
01000000
00100000
00010000
10000000
00010000
01000000
00100000
01000000
00010000
00100000
00010000
00100000
01000000
,
10000000
01000000
10000000
00100000
10000000
00010000
01000000
00100000
01000000
00010000
00100000
00001000
00010000
00001000
00010000
00000010
,
00010000
00001000
00100000
01000000
10000000
00010000
01000000
00010000
10000000
01000000
10000000
00100000
10000000
00010000
01000000
00010000
,
01000000
00001000
01000000
00000100
00001000
00000100
00001000
00000001
00000010
00000100
00001000
00000010
00000100
00000010
00000100
00000010
,
00001000
00000001
00001000
00000100
00000010
00000100
00001000
00000010
00001000
00000001
00000010
00000100
00001000
00000001
00010000
00001000
,
00100000
00010000
00100000
00001000
00010000
00000010
00001000
00000010
00001000
00000100
00010000
00001000
00010000
00000010
00010000
00000100
,
01000000
00001000
01000000
00010000
01000000
00100000
10000000
00100000
01000000
00001000
00010000
00001000
00100000
00000010
00010000
00001000
,
00010000
00000001
00001000
00000100
00010000
00000001
00001000
00000010
00010000
00000010
00100000
00010000
00100000
00010000
10000000
01000000
,
10000000
00010000
01000000
00010000
00100000
00001000
10000000
00010000
00100000
00010000
01000000
00001000
10000000
00001000
00100000
00001000
,
01000000
00010000
01000000
00010000
10000000
00001000
00010000
00000010
00100000
00001000
10000000
00010000
10000000
00001000
01000000
00001000
,
10000000
00010000
01000000
00000100
01000000
00000100
00010000
00000100
00001000
00000010
00001000
00000010
00001000
00000010
00001000
00000010
,
00010000
00000010
00010000
00000100
00010000
00000001
00001000
00000010
00000100
00000001
00000100
00000010
00001000
00000100
00010000
00001000
,
00010000
00000100
00010000
00001000
00010000
00000010
00000100
00000010
00001000
00000001
00001000
00000100
00010000
00000100
00001000
00000001
,
00010000
00001000
01000000
00001000
10000000
00001000
00100000
00001000
00010000
00001000
00010000
00000001
00001000
00000100
00001000
00000100
,
00010000
00000001
00010000
00000100
00001000
00000100
00000010
00000001
00000010
00000100
00000010
00000100
00000010
00000100
00001000
00000010
,
00001000
00000001
00000010
00000100
00001000
00000100
00000010
00000100
00000010
00000001
00001000
00000010
00001000
00000100
00001000
00000100
,
00010000
00000100
00001000
00000010
00000100
00000010
00001000
00000010
00001000
00000100
00001000
00000100
00000010
00000100
00000010
00000100
,
00001000
00000100
00000010
00000001
00001000
00000010
00010000
00000001
00001000
00000010
00100000
00000010
00100000
00000010
00100000
00001000
,
10000000
00001000
00100000
00010000
10000000
00100000
10000000
00001000
00100000
00000010
00010000
00000001
00001000
00000100
00001000
00000001
,
00000100
00000010
00000100
00000010
00001000
00000001
00001000
00000100
01000000
00000100
00010000
00001000
00010000
00000100
00001000
00000001
,
00001000
00000010
00001000
00000010
00001000
00000010
00000100
00000001
00000010
00000100
00001000
00000100
00010000
00000001
00001000
00000100
,
00010000
00000010
00010000
00000010
00100000
00000010
00010000
00001000
00010000
00000010
00001000
00000010
00100000
00001000
00100000
00000010
,
00010000
00001000
00100000
00000010
00100000
00001000
01000000
00010000
10000000
00100000
01000000
00010000
00100000
00010000
00100000
01000000
,
00100000
00010000
01000000
00001000
00010000
00000010
00010000
00000001
00010000
00001000
00010000
00000100
00001000
00000001
00000100
00000010
,
00000100
00000010
00010000
00000010
00001000
00000001
00001000
00000010
00000100
00000010
00000100
00000001
00001000
00000010
00000100
00000010
,
00001000
00000001
00010000
00000100
00010000
00000010
00010000
00001000
00010000
00001000
01000000
00001000
01000000
00001000
00010000
00000001
,
00001000
00000010
00001000
00000010
00010000
00000010
00100000
00001000
00100000
00010000
10000000
00001000
00010000
00000010
00010000
00000010
,
00001000
00000001
00010000
00000100
00010000
00000010
00001000
00000001
00001000
00000100
00010000
00000001
00001000
00000010
00100000
00000010
,
00010000
00000010
00100000
00000010
00100000
00001000
10000000
00100000
01000000
00010000
01000000
00010000
01000000
00010000
10000000
01000000
,
10000000
00100000
01000000
00100000
10000000
00010000
10000000
00001000
01000000
00000100
01000000
00000100
00010000
00001000
10000000
00010000
,
10000000
01000000
10000000
01000000
10000000
00010000
10000000
00100000
01000000
00100000
10000000
00001000
10000000
00010000
01000000
00100000
,
10000000
00010000
01000000
00010000
10000000
00100000
10000000
00010000
10000000
00010000
01000000
00000100
01000000
00001000
10000000
00001000
,
01000000
00001000
01000000
00010000
10000000
00010000
00100000
00000010
00010000
00000010
00100000
00001000
00010000
00000001
00010000
00000100
,
01000000
00000100
01000000
00001000
10000000
00001000
00100000
00001000
00010000
00000010
00010000
00000010
00001000
00000100
00001000
00000100
,
00001000
00000100
00000010
00000100
00000010
00000100
00000010
00000100
00010000
00001000
00100000
00000010
00100000
00000010
00010000
00001000
,
10000000
00001000
01000000
00000100
00010000
00001000
00010000
00000010
00001000
00000010
00010000
00000100
00010000
00000100
00001000
00000100
,
00001000
00000100
00000010
00000001
00001000
00000100
00000010
00000100
00001000
00000100
00000010
00000001
00001000
00000010
00010000
00000010
,
00001000
00000100
00001000
00000001
00000010
00000100
00000010
00000001
00001000
00000100
01000000
00001000
10000000
00001000
10000000
00010000
,
01000000
00010000
01000000
00100000
01000000
00010000
10000000
00010000
01000000
00100000
01000000
00010000
01000000
00100000
01000000
00001000
,
01000000
00001000
10000000
00010000
10000000
00100000
01000000
00100000
01000000
00010000
10000000
01000000
00100000
00010000
00100000
00000010
,
00100000
00000010
00010000
00000010
00010000
00001000
01000000
00001000
10000000
00001000
01000000
00000100
00010000
00000001
00010000
00000010
,
00100000
00010000
10000000
00001000
01000000
00001000
01000000
00010000
10000000
00001000
01000000
00010000
00100000
00010000
00100000
00010000
,
10000000
00001000
00010000
00001000
01000000
00010000
01000000
00001000
01000000
00001000
10000000
00010000
10000000
01000000
00100000
01000000
,
00100000
00010000
00100000
00010000
10000000
01000000
10000000
00010000
00100000
00000010
00010000
00001000
00010000
00000010
00010000
00001000
,
00100000
00000010
00001000
00000010
00001000
00000010
00010000
00001000
00010000
00000001
00001000
00000010
00010000
00000001
00010000
00001000
,
00100000
00000010
00010000
00000010
00010000
00000001
00010000
00000010
00001000
00000001
00010000
00000100
00010000
00000010
00100000
00001000
,
00100000
00001000
00010000
00000100
00001000
00000100
01000000
00000100
00010000
00000100
00010000
00001000
10000000
00010000
01000000
00010000
,
01000000
00010000
10000000
00010000
00100000
00010000
10000000
00001000
10000000
00001000
01000000
00010000
01000000
00001000
00100000
00010000
,
10000000
01000000
10000000
01000000
00100000
01000000
10000000
00010000
10000000
01000000
00100000
00010000
10000000
00100000
01000000
00100000
,
10000000
00010000
10000000
00001000
00010000
00000010
00100000
00000010
00010000
00000001
00001000
00000100
00000010
00000100
00000010
00000100
,
00001000
00000001
00000100
00000010
00010000
00000010
00100000
00000010
00100000
00001000
01000000
00001000
01000000
00001000
00010000
00000100
,
00010000
00001000
10000000
00010000
01000000
00001000
01000000
00001000
10000000
00001000
00100000
00010000
01000000
00001000
00010000
00000100
,
01000000
00000100
00010000
00000001
00010000
00000010
00001000
00000010
00010000
00000010
00010000
00000100
00010000
00000100
00001000
00000001
,
00000100
00000010
00000100
00000010
00010000
00000010
00010000
00000001
00001000
00000010
00010000
00000010
00001000
00000001
00000010
00000100
,
00010000
00000100
00010000
00001000
00100000
00001000
00010000
00000001
00010000
00000100
01000000
00000100
01000000
00001000
01000000
00000100
,
00010000
00000100
00000010
00000001
00000010
00000100
00001000
00000100
00001000
00000010
00001000
00000001
00010000
00000100
00001000
00000001
,
00000010
00000100
00000010
00000001
00000100
00000010
00000100
00000010
00001000
00000001
00001000
00000010
00010000
00000010
00000100
00000010
,
00001000
00000001
00000100
00000010
00001000
00000001
00000010
00000100
00001000
00000100
00001000
00000010
00001000
00000001
00010000
00000100
,
00010000
00001000
00100000
00001000
01000000
00001000
01000000
00000100
01000000
00000100
01000000
00001000
01000000
00001000
01000000
00000100
,
01000000
00000100
00010000
00000001
00001000
00000100
00001000
00000100
00010000
00000100
00000010
00000001
00000010
00000100
00000010
00000100
,
00001000
00000100
00001000
00000010
00001000
00000001
00000010
00000100
00000010
00000001
00000010
00000100
00001000
00000100
01000000
00000100
,
01000000
00001000
01000000
00000100
00010000
00001000
10000000
00001000
10000000
00010000
01000000
00001000
00100000
00001000
00010000
00000010
,
00001000
00000001
00000010
00000100
00000010
00000001
00000100
00000010
00000100
00000001
00001000
00000100
00001000
00000100
00000010
00000100
,
00000010
00000001
00000010
00000100
00001000
00000010
00001000
00000001
00000100
00000010
00000100
00000010
00000100
00000010
00001000
00000010
,
00100000
00001000
10000000
00001000
00100000
00000010
00010000
00000001
00010000
00001000
00100000
00001000
10000000
00010000
10000000
00010000
,
00100000
00001000
01000000
00000100
00010000
00000100
00001000
00000001
00001000
00000100
00010000
00001000
10000000
00010000
00100000
00010000
,
00100000
00010000
00100000
00001000
00100000
01000000
00100000
00010000
00100000
00001000
10000000
00001000
00100000
00001000
00100000
01000000
,
00100000
01000000
10000000
00010000
01000000
00001000
00100000
00001000
00010000
00001000
00010000
00000010
00100000
00000010
00100000
00010000
,
10000000
00100000
01000000
00100000
10000000
01000000
10000000
01000000
00100000
01000000
00100000
00010000
10000000
00010000
01000000
00100000
,
10000000
01000000
10000000
00010000
00100000
00010000
00100000
01000000
10000000
01000000
10000000
00001000
10000000
00010000
01000000
00010000
,
10000000
01000000
10000000
00010000
00100000
00001000
00010000
00000100
00000010
00000100
00001000
00000100
00010000
00000001
00010000
00001000
,
00100000
00001000
00100000
00001000
00010000
00001000
00100000
00010000
10000000
00100000
01000000
00100000
10000000
01000000
10000000
00010000
,
10000000
00010000
01000000
00010000
10000000
01000000
00100000
00010000
01000000
00001000
01000000
00010000
10000000
01000000
10000000
00010000
,
10000000
00010000
00100000
00001000
00100000
01000000
10000000
01000000
00100000
01000000
10000000
00010000
00100000
01000000
00100000
00001000
,
00100000
00010000
00100000
00001000
10000000
00010000
10000000
00010000
10000000
00100000
01000000
00001000
10000000
00001000
00100000
00000010
,
00010000
00001000
00010000
00001000
00100000
00001000
00010000
00000100
00000010
00000100
00000010
00000100
00000010
00000001
00000010
00000100
,
00001000
00000010
00001000
00000001
00001000
00000010
00000100
00000010
00001000
00000100
00001000
00000001
00010000
00000100
00010000
00000100
,
00001000
00000100
00010000
00000010
00010000
00001000
00100000
00010000
10000000
00100000
01000000
00010000
10000000
01000000
10000000
00100000
,
01000000
00100000
10000000
00100000
10000000
01000000
10000000
00010000
01000000
00001000
01000000
00010000
01000000
00001000
00100000
00010000
,
10000000
01000000
10000000
01000000
00100000
00010000
00100000
01000000
10000000
01000000
10000000
00100000
10000000
00100000
01000000
00010000
,
10000000
01000000
10000000
00010000
01000000
00010000
00100000
00001000
00010000
00001000
01000000
00010000
10000000
01000000
00100000
01000000
,
00100000
00001000
10000000
00010000
10000000
00010000
01000000
00001000
00010000
00000010
00000100
00000010
00001000
00000001
00001000
00000010
,
00000100
00000010
00001000
00000100
00000010
00000100
00000010
00000001
00000010
00000100
00001000
00000100
00000010
00000001
00000010
00000100
,
00001000
00000100
01000000
00001000
01000000
00000100
01000000
00001000
00100000
00001000
00100000
00000010
00010000
00000010
00010000
00001000
,
10000000
00001000
10000000
00001000
01000000
00010000
10000000
00010000
01000000
00010000
01000000
00001000
01000000
00001000
00010000
00001000
,
00010000
00000010
00001000
00000001
00010000
00001000
00100000
00010000
10000000
00010000
00100000
01000000
00100000
01000000
00100000
01000000
,
10000000
01000000
10000000
01000000
00100000
01000000
00100000
00010000
00100000
00001000
00010000
00001000
00010000
00000001
00010000
00000100
,
00001000
00000100
00001000
00000010
00001000
00000010
00001000
00000010
00001000
00000001
00010000
00000010
00001000
00000100
00010000
00000001
,
00001000
00000010
00000100
00000010
00000100
00000001
00010000
00000100
00010000
00001000
00010000
00000010
00001000
00000100
00010000
00001000
,
00010000
00001000
00100000
00001000
00100000
00010000
00100000
00010000
10000000
01000000
00100000
00010000
00100000
00000010
00100000
00001000
,
00100000
00010000
00100000
00010000
10000000
00100000
10000000
01000000
00100000
01000000
00100000
00010000
00100000
01000000
00100000
01000000
,
00100000
00010000
00100000
00001000
00010000
00000010
00010000
00001000
00100000
00001000
00010000
00001000
00010000
00000100
01000000
00001000
,
10000000
00100000
01000000
00010000
10000000
00010000
10000000
00010000
10000000
00010000
00100000
00010000
01000000
00100000
01000000
00010000
,
10000000
00100000
10000000
01000000
10000000
01000000
00100000
01000000
00100000
01000000
10000000
01000000
00100000
00010000
01000000
00100000
,
10000000
00010000
01000000
00001000
01000000
00010000
00100000
00010000
00100000
00001000
00100000
00000010
00010000
00000010
00100000
00010000
,
10000000
00010000
01000000
00010000
01000000
00001000
01000000
00000100
00001000
00000100
00000010
00000001
00000010
00000100
00001000
00000001
,
00000100
00000010
00000100
00000010
00000100
00000010
00000100
00000010
00010000
00000010
00010000
00000010
00100000
00000010
00100000
00000010
,
00100000
00010000
00100000
00010000
00100000
00010000
00100000
01000000
00100000
00010000
10000000
00100000
10000000
00001000
01000000
00010000
,
01000000
00010000
01000000
00100000
01000000
00100000
10000000
00100000
10000000
00010000
00100000
00001000
00010000
00000100
00000010
00000001
,
00001000
00000100
00001000
00000001
00001000
00000100
00001000
00000001
00000100
00000010
00010000
00001000
01000000
00001000
00010000
00000100
,
00001000
00000001
00010000
00000010
00000100
00000001
00001000
00000100
00010000
00000100
00010000
00000100
00001000
00000100
00000010
00000001
,
00000100
00000010
00001000
00000001
00000100
00000010
00000100
00000010
00000100
00000010
00001000
00000001
00001000
00000100
01000000
00000100
,
01000000
00000100
01000000
00000100
00010000
00001000
10000000
00010000
00100000
00010000
00100000
00001000
00100000
00010000
01000000
00010000
,
01000000
00001000
01000000
00000100
00010000
00000100
00010000
00000010
00010000
00000010
00001000
00000010
00001000
00000001
00000100
00000010
,
00010000
00000010
00010000
00001000
01000000
00010000
00100000
01000000
00100000
00010000
10000000
00100000
10000000
00100000
10000000
00010000
,
00100000
00010000
01000000
00010000
01000000
00001000
10000000
00001000
00100000
00000010
00010000
00001000
10000000
00001000
01000000
00001000
,
00010000
00001000
00100000
00000010
00100000
00001000
00010000
00001000
01000000
00100000
10000000
00010000
10000000
00010000
01000000
00001000
,
00010000
00000100
00010000
00000100
00000010
00000100
00000010
00000100
00000010
00000100
00001000
00000001
00000100
00000010
00000100
00000010
,
00001000
00000010
00001000
00000010
00100000
00001000
10000000
00010000
00100000
00010000
01000000
00010000
01000000
00100000
01000000
00010000
,
00100000
00010000
10000000
01000000
00100000
00010000
01000000
00100000
01000000
00100000
01000000
00100000
10000000
01000000
10000000
01000000
,
00100000
01000000
10000000
01000000
00100000
00010000
00100000
00010000
00100000
01000000
00100000
00001000
10000000
00010000
10000000
00001000
,
10000000
00001000
00010000
00001000
01000000
00000100
01000000
00001000
10000000
00001000
10000000
00100000
01000000
00100000
01000000
00100000
,
01000000
00100000
10000000
00100000
10000000
00010000
10000000
00001000
01000000
00001000
00010000
00000001
00010000
00000010
00001000
00000010
,
00000100
00000001
00000100
00000010
00010000
00001000
00010000
00000100
00010000
00000001
00001000
00000010
00001000
00000100
00001000
00000100
,
00001000
00000100
00000010
00000001
00001000
00000100
00000010
00000001
00010000
00000100
01000000
00001000
01000000
00000100
00010000
00001000
,
01000000
00000100
00010000
00000100
00001000
00000100
01000000
00001000
00010000
00000100
00001000
00000100
00010000
00000001
00010000
00001000
,
01000000
00001000
00010000
00001000
00010000
00001000
01000000
00001000
10000000
00100000
10000000
00100000
01000000
00100000
01000000
00100000
,
01000000
00010000
10000000
01000000
00100000
00001000
00100000
00010000
10000000
00010000
10000000
00001000
00010000
00001000
00100000
00000010
,
00100000
00001000
01000000
00001000
01000000
00010000
01000000
00100000
01000000
00010000
00100000
01000000
00100000
01000000
10000000
01000000
,
00100000
01000000
10000000
00100000
01000000
00100000
10000000
00010000
10000000
01000000
00100000
00010000
01000000
00001000
10000000
00010000
,
01000000
00010000
00100000
01000000
10000000
01000000
00100000
01000000
00100000
00010000
00100000
00010000
10000000
00010000
10000000
01000000
,
00100000
01000000
00100000
00001000
00100000
00001000
00100000
00001000
00100000
00000010
00010000
00001000
01000000
00100000
01000000
00010000
,
01000000
00100000
10000000
00100000
10000000
00010000
10000000
00010000
00100000
00010000
01000000
00100000
01000000
00100000
10000000
00100000
,
10000000
01000000
00100000
01000000
10000000
00010000
10000000
01000000
00100000
01000000
00100000
00010000
01000000
00010000
10000000
00001000
,
10000000
00010000
00100000
00010000
10000000
00001000
10000000
00100000
01000000
00010000
01000000
00010000
01000000
00001000
00100000
00000010
,
00010000
00000010
00001000
00000001
00001000
00000010
00010000
00000010
00010000
00000001
00000100
00000010
00000100
00000001
00000100
00000010
,
00001000
00000100
00001000
00000100
00000010
00000100
00000010
00000100
00000010
00000100
00000010
00000100
00010000
00000100
01000000
00001000
,
01000000
00000100
00010000
00000010
00010000
00000001
00010000
00000100
00001000
00000100
00001000
00000100
00000010
00000100
00001000
00000001
,
00010000
00000010
00001000
00000100
00010000
00000001
00010000
00000010
00001000
00000010
00001000
00000100
00001000
00000001
00010000
00000100
,
00010000
00000001
00010000
00000100
00000010
00000100
00001000
00000100
00010000
00001000
10000000
00001000
10000000
00010000
01000000
00010000
,
00100000
00010000
00100000
01000000
10000000
01000000
10000000
00010000
00100000
01000000
10000000
00001000
01000000
00000100
01000000
00001000
,
00010000
00001000
10000000
00010000
01000000
00010000
10000000
01000000
00100000
00010000
00100000
00000010
00100000
00000010
00100000
00001000
,
00010000
00001000
10000000
00001000
10000000
00010000
01000000
00010000
10000000
00001000
01000000
00001000
10000000
00001000
00010000
00000010
,
00010000
00001000
00010000
00001000
00100000
00010000
00100000
00000010
00100000
00001000
10000000
00010000
10000000
00010000
01000000
00010000
,
01000000
00001000
10000000
00001000
00010000
00000010
00010000
00001000
00100000
00000010
00100000
00000010
00100000
00010000
00100000
01000000
,
00100000
00010000
00100000
01000000
10000000
01000000
10000000
00001000
01000000
00001000
10000000
00010000
10000000
00001000
00010000
00001000
,
01000000
00001000
01000000
00001000
01000000
00000100
01000000
00010000
01000000
00010000
01000000
00010000
10000000
00001000
00010000
00000100
,
00010000
00001000
00100000
00000010
00100000
00000010
00100000
00001000
01000000
00010000
10000000
00100000
01000000
00100000
01000000
00010000
,
00100000
01000000
00100000
01000000
10000000
00010000
10000000
00010000
00100000
01000000
00100000
00010000
00100000
00001000
10000000
00100000
,
10000000
00100000
01000000
00100000
01000000
00010000
10000000
00100000
01000000
00100000
01000000
00100000
01000000
00010000
01000000
00100000
,
01000000
00001000
01000000
00001000
01000000
00010000
01000000
00010000
00100000
00010000
10000000
01000000
10000000
00010000
00100000
00001000
,
10000000
00100000
10000000
00100000
01000000
00100000
10000000
01000000
10000000
00010000
01000000
00100000
10000000
01000000
00100000
00010000
,
10000000
01000000
10000000
00100000
10000000
00100000
01000000
00010000
10000000
00001000
00100000
00001000
10000000
01000000
10000000
00010000
,
01000000
00001000
10000000
00001000
00100000
00001000
00010000
00000100
00000010
00000001
00001000
00000100
00010000
00000100
00010000
00000100
,
00010000
00000001
00000010
00000100
00000010
00000001
00000010
00000100
00001000
00000100
00001000
00000010
00000100
00000001
00001000
00000010
,
00001000
00000010
00001000
00000010
00010000
00000100
01000000
00000100
00010000
00000100
00010000
00000100
00010000
00000001
00000100
00000010
,
00001000
00000001
00001000
00000100
00010000
00000010
00010000
00001000
00010000
00000100
01000000
00000100
01000000
00001000
00100000
00001000
,
00010000
00000010
00001000
00000001
00010000
00001000
00010000
00001000
00100000
00000010
00010000
00000001
00010000
00000100
01000000
00010000
,
01000000
00010000
10000000
01000000
00100000
01000000
10000000
00100000
10000000
00010000
00100000
00001000
00010000
00001000
00100000
00000010
,
00100000
00000010
00010000
00001000
00100000
01000000
10000000
01000000
00100000
00010000
00100000
00010000
00100000
00001000
00100000
00010000
,
10000000
00010000
10000000
01000000
10000000
00010000
01000000
00010000
01000000
00001000
01000000
00001000
01000000
00010000
00100000
00001000
,
00100000
00010000
00100000
00001000
10000000
00010000
10000000
01000000
10000000
01000000
10000000
00100000
10000000
00010000
00100000
00010000
,
00100000
01000000
10000000
00010000
00100000
01000000
00100000
00010000
00100000
01000000
10000000
01000000
10000000
00010000
01000000
00010000
,
00100000
00010000
00100000
00001000
10000000
00010000
00100000
00010000
10000000
00001000
00100000
00001000
00100000
00000010
00100000
00010000
,
00100000
00010000
10000000
00100000
10000000
00100000
10000000
00100000
10000000
00100000
10000000
00001000
00100000
00000010
00100000
00001000
,
10000000
00010000
00100000
01000000
00100000
00010000
00100000
00001000
10000000
00001000
00010000
00000100
00001000
00000100
00010000
00001000
,
01000000
00010000
10000000
00100000
01000000
00001000
10000000
00010000
10000000
00010000
01000000
00010000
10000000
00001000
00010000
00000010
,
00010000
00000001
00010000
00000010
00001000
00000010
00001000
00000100
00001000
00000100
00000010
00000100
00000010
00000001
00001000
00000010
,
00010000
00001000
10000000
00001000
10000000
00001000
00100000
00001000
10000000
00001000
10000000
00001000
10000000
01000000
10000000
00010000
,
10000000
01000000
00100000
01000000
10000000
01000000
00100000
00001000
00010000
00000010
00010000
00000010
00100000
00001000
00100000
00010000
,
00100000
00001000
00010000
00001000
01000000
00000100
01000000
00000100
01000000
00010000
10000000
00100000
01000000
00100000
10000000
00100000
,
10000000
01000000
00100000
01000000
10000000
01000000
10000000
00100000
01000000
00010000
01000000
00100000
10000000
00010000
00100000
01000000
,
00100000
00010000
01000000
00100000
01000000
00010000
01000000
00001000
10000000
00010000
00100000
00010000
00100000
00000010
00010000
00000001
,
00001000
00000010
00000100
00000001
00000100
00000010
00001000
00000100
00001000
00000001
00000010
00000100
00000010
00000001
00001000
00000010
,
00010000
00000010
00010000
00000100
00010000
00000100
00001000
00000100
00001000
00000010
00000100
00000001
00001000
00000010
00001000
00000100
,
00010000
00001000
00100000
00001000
00100000
00010000
01000000
00010000
10000000
01000000
10000000
01000000
10000000
01000000
10000000
00100000
,
01000000
00100000
10000000
00100000
10000000
00010000
10000000
00010000
00100000
01000000
00100000
00001000
00100000
00000010
00010000
00000001
,
00010000
00000010
00001000
00000010
00001000
00000100
00010000
00000001
00001000
00000100
00001000
00000001
00001000
00000100
00001000
00000001
,
00000100
00000010
00000100
00000010
00000100
00000001
00010000
00000100
01000000
00000100
00010000
00001000
00100000
00000010
00010000
00000010
,
00000100
00000001
00001000
00000100
00000010
00000100
00001000
00000100
00010000
00000010
00001000
00000010
00001000
00000001
00001000
00000010
,
00001000
00000001
00001000
00000100
00001000
00000001
00000100
00000010
00001000
00000100
00000010
00000001
00001000
00000100
00001000
00000010
;

//---------------dance-double - Kyzentun Science----------------
#NOTES:
     dance-double:
     Kyzentun Science:
     Hard:
     10:
     0.853,1.000,0.008,0.591,0.894,1291.000,2.000,142.000,99.000,32.000,16.000,0.853,1.000,0.008,0.591,0.894,1291.000,2.000,142.000,99.000,32.000,16.000:
00000000
00000000
00000000
00000000
,  // measure 1
00010000
00001000
01000000
00001000
01000000
00000100
01000000
00000100
01000000
00001000
01000000
00010000
,
10000000
00100000
10000000
01000000
00100000
01000000
10000000
00100000
10000000
00010000
00100000
01000000
,
10000000
01000000
00100000
00010000
00100000
00000010
00010000
00000001
00010000
00000100
00010000
00000100
,
01000000
00010000
01000000
00010000
01000000
00001000
00010000
00000010
00100000
00000010
00001000
00000010
,
00010000
00000100
00001000
00000001
00000100
00000010
00000100
00000001
00010000
00000100
01000000
00000100
,
01000000
00001000
00010000
00000100
01000000
00010000
01000000
00100000
10000000
01000000
10000000
01000000
,
00100000
00010000
01000000
00010000
01000000
00001000
10000000
00010000
01000000
00010000
01000000
00000100
,
00010000
00000100
01000000
00000100
01000000
00010000
01000000
00010000
10000000
00100000
01000000
00001000
,
00010000
00001000
00010000
00000010
00010000
00000100
00010000
00001000
10000000
00010000
00100000
00001000
,
00010000
00000010
00000100
00000010
00001000
00000100
00010000
00000100
01000000
00001000
01000000
00001000
,
01000000
00001000
01000000
00001000
00010000
00001000
00100000
00001000
10000000
01000000
00100000
01000000
,
10000000
00100000
10000000
00010000
00100000
00001000
01000000
00001000
01000000
00010000
10000000
00100000
,
01000000
00010000
01000000
00001000
00010000
00001000
01000000
00100000
10000000
00010000
01000000
00010000
,
10000000
00001000
01000000
00100000
10000000
00010000
10000000
00100000
01000000
00100000
10000000
00100000
,
10000000
00001000
01000000
00001000
00100000
00001000
00100000
00000010
00010000
00000100
00001000
00000100
,
00001000
00000010
00010000
00000010
00100000
00000010
00100000
00010000
00100000
00010000
00100000
00001000
,
00010000
00000010
00001000
00000010
00000100
00000001
00000100
00000010
00000100
00000010
00010000
00000001
,
00010000
00000100
01000000
00000100
01000000
00001000
00100000
00000010
00100000
00000010
00010000
00000010
,
00010000
00000010
00010000
00000100
00010000
00000100
00001000
00000100
00010000
00000010
00010000
00000001
,
00010000
00000010
00100000
00001000
00100000
00001000
01000000
00001000
10000000
00010000
10000000
00100000
,
01000000
00010000
00100000
01000000
00100000
01000000
10000000
01000000
00100000
01000000
00100000
01000000
,
10000000
00001000
00100000
00000010
00010000
00000010
00100000
00000010
00001000
00000001
00010000
00000100
,
00001000
00000010
00001000
00000010
00001000
00000100
00001000
00000001
00001000
00000100
00000010
00000100
,
00000010
00000100
00001000
00000100
00001000
00000001
00000010
00000100
00000010
00000001
00010000
00000100
,
00010000
00000001
00001000
00000010
00010000
00001000
00100000
00000010
00001000
00000010
00001000
00000001
,
00000100
00000010
00001000
00000001
00001000
00000100
00001000
00000100
00000010
00000100
00001000
00000001
,
00001000
00000010
00100000
00001000
00100000
00000010
00100000
00000010
00001000
00000010
00010000
00001000
,
00010000
00001000
00010000
00000100
01000000
00001000
10000000
00010000
10000000
00010000
10000000
00001000
,
10000000
00100000
01000000
00010000
01000000
00010000
00100000
00010000
10000000
00100000
10000000
01000000
,
10000000
01000000
10000000
00010000
10000000
00100000
01000000
00001000
00010000
00001000
00010000
00001000
,
01000000
00000100
00010000
00000100
00010000
00001000
00100000
00010000
01000000
00001000
00010000
00000001
,
00010000
00000010
00100000
00001000
00010000
00001000
10000000
00010000
01000000
00100000
10000000
00010000
,
10000000
00001000
10000000
00010000
01000000
00010000
01000000
00000100
01000000
00001000
00100000
00001000
,
10000000
00010000
00100000
00010000
10000000
00100000
10000000
00100000
10000000
00001000
01000000
00010000
,
00100000
00010000
10000000
01000000
10000000
00010000
01000000
00001000
10000000
00001000
10000000
00010000
,
01000000
00100000
10000000
00001000
10000000
00010000
01000000
00010000
01000000
00100000
01000000
00100000
,
01000000
00100000
01000000
00001000
01000000
00001000
01000000
00001000
00010000
00000001
00010000
00000100
,
01000000
00000100
00010000
00000010
00010000
00001000
01000000
00010000
10000000
01000000
10000000
00010000
,
01000000
00010000
01000000
00000100
01000000
00000100
00010000
00000100
00010000
00000010
00001000
00000010
,
00000100
00000010
00000100
00000010
00001000
00000010
00000100
00000001
00000010
00000100
00001000
00000010
,
00010000
00001000
00010000
00000010
00001000
00000010
00100000
00000010
00100000
00001000
10000000
00001000
,
00010000
00000100
00010000
00001000
00100000
00001000
01000000
00010000
10000000
00010000
01000000
00010000
,
00100000
00001000
10000000
00001000
01000000
00010000
00100000
00001000
00100000
00000010
00010000
00000001
,
00000100
00000010
00001000
00000100
00000010
00000001
00001000
00000100
00000010
00000100
00000010
00000001
,
00000100
00000010
00001000
00000100
00001000
00000001
00010000
00001000
00100000
00010000
10000000
00010000
,
10000000
00001000
01000000
00001000
01000000
00010000
00100000
00010000
00100000
00010000
01000000
00100000
,
10000000
00100000
10000000
00100000
01000000
00010000
10000000
00100000
10000000
01000000
00100000
01000000
,
00100000
01000000
00100000
00001000
10000000
00001000
00010000
00001000
00010000
00000100
00001000
00000010
,
00010000
00000001
00010000
00000100
00001000
00000100
00001000
00000010
00000100
00000001
00000010
00000100
,
00000010
00000001
00000010
00000100
00010000
00000001
00001000
00000100
00001000
00000001
00000010
00000100
,
00000010
00000001
00001000
00000100
00000010
00000100
00000010
00000001
00000010
00000100
00010000
00001000
,
00100000
00010000
00100000
00001000
10000000
00010000
10000000
00010000
01000000
00000100
01000000
00001000
,
01000000
00001000
00100000
00000010
00100000
00001000
00010000
00001000
10000000
00001000
01000000
00000100
,
01000000
00000100
00001000
00000001
00010000
00000100
00010000
00000010
00010000
00001000
10000000
00010000
,
10000000
00001000
00100000
00000010
00100000
00010000
10000000
00001000
01000000
00001000
01000000
00001000
,
00010000
00000010
00001000
00000001
00000010
00000100
00010000
00000100
01000000
00001000
00010000
00000100
,
00001000
00000010
00001000
00000001
00001000
00000100
00010000
00001000
00010000
00000010
00001000
00000001
,
00010000
00000100
00010000
00001000
00100000
00001000
00010000
00000100
00010000
00000001
00010000
00000100
,
00001000
00000001
00010000
00000100
01000000
00000100
01000000
00001000
00100000
00001000
10000000
00001000
,
10000000
00001000
01000000
00010000
10000000
01000000
10000000
00001000
01000000
00001000
00100000
00010000
,
00100000
00010000
01000000
00001000
00010000
00000001
00010000
00000100
01000000
00000100
01000000
00010000
,
10000000
00010000
10000000
00001000
00100000
01000000
00100000
01000000
10000000
01000000
00100000
00010000
,
00100000
00010000
01000000
00010000
01000000
00100000
01000000
00100000
01000000
00010000
01000000
00001000
,
00100000
00001000
10000000
00010000
01000000
00010000
00100000
00010000
00100000
01000000
00100000
01000000
,
00100000
01000000
00100000
00001000
00100000
00001000
01000000
00001000
01000000
00000100
01000000
00000100
,
00001000
00000001
00010000
00001000
01000000
00001000
00010000
00000010
00100000
00001000
00100000
01000000
,
10000000
00010000
01000000
00100000
01000000
00001000
10000000
00010000
00100000
01000000
00100000
00001000
,
10000000
00010000
10000000
00010000
01000000
00100000
01000000
00001000
00010000
00001000
10000000
00010000
,
00100000
00001000
00010000
00001000
10000000
00010000
10000000
01000000
00100000
00010000
10000000
00001000
,
10000000
00001000
01000000
00010000
00100000
01000000
00100000
01000000
10000000
01000000
00100000
00001000
,
00010000
00001000
00100000
00000010
00100000
00010000
10000000
00100000
01000000
00100000
01000000
00001000
,
01000000
00000100
01000000
00000100
01000000
00000100
01000000
00010000
10000000
01000000
00100000
00010000
,
10000000
01000000
00100000
00010000
01000000
00010000
10000000
00100000
01000000
00100000
01000000
00001000
,
10000000
00010000
00100000
00001000
10000000
00001000
00010000
00000010
00001000
00000001
00001000
00000100
,
01000000
00001000
00010000
00000100
00001000
00000010
00001000
00000001
00001000
00000010
00010000
00000010
,
00001000
00000001
00001000
00000010
00010000
00001000
01000000
00010000
10000000
01000000
00100000
01000000
,
10000000
00001000
10000000
00001000
00010000
00000010
00010000
00001000
00100000
00001000
10000000
00001000
,
10000000
00100000
01000000
00100000
10000000
00100000
10000000
01000000
10000000
00010000
01000000
00001000
,
00100000
00000010
00100000
00000010
00100000
00001000
00100000
00010000
10000000
01000000
10000000
00001000
,
01000000
00001000
10000000
00010000
10000000
01000000
10000000
01000000
00100000
00001000
00100000
00010000
,
01000000
00100000
10000000
00010000
10000000
01000000
00100000
01000000
10000000
00001000
10000000
00001000
,
00010000
00001000
01000000
00010000
10000000
00010000
01000000
00001000
00100000
00000010
00010000
00000001
,
00001000
00000100
00010000
00001000
00010000
00001000
01000000
00100000
01000000
00010000
00100000
00010000
,
10000000
00010000
10000000
00100000
10000000
00001000
00100000
00000010
00010000
00001000
00010000
00000100
,
00010000
00000001
00001000
00000010
00001000
00000010
00010000
00001000
00100000
00001000
10000000
00001000
,
00010000
00001000
00010000
00000010
00100000
00001000
00100000
01000000
10000000
01000000
10000000
00100000
,
10000000
00010000
00100000
01000000
10000000
00100000
10000000
00100000
10000000
00100000
10000000
01000000
,
10000000
01000000
00100000
01000000
10000000
00010000
10000000
00010000
00100000
00000010
00100000
00001000
,
00100000
00010000
10000000
01000000
10000000
00100000
01000000
00100000
10000000
00100000
10000000
00001000
,
10000000
00001000
00010000
00001000
00010000
00000001
00001000
00000100
00010000
00000001
00010000
00001000
,
01000000
00000100
01000000
00001000
00100000
00000010
00010000
00000100
00010000
00000001
00001000
00000100
,
00000010
00000001
00000010
00000100
00001000
00000010
00001000
00000010
00001000
00000001
00000010
00000100
,
00001000
00000010
00001000
00000001
00000010
00000100
00000010
00000001
00000010
00000100
00000010
00000001
,
00010000
00000100
00001000
00000010
00010000
00000010
00100000
00001000
00100000
01000000
10000000
01000000
,
10000000
00010000
01000000
00010000
10000000
00100000
10000000
01000000
10000000
01000000
10000000
01000000
,
10000000
00100000
10000000
00100000
10000000
00100000
10000000
00100000
10000000
00001000
00100000
00010000
,
01000000
00010000
10000000
01000000
00100000
00010000
01000000
00001000
10000000
00001000
10000000
00001000
,
10000000
01000000
10000000
01000000
10000000
01000000
10000000
00010000
00100000
00010000
00100000
00000010
,
00010000
00001000
00010000
00000010
00100000
00000010
00010000
00000010
00100000
00000010
00100000
00000010
,
00100000
00010000
00100000
00001000
00010000
00001000
01000000
00001000
10000000
00010000
00100000
00010000
,
10000000
00010000
01000000
00000100
00010000
00001000
00100000
00000010
00100000
00010000
00100000
00010000
,
10000000
00100000
01000000
00010000
00100000
00010000
00100000
01000000
00100000
00010000
01000000
00100000
,
10000000
01000000
10000000
01000000
10000000
01000000
10000000
00100000
10000000
00100000
10000000
01000000
,
00100000
00010000
10000000
00010000
00100000
01000000
00100000
00001000
00100000
00000010
00010000
00000001
,
00010000
00001000
00100000
00000010
00010000
00000010
00001000
00000010
00100000
00000010
00100000
00001000
,
00100000
00001000
00010000
00001000
10000000
00010000
10000000
00010000
01000000
00100000
01000000
00100000
,
01000000
00010000
10000000
00001000
10000000
01000000
10000000
00010000
00100000
01000000
00100000
01000000
,
00100000
01000000
00100000
01000000
00100000
00010000
01000000
00010000
01000000
00100000
01000000
00010000
,
10000000
00001000
00100000
01000000
00100000
00010000
10000000
00001000
00100000
00001000
00100000
00000010
,
00100000
00000010
00010000
00001000
10000000
00010000
00100000
00001000
10000000
00010000
00100000
01000000
,
00100000
01000000
00100000
00010000
10000000
00001000
10000000
00100000
10000000
00100000
01000000
00010000
,
00100000
01000000
10000000
01000000
00100000
01000000
00100000
00010000
00100000
01000000
00100000
01000000
,
00100000
00010000
00100000
01000000
10000000
00001000
01000000
00001000
10000000
00001000
01000000
00001000
,
00010000
00000100
01000000
00000100
00001000
00000100
00001000
00000001
00001000
00000010
00100000
00001000
,
00100000
00000010
00010000
00000010
00000100
00000001
00001000
00000010
00000100
00000001
00000100
00000010
,
00010000
00000010
00100000
00000010
00100000
00000010
00100000
00000010
00001000
00000001
00000010
00000100
,
00000010
00000001
00010000
00000100
00001000
00000100
00000010
00000100
00000010
00000001
00000100
00000010
,
00001000
00000010
00001000
00000100
00001000
00000001
00000100
00000010
00001000
00000100
00001000
00000001
,
00010000
00000010
00010000
00001000
00010000
00001000
00100000
00001000
01000000
00001000
00010000
00000001
,
00010000
00000100
00010000
00000001
00010000
00001000
00010000
00000100
01000000
00001000
00010000
00000001
,
00001000
00000010
00000100
00000010
00000100
00000010
00000100
00000001
00010000
00000100
01000000
00000100
,
01000000
00001000
00010000
00001000
10000000
00001000
00100000
00000010
00010000
00000010
00001000
00000010
,
00000100
00000001
00001000
00000010
00001000
00000001
00000100
00000010
00010000
00000001
00010000
00000100
,
00010000
00000100
01000000
00000100
00001000
00000100
00000010
00000001
00001000
00000010
00001000
00000100
,
00001000
00000001
00000100
00000010
00001000
00000001
00000010
00000100
00001000
00000001
00000010
00000100
,
00010000
00001000
00100000
00001000
00010000
00000001
00001000
00000100
00001000
00000001
00010000
00001000
,
00100000
00000010
00100000
00001000
10000000
00001000
01000000
00010000
10000000
00100000
10000000
00010000
,
00100000
00001000
00100000
00000010
00100000
00010000
10000000
01000000
00100000
00010000
01000000
00010000
,
01000000
00010000
00100000
01000000
10000000
01000000
00100000
00010000
10000000
00100000
01000000
00100000
,
01000000
00001000
00010000
00000010
00100000
00000010
00100000
00000010
00100000
00010000
10000000
00001000
,
10000000
00001000
10000000
00001000
00100000
00001000
00100000
00010000
10000000
00100000
10000000
00010000
,
10000000
00100000
10000000
00001000
10000000
00010000
01000000
00001000
10000000
00010000
10000000
00100000
,
10000000
00100000
01000000
00010000
01000000
00001000
01000000
00010000
10000000
01000000
10000000
00010000
,
10000000
01000000
00100000
01000000
00100000
00010000
01000000
00010000
10000000
01000000
10000000
00100000
,
10000000
00100000
10000000
01000000
10000000
00010000
01000000
00010000
10000000
00010000
01000000
00001000
,
10000000
00010000
00100000
01000000
00100000
00010000
01000000
00010000
01000000
00001000
01000000
00001000
,
10000000
01000000
10000000
00010000
00100000
00001000
10000000
00010000
01000000
00000100
01000000
00001000
,
01000000
00000100
01000000
00010000
01000000
00100000
01000000
00100000
01000000
00100000
01000000
00001000
,
01000000
00000100
00010000
00000010
00100000
00001000
10000000
00010000
10000000
00010000
00100000
00001000
,
00100000
01000000
10000000
00010000
01000000
00001000
00100000
00010000
00100000
01000000
00100000
01000000
,
00100000
00001000
00100000
00001000
00100000
00000010
00100000
00000010
00010000
00000001
00001000
00000100
,
00010000
00000100
00001000
00000001
00010000
00000010
00000100
00000001
00001000
00000100
00000010
00000001
,
00000100
00000010
00000100
00000010
00001000
00000100
00000010
00000100
00000010
00000100
00001000
00000100
,
00000010
00000001
00001000
00000010
00001000
00000001
00010000
00000010
00100000
00010000
00100000
00010000
,
10000000
00010000
00100000
00000010
00100000
00001000
10000000
00001000
10000000
00100000
01000000
00100000
,
10000000
00100000
01000000
00100000
01000000
00100000
10000000
00001000
10000000
00001000
00010000
00001000
,
00010000
00000010
00010000
00000100
01000000
00000100
01000000
00001000
00100000
00001000
00010000
00001000
,
00100000
00010000
00100000
00001000
10000000
01000000
10000000
01000000
10000000
01000000
00100000
00001000
,
00100000
00000010
00100000
00001000
10000000
00100000
10000000
00010000
00100000
00001000
10000000
00001000
,
00010000
00000010
00100000
00000010
00010000
00001000
01000000
00001000
10000000
00010000
01000000
00100000
,
10000000
01000000
00100000
01000000
00100000
00010000
10000000
01000000
00100000
01000000
00100000
00010000
,
00100000
00001000
01000000
00000100
01000000
00001000
10000000
00001000
01000000
00010000
01000000
00001000
,
00010000
00000100
00010000
00000001
00010000
00000010
00100000
00000010
00100000
00001000
01000000
00001000
,
00010000
00000100
00001000
00000010
00010000
00000001
00001000
00000100
00001000
00000010
00001000
00000001
,
00001000
00000100
00001000
00000001
00000100
00000010
00000100
00000010
00000100
00000010
00001000
00000010
,
00010000
00000010
00010000
00000010
00000100
00000010
00000100
00000010
00000100
00000010
00010000
00000010
,
00010000
00001000
00100000
00000010
00010000
00000100
00001000
00000001
00001000
00000010
00000100
00000010
,
00000100
00000010
00001000
00000010
00100000
00001000
00100000
00010000
10000000
00010000
10000000
00001000
,
10000000
00010000
01000000
00000100
00010000
00000100
00001000
00000001
00000100
00000010
00001000
00000001
,
00001000
00000010
00100000
00000010
00100000
00000010
00010000
00000010
00100000
00010000
00100000
00001000
,
01000000
00001000
10000000
00001000
00100000
00010000
01000000
00010000
10000000
01000000
10000000
00010000
,
00100000
00010000
10000000
00001000
00010000
00000100
00001000
00000100
00001000
00000010
00001000
00000010
,
00010000
00000010
00100000
00001000
00100000
01000000
10000000
01000000
10000000
00010000
10000000
01000000
,
00100000
00001000
00100000
00010000
00100000
00010000
01000000
00001000
01000000
00001000
00100000
00001000
,
10000000
00010000
00100000
00010000
10000000
00010000
10000000
00001000
10000000
00001000
00100000
01000000
,
00100000
00010000
00100000
00010000
10000000
01000000
10000000
00010000
10000000
00001000
00010000
00000100
,
01000000
00001000
01000000
00001000
10000000
00100000
01000000
00100000
10000000
00100000
10000000
00010000
,
10000000
00100000
01000000
00100000
01000000
00010000
01000000
00100000
10000000
00010000
10000000
00100000
,
10000000
00100000
01000000
00100000
10000000
00001000
10000000
00010000
01000000
00100000
01000000
00010000
,
10000000
00010000
01000000
00001000
01000000
00001000
00010000
00001000
10000000
00010000
01000000
00001000
,
10000000
00001000
01000000
00100000
01000000
00100000
10000000
00100000
10000000
00001000
00100000
00001000
,
00010000
00000100
01000000
00001000
01000000
00001000
10000000
00100000
01000000
00100000
01000000
00100000
,
10000000
01000000
10000000
01000000
10000000
00010000
01000000
00000100
01000000
00001000
10000000
00001000
,
00010000
00000100
00010000
00000001
00001000
00000100
00001000
00000010
00000100
00000010
00001000
00000001
,
00001000
00000010
00000100
00000010
00010000
00001000
00010000
00000100
00001000
00000001
00000100
00000010
,
00000100
00000001
00001000
00000100
00010000
00001000
00100000
00010000
10000000
00001000
00010000
00000010
,
00010000
00000010
00100000
00000010
00001000
00000001
00010000
00000010
00001000
00000010
00010000
00001000
,
00010000
00000001
00010000
00000010
00010000
00000100
00010000
00000100
00010000
00000100
00010000
00000010
,
00100000
00000010
00010000
00000100
00001000
00000001
00000010
00000100
00001000
00000010
00001000
00000001
,
00010000
00000010
00010000
00000001
00010000
00000100
01000000
00000100
00001000
00000001
00000100
00000010
,
00001000
00000001
00000010
00000100
00000010
00000100
00000010
00000001
00010000
00000100
01000000
00000100
,
01000000
00000100
01000000
00010000
10000000
00010000
10000000
00001000
01000000
00010000
01000000
00000100
,
00010000
00001000
10000000
00010000
00100000
00001000
01000000
00010000
01000000
00001000
00010000
00001000
,
00100000
00000010
00100000
00000010
00001000
00000010
00000100
00000001
00000100
00000010
00010000
00000001
,
00001000
00000010
00010000
00000001
00001000
00000010
00100000
00000010
00100000
00000010
00100000
00000010
,
00010000
00000010
00100000
00000010
00100000
00010000
00100000
01000000
10000000
00010000
00100000
01000000
,
00100000
00001000
00010000
00000010
00010000
00001000
00010000
00000100
00001000
00000010
00001000
00000001
,
00000010
00000100
00001000
00000100
01000000
00000100
00010000
00000001
00010000
00000010
00010000
00000100
,
00001000
00000100
00000010
00000001
00000010
00000100
00000010
00000100
00010000
00000001
00010000
00000010
,
00001000
00000010
00001000
00000001
00000010
00000100
00010000
00000001
00010000
00000100
01000000
00001000
,
00010000
00001000
00010000
00000001
00010000
00000010
00010000
00000100
01000000
00001000
10000000
00010000
,
10000000
01000000
10000000
00001000
00100000
00000010
00010000
00000100
00001000
00000100
00000010
00000001
,
00000100
00000010
00001000
00000010
00001000
00000010
00001000
00000100
00000010
00000100
00001000
00000100
,
00001000
00000100
00001000
00000001
00001000
00000100
01000000
00001000
01000000
00010000
01000000
00001000
,
01000000
00010000
00100000
01000000
00100000
00010000
10000000
00010000
00100000
01000000
00100000
00010000
,
00100000
00010000
10000000
00001000
00100000
00010000
00100000
00010000
01000000
00100000
01000000
00100000
,
01000000
00010000
00100000
01000000
00100000
01000000
10000000
01000000
00100000
00001000
00100000
00010000
,
01000000
00001000
01000000
00010000
01000000
00100000
10000000
00001000
10000000
00010000
00100000
00010000
,
10000000
00010000
10000000
00010000
00100000
01000000
10000000
00001000
01000000
00000100
00010000
00001000
,
00100000
00000010
00001000
00000001
00000010
00000100
00000010
00000001
00000010
00000100
00001000
00000010
,
00001000
00000010
00010000
00000100
01000000
00000100
01000000
00001000
00100000
00001000
10000000
00001000
,
00010000
00000100
00010000
00000100
00001000
00000010
00001000
00000001
00001000
00000100
00000010
00000001
,
00000010
00000100
00001000
00000100
01000000
00000100
00010000
00001000
10000000
00010000
10000000
01000000
,
10000000
01000000
00100000
01000000
00100000
01000000
00100000
00001000
00010000
00000100
00010000
00000010
,
00010000
00000010
00100000
00001000
01000000
00010000
01000000
00010000
00100000
00010000
00100000
00001000
,
10000000
00001000
01000000
00100000
01000000
00010000
00100000
01000000
00100000
01000000
00100000
01000000
,
10000000
01000000
10000000
00001000
10000000
00010000
00100000
01000000
00100000
00010000
01000000
00100000
,
01000000
00100000
01000000
00010000
10000000
00001000
01000000
00000100
01000000
00001000
00010000
00000010
,
00001000
00000100
00001000
00000100
00000010
00000100
00000010
00000001
00000100
00000010
00001000
00000100
,
00010000
00000001
00001000
00000100
00000010
00000100
00001000
00000010
00001000
00000001
00000100
00000010
,
00000100
00000001
00000100
00000010
00001000
00000010
00100000
00001000
10000000
00001000
01000000
00010000
,
00100000
00010000
10000000
00010000
10000000
01000000
10000000
00010000
00100000
00010000
10000000
00100000
,
10000000
00100000
10000000
01000000
10000000
00010000
10000000
00100000
01000000
00001000
10000000
00010000
,
01000000
00010000
00100000
00010000
00100000
00001000
01000000
00001000
10000000
00010000
00100000
01000000
,
00100000
01000000
10000000
00001000
10000000
00001000
00100000
00010000
01000000
00001000
01000000
00000100
,
01000000
00000100
00010000
00001000
01000000
00001000
00100000
00001000
00010000
00000001
00001000
00000010
,
00010000
00000010
00010000
00000001
00000010
00000100
00001000
00000100
00001000
00000010
00010000
00001000
,
01000000
00000100
01000000
00010000
01000000
00001000
00010000
00000100
00010000
00000001
00000100
00000010
,
00000100
00000010
00000100
00000001
00001000
00000100
00001000
00000001
00000010
00000100
00010000
00000100
,
00010000
00000010
00010000
00000010
00100000
00001000
00100000
00010000
00100000
00001000
00010000
00000010
,
00010000
00001000
10000000
00001000
01000000
00010000
01000000
00001000
10000000
00001000
10000000
00010000
,
10000000
00010000
01000000
00001000
00100000
00010000
10000000
00001000
01000000
00001000
00100000
00010000
,
00100000
00001000
01000000
00000100
01000000
00000100
01000000
00000100
00001000
00000001
00001000
00000100
,
00000010
00000100
00001000
00000001
00001000
00000010
00000100
00000010
00000100
00000010
00010000
00001000
,
00100000
00001000
10000000
00001000
10000000
00001000
00100000
00000010
00100000
00010000
00100000
01000000
,
10000000
00100000
10000000
00010000
01000000
00100000
01000000
00010000
10000000
00010000
10000000
00001000
,
00010000
00000010
00010000
00000010
00001000
00000100
00000010
00000001
00001000
00000100
00001000
00000100
,
00001000
00000001
00001000
00000100
00000010
00000001
00010000
00000010
00010000
00000010
00001000
00000001
,
00000100
00000010
00000100
00000010
00010000
00000001
00010000
00000010
00010000
00001000
00010000
00000010
,
00010000
00000001
00001000
00000100
00001000
00000010
00010000
00000001
00010000
00000100
00010000
00000010
,
00010000
00000010
00100000
00000010
00100000
00010000
00100000
00010000
10000000
00010000
10000000
00001000
,
00100000
00001000
00010000
00000001
00010000
00000100
00010000
00000001
00001000
00000100
00001000
00000010
,
00010000
00000001
00010000
00000010
00100000
00010000
10000000
00010000
01000000
00001000
01000000
00001000
,
10000000
00001000
10000000
00010000
01000000
00001000
10000000
00010000
01000000
00001000
00010000
00000100
,
01000000
00010000
01000000
00001000
00100000
00000010
00010000
00000010
00100000
00000010
00001000
00000010
,
00010000
00001000
10000000
00010000
01000000
00100000
01000000
00010000
01000000
00100000
10000000
00100000
,
01000000
00001000
00010000
00001000
00100000
00000010
00100000
00010000
00100000
00001000
00100000
00010000
,
00100000
00001000
01000000
00001000
00010000
00000001
00001000
00000100
00001000
00000100
00001000
00000001
,
00000100
00000010
00010000
00001000
00010000
00000100
00001000
00000100
01000000
00000100
01000000
00001000
,
01000000
00001000
00100000
00001000
00100000
00010000
01000000
00010000
10000000
00001000
00010000
00000100
,
00010000
00000100
01000000
00001000
01000000
00010000
00100000
00010000
00100000
00001000
00100000
00000010
,
00010000
00000001
00000010
00000100
00000010
00000100
00001000
00000001
00010000
00000010
00001000
00000001
,
00000010
00000100
00001000
00000010
00001000
00000001
00010000
00000010
00100000
00000010
00010000
00000010
,
00001000
00000100
00001000
00000001
00000010
00000100
00000010
00000001
00000010
00000100
00001000
00000010
,
00000100
00000010
00000100
00000001
00001000
00000010
00000100
00000001
00000010
00000100
00000010
00000100
,
00001000
00000100
00010000
00000100
01000000
00010000
01000000
00010000
01000000
00100000
10000000
00100000
,
10000000
00100000
10000000
00100000
01000000
00001000
01000000
00010000
10000000
00010000
10000000
00001000
,
00100000
01000000
00100000
01000000
00100000
01000000
00100000
01000000
10000000
00010000
01000000
00001000
,
00100000
00001000
10000000
00001000
00100000
00000010
00100000
00000010
00010000
00000100
00001000
00000100
,
00001000
00000010
00010000
00000001
00010000
00001000
01000000
00001000
01000000
00010000
01000000
00000100
,
01000000
00001000
01000000
00010000
01000000
00000100
01000000
00001000
00100000
00000010
00100000
00000010
,
00010000
00001000
00100000
00000010
00010000
00000010
00100000
00000010
00100000
00001000
01000000
00010000
,
01000000
00001000
01000000
00001000
00010000
00001000
00010000
00000100
00010000
00000010
00100000
00001000
,
01000000
00000100
00010000
00001000
10000000
00001000
01000000
00001000
00100000
00000010
00010000
00000100
,
00001000
00000001
00001000
00000010
00000100
00000001
00010000
00000010
00010000
00000100
00001000
00000100
,
00001000
00000010
00000100
00000010
00001000
00000001
00000100
00000010
00010000
00000010
00001000
00000001
,
00001000
00000100
00010000
00000001
00000100
00000010
00001000
00000001
00010000
00000010
00100000
00001000
,
00100000
00001000
00010000
00000010
00001000
00000100
00001000
00000100
00010000
00000001
00010000
00001000
,
01000000
00001000
00100000
00000010
00010000
00001000
01000000
00010000
10000000
00010000
01000000
00010000
,
01000000
00010000
10000000
00100000
10000000
00010000
00100000
00000010
00100000
00001000
01000000
00001000
,
00010000
00000010
00001000
00000010
00000100
00000001
00010000
00000100
00010000
00000010
00010000
00000010
,
00100000
00000010
00010000
00000100
00001000
00000100
00001000
00000010
00000100
00000001
00001000
00000100
,
00000010
00000100
00001000
00000001
00000100
00000010
00001000
00000001
00001000
00000100
01000000
00000100
,
01000000
00000100
01000000
00001000
10000000
00100000
10000000
00010000
10000000
00010000
01000000
00100000
,
01000000
00001000
01000000
00010000
10000000
00100000
01000000
00001000
01000000
00001000
01000000
00001000
,
01000000
00000100
00001000
00000001
00000100
00000010
00000100
00000010
00001000
00000100
00001000
00000001
,
00010000
00001000
01000000
00010000
01000000
00001000
00100000
00010000
10000000
01000000
10000000
00100000
,
01000000
00100000
10000000
00100000
10000000
00100000
01000000
00010000
10000000
01000000
10000000
00100000
,
01000000
00100000
10000000
01000000
10000000
01000000
00100000
01000000
00100000
00010000
10000000
01000000
,
00100000
00010000
10000000
00100000
10000000
00100000
10000000
00100000
10000000
01000000
00100000
01000000
,
10000000
01000000
10000000
00100000
01000000
00100000
10000000
00010000
10000000
00010000
01000000
00010000
,
01000000
00100000
01000000
00100000
01000000
00100000
01000000
00001000
01000000
00010000
00100000
00010000
,
10000000
00001000
10000000
00010000
00100000
00001000
00100000
00000010
00100000
00000010
00001000
00000001
,
00001000
00000010
00000100
00000001
00000010
00000100
00000010
00000100
00001000
00000100
00001000
00000001
,
00001000
00000100
00000010
00000001
00000010
00000100
00001000
00000001
00000010
00000100
00010000
00001000
,
00100000
00000010
00010000
00001000
00010000
00000010
00001000
00000010
00010000
00000001
00000010
00000100
,
00001000
00000010
00000100
00000010
00000100
00000010
00001000
00000001
00000100
00000010
00001000
00000010
,
00000100
00000010
00001000
00000100
00010000
00001000
10000000
00001000
00100000
00000010
00010000
00000001
,
00000010
00000100
00001000
00000100
00001000
00000100
00010000
00000001
00010000
00000100
00001000
00000100
,
00000010
00000001
00000100
00000010
00001000
00000100
00000010
00000100
00000010
00000001
00001000
00000100
,
01000000
00001000
01000000
00010000
00100000
00010000
10000000
00010000
10000000
01000000
00100000
00001000
,
00100000
00000010
00100000
00001000
01000000
00000100
01000000
00001000
10000000
00001000
10000000
00100000
,
10000000
00010000
01000000
00010000
01000000
00100000
01000000
00001000
00010000
00000100
00010000
00000010
,
00010000
00000001
00010000
00001000
00100000
00010000
00100000
00010000
10000000
00010000
00100000
00001000
,
01000000
00010000
10000000
00001000
10000000
00010000
10000000
00010000
01000000
00100000
01000000
00010000
,
01000000
00100000
10000000
01000000
00100000
00010000
01000000
00010000
10000000
00100000
10000000
00100000
,
01000000
00100000
10000000
00100000
10000000
00100000
10000000
00100000
10000000
00010000
10000000
01000000
,
00100000
01000000
00100000
00001000
10000000
00001000
00100000
00010000
10000000
00010000
00100000
00010000
,
10000000
00010000
10000000
00010000
10000000
00010000
10000000
00100000
01000000
00001000
00010000
00001000
,
01000000
00000100
01000000
00001000
00010000
00000001
00010000
00000010
00100000
00001000
00010000
00000100
,
00001000
00000001
00000010
00000100
00000010
00000100
00001000
00000010
00001000
00000010
00000100
00000010
,
00000100
00000001
00010000
00000100
00010000
00000100
00010000
00001000
00100000
00001000
00010000
00000010
,
00100000
00001000
01000000
00010000
10000000
01000000
10000000
01000000
00100000
00010000
00100000
00001000
,
01000000
00001000
10000000
00010000
10000000
00001000
00100000
00001000
10000000
00010000
10000000
00001000
,
01000000
00001000
00100000
00010000
10000000
00010000
00100000
00001000
00010000
00000100
00010000
00000010
,
00001000
00000001
00000010
00000100
00001000
00000100
00000010
00000100
00001000
00000001
00000010
00000100
,
00010000
00000001
00001000
00000010
00010000
00001000
10000000
00010000
00100000
01000000
00100000
01000000
,
00100000
00001000
00010000
00000010
00100000
00000010
00100000
00010000
00100000
00010000
01000000
00100000
,
01000000
00100000
10000000
00100000
01000000
00010000
01000000
00001000
00010000
00000100
00001000
00000100
,
00000010
00000001
00000010
00000100
00000010
00000001
00010000
00000100
00010000
00000100
01000000
00001000
,
10000000
00001000
10000000
01000000
10000000
01000000
00100000
01000000
10000000
00010000
10000000
01000000
,
10000000
00100000
01000000
00100000
01000000
00010000
10000000
00100000
01000000
00010000
00100000
00001000
,
00100000
00001000
00010000
00000010
00100000
00000010
00100000
00000010
00001000
00000001
00001000
00000100
,
00000010
00000001
00000100
00000010
00001000
00000100
00010000
00000001
00010000
00000010
00010000
00000100
,
00001000
00000100
00001000
00000010
00000100
00000010
00001000
00000010
00000100
00000010
00000100
00000010
,
00010000
00000001
00010000
00000010
00001000
00000001
00010000
00000100
00001000
00000001
00000010
00000100
,
00000010
00000001
00010000
00000100
00001000
00000010
00001000
00000001
00000100
00000010
00001000
00000100
,
00010000
00000001
00010000
00000010
00100000
00001000
00100000
01000000
00100000
00010000
01000000
00010000
,
01000000
00001000
00100000
00001000
00010000
00000001
00010000
00000100
00001000
00000100
00010000
00000010
,
00010000
00000001
00010000
00001000
00100000
00000010
00100000
00001000
01000000
00001000
00010000
00000100
,
00010000
00001000
00100000
01000000
10000000
00010000
00100000
00010000
10000000
00010000
00100000
00001000
,
00100000
00001000
10000000
01000000
00100000
01000000
10000000
00100000
10000000
00100000
10000000
00010000
,
01000000
00010000
00100000
00001000
00100000
00010000
10000000
00001000
00100000
01000000
10000000
01000000
,
00100000
00010000
01000000
00010000
10000000
00010000
01000000
00001000
10000000
00010000
00100000
00000010
,
00100000
00001000
00010000
00000001
00010000
00000100
00010000
00000001
00010000
00001000
01000000
00000100
,
01000000
00000100
01000000
00000100
00001000
00000001
00001000
00000010
00001000
00000001
00010000
00000010
,
00001000
00000100
00001000
00000001
00001000
00000010
00000100
00000010
00001000
00000010
00000100
00000001
,
00000100
00000010
00001000
00000001
00001000
00000010
00000100
00000010
00001000
00000010
00001000
00000001
,
00001000
00000010
00010000
00000010
00100000
00000010
00010000
00000001
00000100
00000010
00001000
00000001
,
00001000
00000100
00001000
00000010
00001000
00000001
00000100
00000010
00001000
00000100
00001000
00000100
,
00001000
00000100
00000010
00000001
00000010
00000100
00001000
00000100
01000000
00001000
01000000
00010000
,
10000000
00010000
00100000
01000000
10000000
00001000
01000000
00001000
01000000
00010000
01000000
00010000
,
01000000
00001000
01000000
00000100
00001000
00000100
00001000
00000001
00000010
00000100
00001000
00000100
,
01000000
00001000
01000000
00001000
00100000
00000010
00100000
00001000
00100000
00010000
10000000
00100000
,
10000000
00100000
10000000
00100000
01000000
00100000
01000000
00001000
01000000
00000100
00010000
00000010
,
00010000
00000001
00010000
00000100
00001000
00000001
00010000
00000100
00000010
00000100
00001000
00000010
,
00001000
00000010
00001000
00000010
00010000
00000001
00000100
00000010
00001000
00000001
00000010
00000100
,
00000010
00000001
00000100
00000010
00000100
00000001
00000100
00000010
00010000
00000010
00001000
00000100
,
00001000
00000100
00000010
00000001
00000010
00000100
00000010
00000100
00010000
00001000
00010000
00000100
,
00001000
00000100
01000000
00000100
01000000
00000100
00010000
00000100
00000010
00000001
00000010
00000100
,
00001000
00000100
00010000
00000001
00000100
00000010
00001000
00000100
00000010
00000100
00000010
00000100
,
00001000
00000001
00000010
00000100
00000010
00000100
00010000
00001000
00010000
00001000
00100000
00001000
,
00100000
00010000
01000000
00100000
01000000
00100000
01000000
00100000
01000000
00001000
01000000
00001000
,
01000000
00010000
10000000
00010000
00100000
01000000
00100000
00010000
01000000
00010000
10000000
00100000
,
10000000
00100000
10000000
00001000
00100000
00001000
10000000
00001000
00100000
00000010
00100000
00001000
,
00100000
00001000
10000000
01000000
10000000
01000000
10000000
00100000
01000000
00100000
10000000
01000000
,
00100000
00010000
10000000
00010000
10000000
00100000
01000000
00100000
10000000
00001000
00100000
00000010
,
00010000
00001000
00100000
01000000
00100000
00010000
00100000
00010000
10000000
00100000
01000000
00001000
,
01000000
00001000
01000000
00000100
01000000
00001000
00010000
00000100
01000000
00001000
01000000
00001000
,
00100000
00001000
00010000
00000001
00001000
00000100
00010000
00001000
10000000
00010000
00100000
01000000
,
00100000
01000000
00100000
00001000
10000000
00010000
00100000
00010000
01000000
00001000
10000000
00001000
,
01000000
00000100
01000000
00010000
01000000
00001000
01000000
00010000
01000000
00010000
00100000
00010000
,
00100000
00001000
00100000
00010000
00100000
00010000
00100000
00001000
00100000
01000000
10000000
01000000
,
10000000
00100000
01000000
00100000
01000000
00100000
01000000
00001000
00010000
00001000
00100000
00000010
,
00100000
00000010
00010000
00000100
00001000
00000001
00001000
00000010
00010000
00000001
00010000
00000010
,
00010000
00000100
01000000
00000100
00010000
00001000
00010000
00000001
00001000
00000010
00010000
00000010
,
00010000
00000010
00000100
00000010
00000100
00000010
00000100
00000001
00001000
00000100
01000000
00001000
,
00010000
00001000
01000000
00010000
01000000
00100000
10000000
00010000
01000000
00001000
01000000
00100000
,
10000000
00100000
10000000
01000000
10000000
01000000
00100000
00010000
00100000
00000010
00100000
00001000
,
01000000
00001000
10000000
00001000
10000000
00001000
01000000
00000100
01000000
00010000
01000000
00010000
;

//---------------dance-double - Kyzentun Science----------------
#NOTES:
     dance-double:
     Kyzentun Science:
     Medium:
     10:
     0.853,1.000,0.008,0.591,0.894,1291.000,2.000,142.000,99.000,32.000,16.000,0.853,1.000,0.008,0.591,0.894,1291.000,2.000,142.000,99.000,32.000,16.000:
00000000
00000000
00000000
00000000
,  // measure 1
00010000
00001000
00000010
00000100
00001000
00000001
00000010
00000100
,
00000001
00000100
00000010
00001000
00010000
00100000
10000000
00001000
,
00010000
00000001
00000100
00001000
00010000
00100000
00010000
00100000
,
10000000
01000000
10000000
00001000
10000000
00100000
01000000
10000000
,
01000000
10000000
01000000
00100000
01000000
00001000
10000000
00100000
,
00010000
00100000
00010000
00001000
00100000
00010000
10000000
00100000
,
00010000
00001000
00010000
01000000
00010000
01000000
10000000
00001000
,
00100000
00001000
01000000
00010000
01000000
00100000
01000000
10000000
,
01000000
00100000
00010000
00100000
01000000
00100000
00010000
00001000
,
10000000
00100000
10000000
00100000
01000000
10000000
01000000
00100000
,
00010000
00001000
00000010
00000001
00010000
00000010
00000100
00000001
,
00001000
00000100
00000001
00000100
00000010
00001000
00010000
01000000
,
00100000
00010000
00100000
00001000
01000000
00001000
00100000
00001000
,
00010000
00000001
00010000
00000100
01000000
00010000
00100000
00000010
,
00001000
00000100
01000000
00001000
00100000
01000000
10000000
00001000
,
00010000
00100000
01000000
00010000
10000000
01000000
00010000
00001000
,
00000100
00000001
00010000
00000010
00001000
00000001
00001000
00000100
,
00010000
00000001
00010000
00000010
00000100
00001000
00010000
00001000
,
00000010
00000100
00001000
00000010
00001000
00000001
00000100
00001000
,
00000100
00000010
00000001
00000010
00001000
00000001
00000100
00000010
,
00010000
00000001
00000100
00000010
00000100
00001000
00010000
01000000
,
10000000
00010000
01000000
10000000
01000000
00010000
01000000
00000100
,
00001000
00000001
00001000
00000010
00000100
00001000
00010000
00100000
,
00010000
00001000
00000010
00000001
00000100
00001000
00010000
00000001
,
00000010
00001000
00010000
01000000
00010000
00001000
00000100
00000001
,
00000010
00000100
00010000
00000001
00000010
00001000
00010000
00100000
,
10000000
00010000
01000000
00010000
10000000
01000000
00100000
01000000
,
00010000
00001000
00000100
00000010
00010000
00000001
00000100
00000010
,
00000001
00000010
00001000
00000100
00000001
00000100
00001000
00000001
,
00001000
00000010
00010000
00000100
00010000
00000010
00000100
00000001
,
00000010
00000100
00000001
00000100
00000010
00000001
00010000
00001000
,
00010000
00000010
00000100
00000001
00001000
00000100
00000010
00000100
,
00010000
00000001
00000100
00000010
00000100
00000001
00010000
00000010
,
00010000
00000010
00000100
00000001
00001000
00000010
00000100
00001000
,
00010000
01000000
00100000
00010000
10000000
01000000
10000000
01000000
,
00100000
10000000
00100000
01000000
00010000
01000000
10000000
00001000
,
00100000
00000010
00010000
00001000
00000100
00001000
00010000
00000100
,
00000010
00001000
00000010
00000100
00010000
00000010
00000100
00000001
,
00001000
00000010
00000001
00000010
00000100
00000001
00010000
00000100
,
01000000
00010000
01000000
00100000
00010000
00001000
00010000
01000000
,
10000000
00010000
10000000
01000000
10000000
00100000
01000000
10000000
,
01000000
00010000
00100000
00001000
00100000
01000000
10000000
00100000
,
01000000
00001000
01000000
00100000
10000000
00010000
01000000
00100000
,
00010000
00001000
10000000
00100000
00010000
00001000
00000010
00000001
,
00000100
00000010
00000100
00001000
00010000
00000001
00000010
00000100
,
00000010
00000001
00000100
00001000
00010000
00000010
00000100
00000010
,
00001000
00000001
00000010
00000100
00000010
00000001
00001000
00000010
,
00000100
00001000
00010000
00000001
00000100
00001000
00010000
00001000
,
00010000
01000000
00100000
00010000
10000000
01000000
00100000
10000000
,
00100000
10000000
00100000
10000000
00100000
00010000
10000000
00010000
,
01000000
00100000
10000000
01000000
10000000
00001000
10000000
01000000
,
00010000
00001000
00100000
00000010
00010000
00000010
00000100
00001000
,
00000100
00001000
00000100
00001000
00010000
00000001
00000010
00000100
,
00000001
00000100
00001000
00000001
00000010
00001000
00010000
00100000
,
01000000
10000000
01000000
00010000
01000000
00000100
00001000
00000001
,
00010000
00000010
00100000
00000010
00100000
00010000
10000000
00100000
,
10000000
00001000
01000000
00100000
00010000
00001000
00000100
00000010
,
00001000
00000010
00010000
00000010
00000100
00001000
00010000
00000010
,
00000100
00001000
00010000
00100000
01000000
00010000
10000000
00100000
,
01000000
00010000
10000000
01000000
00010000
00001000
00000100
00000001
,
00000100
00000010
00000001
00000010
00000100
00000010
00000100
00001000
,
00000100
00000010
00001000
00000010
00100000
00000010
00001000
00000100
,
00000010
00000100
00000010
00000001
00000100
00001000
00010000
01000000
,
00100000
00001000
01000000
00000100
01000000
00010000
10000000
00001000
,
01000000
00010000
10000000
00010000
00100000
01000000
10000000
00010000
,
01000000
00100000
10000000
01000000
00100000
00010000
10000000
00001000
,
01000000
00010000
10000000
01000000
00100000
10000000
00100000
00010000
,
00100000
01000000
10000000
00001000
00100000
00000010
00010000
00000100
,
00000010
00000001
00010000
00000100
00010000
00000010
00010000
00000100
,
01000000
00000100
01000000
00010000
10000000
00100000
01000000
00001000
,
00100000
00001000
00100000
01000000
00010000
00001000
00000100
00000001
,
00000100
00000010
00010000
00001000
01000000
00001000
00100000
00000010
,
00010000
00000100
01000000
00001000
10000000
00010000
01000000
10000000
,
01000000
00010000
10000000
00010000
00100000
00000010
00010000
00001000
,
00000010
00001000
00000010
00001000
00010000
00000001
00000010
00001000
,
00010000
00000100
00000010
00000001
00000010
00000100
00010000
00000100
,
00000010
00000100
00001000
00000001
00000100
00000010
00000100
00001000
,
00010000
00100000
10000000
01000000
00010000
01000000
10000000
00010000
,
01000000
00010000
10000000
01000000
00010000
00001000
00000010
00000001
,
00001000
00000010
00000100
00001000
00010000
01000000
00010000
00001000
,
00100000
00010000
10000000
00001000
00010000
01000000
00100000
00001000
,
00010000
00100000
10000000
00010000
01000000
00000100
00001000
00000001
,
00010000
00000100
00000010
00000001
00001000
00000010
00000001
00000010
,
00000100
00000010
00001000
00000010
00010000
00001000
00100000
01000000
,
00010000
00001000
00000100
00000010
00010000
00000001
00010000
00001000
,
00000010
00000001
00001000
00000100
00000010
00000100
00000001
00000100
,
00001000
00000001
00000010
00001000
00010000
01000000
10000000
00001000
,
10000000
00001000
00010000
00000001
00000010
00001000
00000010
00000100
,
00001000
00000001
00000010
00000100
00001000
00000010
00000100
00000010
,
00000001
00000010
00001000
00000001
00010000
00000100
00010000
00001000
,
00000010
00000001
00000100
00001000
00000100
00001000
00000100
00000010
,
00000001
00000010
00000100
00000001
00010000
00000010
00100000
00000010
,
00001000
00000010
00000100
00000010
00001000
00000001
00000100
00001000
,
00010000
00100000
01000000
00010000
10000000
00100000
00010000
00001000
,
10000000
01000000
00010000
00001000
00100000
01000000
00010000
00001000
,
00100000
01000000
10000000
00100000
00010000
00001000
00000010
00000001
,
00000100
00001000
00010000
00100000
10000000
00001000
01000000
00001000
,
01000000
00000100
00001000
00000010
00000100
00001000
00010000
00000010
,
00100000
00010000
10000000
00100000
00010000
00001000
00010000
00000010
,
00000100
00000001
00010000
00000100
00010000
00000010
00010000
00000001
,
00000100
00001000
00000100
00000001
00010000
00000100
00010000
00000010
,
00001000
00000100
01000000
00001000
00100000
01000000
10000000
00010000
,
01000000
00100000
00010000
00100000
10000000
00001000
10000000
00001000
,
00100000
00010000
00100000
01000000
00100000
00010000
01000000
00000100
,
01000000
00000100
01000000
00010000
10000000
01000000
00010000
00001000
,
10000000
00001000
10000000
01000000
10000000
00001000
00100000
01000000
,
00010000
00001000
00000100
00000010
00010000
00000001
00000100
00001000
,
00010000
01000000
10000000
01000000
00010000
01000000
10000000
00010000
,
10000000
01000000
00100000
10000000
00100000
10000000
00100000
01000000
,
10000000
00001000
01000000
00010000
01000000
10000000
01000000
00010000
,
10000000
00001000
00100000
00010000
10000000
01000000
00100000
10000000
,
00100000
00010000
01000000
00100000
00010000
00001000
00000010
00000001
,
00000100
00000010
00001000
00000001
00010000
00001000
00010000
00000010
,
00100000
00010000
00100000
01000000
00010000
00001000
01000000
00100000
,
00010000
00001000
00000100
00000010
00001000
00000100
00000010
00001000
,
00010000
01000000
00010000
00001000
00010000
01000000
00100000
00001000
,
10000000
00001000
10000000
00010000
00100000
00000010
00100000
00001000
,
00010000
00001000
00000010
00000001
00000100
00001000
00010000
00001000
,
00100000
00000010
00010000
00000100
00000010
00001000
00000010
00000100
,
00000010
00001000
00000010
00001000
00010000
01000000
10000000
00100000
,
01000000
00010000
10000000
00010000
10000000
00100000
01000000
10000000
,
01000000
10000000
01000000
00100000
10000000
00001000
01000000
00000100
,
00001000
00000010
00000100
00000010
00001000
00000100
01000000
00010000
,
01000000
00100000
10000000
00001000
01000000
00100000
10000000
00100000
,
10000000
00100000
00010000
00100000
10000000
01000000
00010000
00001000
,
10000000
00100000
00010000
00100000
01000000
00010000
01000000
00100000
,
10000000
00010000
00100000
01000000
00100000
00001000
00100000
00010000
,
10000000
00010000
10000000
01000000
00010000
01000000
00100000
01000000
,
10000000
00100000
00010000
00001000
00100000
00010000
01000000
00100000
,
00010000
00100000
00010000
00001000
00000010
00000100
00001000
00000001
,
00000100
00000010
00010000
00000100
00000010
00001000
00000010
00000100
,
00010000
00000100
00001000
00000001
00000010
00001000
00010000
00000001
,
00001000
00000100
01000000
00000100
00001000
00000001
00000010
00000100
,
00000010
00000001
00010000
00000100
01000000
00010000
00100000
01000000
,
00100000
10000000
00100000
01000000
00100000
10000000
00100000
00010000
,
00100000
00000010
00010000
00000100
00001000
00000010
00000100
00001000
,
00010000
01000000
10000000
00100000
10000000
00001000
00010000
00001000
,
00000100
00000010
00000001
00000010
00001000
00000010
00000100
00000010
,
00001000
00000100
00010000
00001000
00000100
00000010
00001000
00000001
,
00010000
00000010
00000100
00000001
00001000
00000010
00100000
00010000
,
00100000
00001000
00010000
00000100
01000000
00010000
10000000
00010000
,
00100000
00000010
00100000
00001000
01000000
00001000
01000000
00001000
,
10000000
00010000
10000000
01000000
00010000
00001000
00000010
00001000
,
00010000
00100000
01000000
00001000
10000000
01000000
00100000
00001000
,
00100000
00010000
01000000
00000100
00001000
00000001
00000010
00000100
,
00000010
00000001
00000100
00001000
00010000
00001000
00000010
00000001
,
00001000
00000010
00001000
00000001
00001000
00000010
00001000
00000100
,
00000001
00000100
00001000
00000010
00000001
00000010
00000100
00000010
,
00000100
00000001
00000010
00000100
00001000
00000001
00000100
00000010
,
00001000
00000001
00010000
00000100
00010000
00000001
00000100
00001000
,
00000100
00000010
00010000
00001000
00000010
00000100
00000010
00000001
,
00000100
00000010
00010000
00000100
01000000
00001000
00100000
01000000
,
00100000
10000000
00100000
01000000
10000000
00001000
01000000
00001000
,
00100000
01000000
10000000
00100000
00010000
00001000
00000100
00000010
,
00010000
00000100
00000010
00000001
00010000
00000100
00000010
00001000
,
00010000
00100000
01000000
00001000
00100000
00010000
01000000
00100000
,
00010000
00001000
10000000
00001000
10000000
00100000
10000000
00100000
,
01000000
00010000
00100000
01000000
10000000
00100000
01000000
00001000
,
00010000
01000000
10000000
01000000
00100000
00001000
01000000
00100000
,
01000000
10000000
01000000
00100000
00010000
00100000
00010000
00001000
,
00000010
00000001
00000100
00000010
00001000
00000100
01000000
00010000
,
01000000
10000000
01000000
00010000
01000000
00000100
01000000
00001000
,
10000000
00100000
00010000
00001000
00000100
00000001
00010000
00001000
,
00000100
00000001
00010000
00000010
00010000
00001000
00000010
00000001
,
00010000
00001000
00010000
01000000
10000000
00010000
10000000
01000000
,
00010000
00001000
10000000
01000000
00100000
00001000
01000000
00010000
,
10000000
00010000
01000000
10000000
01000000
00010000
00100000
00001000
,
00100000
01000000
10000000
01000000
00010000
00001000
00000010
00000001
,
00010000
00000100
01000000
00000100
00001000
00000010
00000001
00000010
,
00000100
00001000
00010000
00100000
01000000
00010000
10000000
01000000
,
10000000
00010000
00100000
10000000
00100000
00010000
01000000
00000100
,
00001000
00000010
00100000
00000010
00001000
00000100
00000010
00000001
,
00010000
00001000
00000010
00000001
00001000
00000100
00000010
00000100
,
00000010
00000001
00000100
00001000
00010000
00100000
10000000
00100000
,
10000000
00001000
01000000
00100000
10000000
01000000
00010000
00001000
,
00000100
00000010
00000001
00000010
00000100
00000010
00001000
00000001
,
00000010
00001000
00010000
00000001
00000100
00001000
00010000
00100000
,
10000000
00001000
10000000
01000000
00010000
01000000
00100000
00010000
,
10000000
01000000
00010000
00001000
10000000
01000000
00100000
10000000
,
00100000
01000000
00010000
00001000
00000100
00001000
00000100
00000010
,
00001000
00000001
00000010
00000100
00000010
00001000
00010000
00100000
,
01000000
00010000
00100000
01000000
00010000
00001000
00010000
00000100
,
00000010
00001000
00010000
00001000
00000100
00000001
00000010
00000100
,
00010000
00000001
00000100
00001000
00000100
00000001
00010000
00000010
,
00010000
00000001
00000010
00001000
00010000
01000000
10000000
00010000
,
00100000
01000000
00100000
10000000
00100000
01000000
00010000
01000000
,
10000000
01000000
00100000
00010000
01000000
00100000
10000000
00100000
,
01000000
00001000
01000000
00000100
00010000
00000001
00000100
00001000
,
00010000
01000000
10000000
00001000
01000000
00100000
01000000
00100000
,
10000000
00001000
00100000
00010000
01000000
00100000
10000000
00001000
,
00010000
00100000
10000000
01000000
00010000
00001000
00000010
00001000
,
00010000
00001000
00000100
00000010
00001000
00000001
00000010
00000100
,
00010000
00001000
00010000
00000100
00010000
00000010
00000100
00000001
,
00010000
00000100
00000010
00001000
00010000
00000100
00010000
00001000
,
00000100
00000010
00000001
00000010
00000100
00001000
00000100
00000001
,
00010000
00000100
00000010
00000001
00001000
00000100
00000001
00000100
,
00001000
00000001
00000100
00001000
00010000
00001000
00000010
00000001
,
00010000
00001000
00000010
00000001
00010000
00001000
00000010
00000001
,
00010000
00000100
00000010
00000100
00001000
00000010
00100000
00010000
,
01000000
00100000
10000000
01000000
10000000
00010000
10000000
01000000
,
00010000
00001000
01000000
00010000
00100000
01000000
10000000
00001000
,
01000000
00001000
00100000
00000010
00001000
00000001
00000100
00001000
,
00010000
00001000
10000000
01000000
00100000
00010000
10000000
00100000
,
00010000
00100000
01000000
10000000
01000000
00100000
01000000
00010000
,
10000000
00001000
10000000
00100000
01000000
10000000
01000000
00100000
,
01000000
00001000
00100000
01000000
10000000
00010000
00100000
01000000
,
00010000
00001000
01000000
00001000
00010000
00000010
00100000
00001000
,
00010000
00001000
00000100
00000010
00001000
00000010
00010000
00000100
,
01000000
00000100
00001000
00000001
00000100
00000010
00001000
00000010
,
00000001
00000010
00000100
00000001
00000010
00000100
00010000
00001000
,
10000000
01000000
00010000
00001000
01000000
00010000
01000000
00100000
,
00010000
00100000
01000000
10000000
01000000
00100000
10000000
00100000
,
01000000
00010000
00100000
00000010
00001000
00000001
00000100
00000010
,
00000001
00000010
00001000
00000100
00000001
00000100
00000010
00000001
,
00010000
00000100
00000010
00001000
00010000
00100000
10000000
01000000
,
00010000
00001000
00000100
00000010
00010000
00000100
00010000
00000100
,
01000000
00000100
00001000
00000001
00000100
00000010
00001000
00000100
,
01000000
00001000
01000000
00000100
00001000
00000001
00000100
00001000
,
00010000
00100000
10000000
00001000
01000000
00000100
00010000
00000001
,
00000100
00000010
00001000
00000001
00010000
00000010
00000100
00001000
,
00010000
00100000
00010000
00001000
01000000
00000100
00001000
00000010
,
00000100
00001000
00000100
00000001
00010000
00000010
00000100
00001000
,
00000100
00001000
00010000
00001000
00000100
00001000
00010000
00100000
,
00010000
00001000
00000010
00000001
00000100
00000010
00000100
00001000
,
00000100
00000001
00001000
00000100
00000010
00000001
00000100
00001000
,
00000100
00001000
00010000
00100000
01000000
00100000
10000000
00001000
,
00100000
00000010
00001000
00000100
01000000
00000100
00001000
00000010
,
00100000
00010000
10000000
00100000
10000000
01000000
00010000
00001000
,
10000000
00100000
10000000
00001000
01000000
00100000
00010000
00100000
,
10000000
00010000
01000000
00010000
00100000
10000000
00100000
00010000
,
01000000
00010000
00100000
00000010
00001000
00000100
00000001
00000100
,
00001000
00000001
00010000
00000100
00001000
00000100
00000001
00000100
,
00001000
00000010
00010000
00000010
00010000
00000100
00010000
00000010
,
00000100
00000010
00010000
00000010
00000100
00000001
00001000
00000100
,
01000000
00010000
01000000
00010000
00100000
10000000
00100000
01000000
,
00010000
00001000
10000000
00100000
01000000
00010000
00100000
00000010
,
00001000
00000100
01000000
00000100
00001000
00000001
00000100
00001000
,
00010000
01000000
10000000
00001000
00010000
00100000
10000000
00010000
,
01000000
00001000
10000000
01000000
00100000
00010000
10000000
00010000
,
01000000
00000100
01000000
00010000
10000000
00100000
01000000
00010000
,
10000000
00010000
01000000
00100000
00010000
00100000
10000000
00010000
,
01000000
10000000
01000000
00100000
10000000
00010000
00100000
00001000
,
00100000
00010000
10000000
01000000
10000000
00100000
00010000
00001000
,
10000000
00100000
10000000
00001000
10000000
00001000
00100000
00010000
,
00100000
00010000
10000000
01000000
00010000
01000000
00100000
00001000
,
01000000
00010000
00100000
00010000
10000000
01000000
00010000
00001000
,
00000010
00000001
00000010
00000100
00010000
00000010
00100000
00010000
,
01000000
00100000
10000000
00001000
00010000
00100000
10000000
00010000
,
01000000
00000100
00001000
00000010
00000001
00000010
00000100
00000001
,
00010000
00000100
00000010
00000001
00010000
00001000
10000000
01000000
,
00010000
01000000
10000000
00010000
00100000
00000010
00100000
00010000
,
10000000
00010000
00100000
00000010
00001000
00000100
00000010
00000100
,
00000001
00000100
00001000
00000010
00001000
00000100
00000010
00000001
,
00000100
00000010
00010000
00001000
00000100
00000010
00000001
00000010
,
00001000
00000100
00001000
00000001
00000100
00001000
00010000
00000010
,
00001000
00000001
00000100
00000010
00010000
00000100
00001000
00000010
,
00000001
00000010
00001000
00000100
00000010
00001000
00010000
00000001
,
00001000
00000100
00000001
00000100
00001000
00000100
01000000
00010000
,
10000000
00100000
00010000
00001000
00100000
00000010
00100000
00010000
,
10000000
00100000
10000000
00010000
01000000
00100000
00010000
00100000
,
10000000
01000000
10000000
01000000
10000000
01000000
00010000
00001000
,
10000000
00010000
10000000
01000000
00100000
01000000
10000000
00010000
,
10000000
00100000
00010000
00001000
00000010
00000100
00001000
00000001
,
00001000
00000100
00000010
00001000
00010000
01000000
00010000
01000000
,
00010000
01000000
00100000
00001000
00010000
00100000
01000000
10000000
,
01000000
00100000
00010000
00001000
00000010
00000100
00001000
00000010
,
00000100
00000001
00000010
00001000
00010000
00000001
00000010
00001000
,
00010000
01000000
00100000
00001000
00100000
01000000
10000000
00100000
,
00010000
00001000
00010000
00001000
00000010
00000100
00010000
00001000
,
00000010
00000100
00000010
00000001
00000100
00001000
00010000
00100000
,
10000000
00001000
01000000
00010000
10000000
00100000
10000000
00010000
,
10000000
00100000
10000000
01000000
00010000
00001000
00000100
00000010
,
00001000
00000100
00000010
00001000
00010000
00100000
01000000
00001000
,
00100000
01000000
10000000
00010000
01000000
00000100
00001000
00000010
,
00000100
00000010
00001000
00000100
01000000
00000100
00001000
00000100
,
00000010
00000001
00010000
00000100
00010000
00001000
00100000
01000000
,
00010000
00001000
00010000
00000100
00000010
00000001
00001000
00000010
,
00000001
00000010
00000100
00001000
00010000
01000000
10000000
00001000
,
10000000
00100000
00010000
00100000
01000000
00001000
00100000
01000000
,
00010000
01000000
00100000
00001000
01000000
00100000
10000000
00010000
,
01000000
00001000
00010000
00000001
00010000
00000010
00000100
00000001
,
00010000
00001000
01000000
00100000
10000000
00001000
00010000
01000000
,
10000000
00100000
10000000
00001000
00100000
00001000
01000000
00100000
,
10000000
00010000
10000000
00100000
00010000
00001000
00000010
00001000
,
00010000
00100000
01000000
00010000
00100000
10000000
00100000
10000000
,
00100000
01000000
10000000
00010000
00100000
10000000
00100000
00010000
,
00100000
00000010
00100000
00000010
00001000
00000100
00001000
00000010
,
00100000
00001000
01000000
00100000
10000000
01000000
00010000
01000000
,
10000000
00001000
00100000
00000010
00100000
00000010
00001000
00000100
,
00010000
00000010
00000100
00001000
00010000
00100000
10000000
01000000
,
00100000
00010000
00100000
00000010
00010000
00000001
00000100
00000010
,
00000001
00000010
00000100
00001000
00010000
00000001
00000100
00000010
,
00000001
00000010
00000100
00001000
00010000
01000000
10000000
00001000
,
10000000
00010000
00100000
00010000
10000000
00001000
01000000
00100000
,
10000000
01000000
00010000
00001000
00100000
00010000
10000000
00100000
,
00010000
00001000
10000000
00100000
01000000
00010000
01000000
00100000
,
10000000
00001000
00010000
01000000
10000000
00100000
00010000
00001000
,
00000100
00000010
00000100
00000001
00000010
00001000
00010000
00100000
,
01000000
00001000
10000000
00100000
00010000
00001000
10000000
00010000
,
10000000
00100000
10000000
01000000
00010000
00001000
00000100
00000001
,
00001000
00000100
00000001
00000100
00001000
00000001
00000100
00000010
,
00000001
00000010
00000100
00001000
00000100
00000010
00010000
00000100
,
00000010
00000001
00001000
00000010
00000001
00000010
00001000
00000001
,
00010000
00001000
00000010
00000001
00000010
00000100
00000001
00000100
,
00000010
00001000
00000010
00001000
00010000
00001000
00000010
00000001
,
00001000
00000010
00001000
00000001
00000100
00001000
00010000
00000010
,
00000100
00000010
00000001
00000010
00001000
00000001
00000010
00001000
,
00010000
01000000
10000000
00010000
00100000
00000010
00100000
00010000
,
01000000
00000100
00001000
00000010
00000100
00000001
00010000
00001000
,
00000010
00000100
00000001
00000100
00001000
00000100
01000000
00010000
,
00100000
01000000
00010000
00001000
00000100
00000010
00010000
00000010
,
00000100
00000001
00000100
00000010
00010000
00000100
00001000
00000010
,
00000001
00000010
00001000
00000100
00000001
00000100
00001000
00000001
,
00010000
00000100
00001000
00000001
00000010
00000100
00000010
00001000
,
00010000
00000100
00001000
00000010
00000001
00000010
00001000
00000001
,
00010000
00000010
00100000
00001000
01000000
00100000
10000000
00100000
,
10000000
00001000
00100000
00010000
01000000
00000100
00001000
00000010
,
00001000
00000001
00001000
00000100
00001000
00000100
00000010
00000100
,
00000001
00000100
00000010
00001000
00010000
01000000
10000000
00010000
,
00100000
00001000
00010000
00001000
00000100
00001000
00010000
00100000
,
10000000
01000000
00010000
00001000
00000010
00000100
00000001
00000100
,
00000010
00001000
00010000
01000000
00010000
00001000
00000100
00000010
,
00010000
00000100
00001000
00000001
00001000
00000010
00100000
00001000
,
01000000
00100000
00010000
00001000
00000100
00000001
00001000
00000100
,
01000000
00010000
00100000
00000010
00001000
00000100
00010000
00000100
,
00000010
00000001
00000010
00001000
00010000
00100000
00010000
00001000
,
00000010
00001000
00000010
00000100
00001000
00000001
00001000
00000010
,
00000001
00000010
00001000
00000001
00000100
00000010
00001000
00000100
,
00001000
00000001
00000100
00001000
00010000
00001000
00100000
00000010
,
00100000
00000010
00010000
00000100
00000010
00000001
00000100
00000010
,
00010000
00000001
00000010
00001000
00010000
00000010
00000100
00000001
,
00000010
00001000
00010000
00000001
00000010
00000100
00000010
00000100
,
00001000
00000010
00000001
00000010
00000100
00000001
00000010
00001000
,
00010000
00000010
00000100
00001000
00010000
00100000
01000000
00100000
,
10000000
00010000
00100000
01000000
10000000
00001000
10000000
01000000
,
00010000
00001000
00000010
00000100
00000001
00000100
00001000
00000001
,
00000010
00001000
00010000
00000010
00100000
00000010
00001000
00000001
,
00000100
00001000
00000100
00000010
00000001
00000010
00000100
00000001
,
00010000
00000100
00000010
00001000
00010000
00000100
00001000
00000100
,
00001000
00000001
00000010
00001000
00010000
00000100
00000010
00000100
,
00010000
00000100
01000000
00010000
10000000
01000000
10000000
01000000
,
00100000
00001000
00100000
00010000
00100000
10000000
00100000
01000000
,
00010000
01000000
10000000
00100000
10000000
01000000
00010000
01000000
,
00100000
00010000
10000000
00001000
00100000
00001000
00100000
00001000
,
00100000
00000010
00001000
00000001
00001000
00000100
00010000
00000001
,
00001000
00000010
00000001
00000010
00001000
00000100
01000000
00000100
,
01000000
00010000
00100000
10000000
00100000
01000000
10000000
00010000
,
00100000
01000000
00010000
00001000
00000010
00000001
00001000
00000010
,
00100000
00010000
10000000
00100000
10000000
00001000
00010000
00000010
,
00010000
00000100
00010000
00000010
00001000
00000001
00000010
00001000
;

//---------------dance-double - Kyzentun Science----------------
#NOTES:
     dance-double:
     Kyzentun Science:
     Easy:
     10:
     0.853,1.000,0.008,0.591,0.894,1291.000,2.000,142.000,99.000,32.000,16.000,0.853,1.000,0.008,0.591,0.894,1291.000,2.000,142.000,99.000,32.000,16.000:
00000000
00000000
00000000
00000000
,  // measure 1
00010000
00001000
10000000
00000010
01000000
00001000
10000000
00001000
10000000
00000010
10000000
00001000
00100000
00001000
00100000
00000010
,
00010000
00000001
01000000
00001000
01000000
00001000
01000000
00000100
10000000
00000100
01000000
00001000
10000000
00000100
10000000
00000010
,
01000000
00000010
01000000
00000001
00010000
00000010
10000000
00000010
10000000
00001000
01000000
00000010
01000000
00000100
00010000
00000100
,
00010000
00000001
00010000
00000010
01000000
00000100
01000000
00000100
10000000
00001000
01000000
00001000
01000000
00000100
00100000
00000001
,
10000000
00000010
10000000
00001000
10000000
00000010
00010000
00000001
00010000
00000100
00100000
00000100
01000000
00001000
01000000
00001000
,
10000000
00000010
10000000
00000001
00010000
00000010
00100000
00000010
00100000
00000001
00010000
00000100
10000000
00000001
10000000
00000010
,
00100000
00000010
00010000
00000010
00100000
00001000
01000000
00000100
00010000
00000100
00100000
00000001
01000000
00000100
10000000
00001000
,
01000000
00001000
01000000
00000001
10000000
00000010
10000000
00001000
00100000
00000100
10000000
00000010
01000000
00001000
10000000
00000100
,
01000000
00000001
01000000
00000010
01000000
00000010
10000000
00000010
00010000
00000001
00100000
00000100
00010000
00000001
00100000
00000100
,
00010000
00000100
00010000
00000010
01000000
00000010
01000000
00000001
01000000
00000100
00010000
00000010
00100000
00000001
10000000
00000100
,
00100000
00000010
10000000
00000001
10000000
00000010
01000000
00000010
10000000
00000100
10000000
00000100
01000000
00001000
01000000
00001000
,
01000000
00001000
10000000
00000100
10000000
00000010
10000000
00000010
01000000
00001000
01000000
00000100
00100000
00000100
00010000
00000100
,
01000000
00000001
00100000
00000100
10000000
00000001
01000000
00000100
01000000
00001000
10000000
00000100
10000000
00001000
00100000
00000010
,
00100000
00000010
01000000
00000010
10000000
00000010
10000000
00000001
00010000
00000010
01000000
00000001
01000000
00000100
10000000
00000001
,
01000000
00000100
10000000
00000010
10000000
00001000
01000000
00000100
10000000
00000001
01000000
00000100
10000000
00000010
01000000
00000001
,
01000000
00000100
10000000
00000010
10000000
00000010
01000000
00000001
10000000
00000100
10000000
00000100
01000000
00001000
01000000
00000001
,
10000000
00000100
10000000
00000001
10000000
00000100
01000000
00001000
01000000
00000001
01000000
00000010
01000000
00001000
01000000
00000010
,
01000000
00000001
01000000
00001000
10000000
00000100
10000000
00000100
01000000
00000001
00010000
00000100
00010000
00000100
00010000
00000001
,
10000000
00000010
01000000
00000001
01000000
00000100
00100000
00001000
10000000
00001000
01000000
00000010
00010000
00000100
00100000
00000001
,
00100000
00000100
10000000
00000100
00010000
00000001
00100000
00000010
00010000
00000001
10000000
00000100
10000000
00000100
00100000
00000001
,
00010000
00000100
00010000
00000010
01000000
00000010
10000000
00000001
10000000
00000010
00100000
00000010
10000000
00000010
00010000
00000010
,
01000000
00000001
10000000
00000010
00100000
00001000
10000000
00000100
01000000
00000010
10000000
00001000
00100000
00000010
10000000
00000010
,
00010000
00000001
00100000
00000100
00100000
00001000
10000000
00000001
00100000
00000100
00100000
00000001
00010000
00000010
10000000
00000001
,
00100000
00000100
10000000
00001000
00100000
00001000
00100000
00000010
10000000
00000010
00100000
00000001
00010000
00000100
01000000
00000100
,
01000000
00000001
01000000
00000010
01000000
00000100
10000000
00000100
01000000
00001000
10000000
00000001
01000000
00000100
10000000
00000001
,
01000000
00000100
01000000
00000001
00010000
00000100
10000000
00000100
00100000
00001000
10000000
00000100
00010000
00000001
00010000
00000100
,
01000000
00000100
10000000
00001000
00100000
00000010
10000000
00000001
01000000
00000010
10000000
00000100
10000000
00000100
10000000
00000100
,
01000000
00000001
00100000
00000100
00100000
00000001
00010000
00000100
00100000
00000100
10000000
00000100
00010000
00000100
00100000
00001000
,
00100000
00000100
10000000
00000100
10000000
00000100
10000000
00000100
10000000
00000001
10000000
00000100
10000000
00000010
01000000
00000001
,
00010000
00000100
00010000
00000010
00100000
00001000
00100000
00000010
10000000
00000001
01000000
00000100
10000000
00000010
00100000
00001000
,
00100000
00000010
10000000
00000001
10000000
00000100
10000000
00000001
00010000
00000010
01000000
00000001
01000000
00000100
00100000
00000001
,
10000000
00000010
10000000
00001000
00100000
00000100
10000000
00000010
00100000
00000001
00010000
00000100
01000000
00000010
10000000
00000001
,
01000000
00000100
01000000
00000010
10000000
00000001
01000000
00000100
01000000
00000001
01000000
00000100
00100000
00000100
00100000
00000001
,
00100000
00000010
10000000
00000010
10000000
00000001
00100000
00000100
00100000
00001000
01000000
00000100
10000000
00001000
00100000
00000100
,
00100000
00000001
00100000
00000010
10000000
00000100
10000000
00000001
00100000
00000010
00010000
00000100
00010000
00000100
00100000
00001000
,
10000000
00000100
00100000
00000100
00100000
00000010
10000000
00001000
10000000
00000100
10000000
00000100
00100000
00001000
01000000
00000100
,
10000000
00000001
10000000
00000010
01000000
00000010
10000000
00000001
00100000
00001000
10000000
00000010
00100000
00000010
10000000
00000100
,
10000000
00001000
00100000
00001000
00100000
00000100
00010000
00000001
00100000
00000010
00100000
00000010
10000000
00000001
00100000
00000100
,
00010000
00000001
00010000
00000100
10000000
00001000
00100000
00001000
00100000
00001000
00100000
00000001
10000000
00000100
10000000
00000001
,
10000000
00000100
01000000
00000010
10000000
00000001
00100000
00000010
00100000
00001000
01000000
00001000
01000000
00000100
10000000
00001000
,
00100000
00000010
00100000
00000100
00010000
00000001
00010000
00000010
00100000
00001000
01000000
00000100
00010000
00000001
01000000
00000100
,
10000000
00000001
00010000
00000010
01000000
00000010
00010000
00000010
00100000
00000100
00010000
00000001
01000000
00000100
10000000
00000100
,
10000000
00000010
10000000
00001000
10000000
00000100
01000000
00000010
01000000
00000001
01000000
00000010
10000000
00001000
00100000
00000100
,
10000000
00000001
00010000
00000010
00100000
00000010
00010000
00000001
00010000
00000100
10000000
00000001
10000000
00000100
01000000
00000001
,
01000000
00000010
10000000
00001000
10000000
00001000
10000000
00000001
10000000
00000010
10000000
00001000
10000000
00001000
00100000
00000100
,
10000000
00000100
00010000
00000001
00100000
00000100
10000000
00000001
10000000
00000100
00100000
00000001
10000000
00001000
00100000
00000010
,
10000000
00001000
10000000
00000100
01000000
00001000
01000000
00000001
00010000
00000100
01000000
00000100
00010000
00000100
10000000
00000100
,
10000000
00000100
00100000
00000001
10000000
00000010
01000000
00000001
00010000
00000100
10000000
00000100
10000000
00000001
01000000
00000010
,
00010000
00000010
01000000
00000100
00010000
00000100
00100000
00001000
00100000
00000001
00010000
00000010
00100000
00000010
10000000
00000010
,
00010000
00000010
01000000
00000001
10000000
00000010
00010000
00000001
01000000
00000010
10000000
00000001
01000000
00001000
10000000
00001000
,
00100000
00000010
00100000
00000010
10000000
00000001
10000000
00000010
00010000
00000001
00100000
00000010
00010000
00000010
01000000
00000001
,
10000000
00001000
10000000
00000100
00100000
00000001
00100000
00000100
00010000
00000100
00100000
00001000
00100000
00001000
00100000
00000001
,
00100000
00000010
00100000
00000001
00100000
00001000
00100000
00001000
00100000
00000010
10000000
00000001
00010000
00000010
00100000
00000001
,
00100000
00000100
00010000
00000010
00010000
00000010
00010000
00000010
00100000
00000100
00010000
00000100
00010000
00000001
00010000
00000010
,
10000000
00000001
00100000
00000100
10000000
00000001
00100000
00000100
01000000
00000001
00010000
00000010
01000000
00001000
01000000
00000001
,
01000000
00000010
01000000
00000010
00010000
00000010
10000000
00000010
01000000
00000001
01000000
00000010
10000000
00000010
00010000
00000001
,
00010000
00000100
01000000
00000001
00100000
00000010
00100000
00000001
10000000
00000100
00010000
00000001
00010000
00000100
01000000
00001000
,
00100000
00001000
00100000
00000010
10000000
00000001
01000000
00000100
00100000
00000100
10000000
00000100
01000000
00000001
00010000
00000010
,
00100000
00001000
10000000
00000010
10000000
00000100
01000000
00000100
10000000
00000100
01000000
00000100
01000000
00001000
10000000
00000010
,
00100000
00000010
01000000
00000001
10000000
00000010
01000000
00000001
00100000
00000100
00010000
00000100
00010000
00000100
10000000
00000100
,
10000000
00000001
00100000
00000100
01000000
00000001
01000000
00000010
01000000
00001000
00100000
00000100
10000000
00000100
10000000
00000001
,
10000000
00001000
10000000
00000010
01000000
00000001
10000000
00000100
10000000
00000001
01000000
00001000
01000000
00000010
00010000
00000010
,
00010000
00000001
00100000
00000010
10000000
00000010
00100000
00000010
01000000
00000010
00010000
00000010
01000000
00000001
00100000
00000100
,
10000000
00000100
00100000
00000100
10000000
00000001
01000000
00000010
10000000
00000100
10000000
00000001
01000000
00000100
10000000
00001000
,
01000000
00000001
01000000
00000100
01000000
00001000
10000000
00000100
01000000
00000001
00100000
00000100
10000000
00000100
10000000
00001000
,
01000000
00000100
00100000
00000001
10000000
00000010
00100000
00001000
01000000
00001000
01000000
00000010
01000000
00001000
01000000
00000100
,
00100000
00000001
00010000
00000100
01000000
00000001
00100000
00000010
10000000
00000010
10000000
00001000
10000000
00000100
00100000
00001000
,
00100000
00001000
00100000
00000100
01000000
00000100
01000000
00001000
10000000
00000010
10000000
00001000
01000000
00000001
00010000
00000010
,
00100000
00000010
10000000
00000001
00010000
00000010
00100000
00001000
00100000
00000100
01000000
00001000
01000000
00000100
00010000
00000001
,
10000000
00000010
00100000
00000010
00100000
00000001
00010000
00000010
00100000
00000001
01000000
00000010
10000000
00000010
01000000
00001000
,
10000000
00000010
10000000
00000010
00100000
00000010
10000000
00000100
10000000
00000001
01000000
00000010
00010000
00000010
01000000
00001000
,
01000000
00000010
10000000
00000001
10000000
00000100
01000000
00000001
00100000
00000010
00100000
00000010
10000000
00000001
00010000
00000010
,
00010000
00000010
00010000
00000010
00010000
00000001
01000000
00000010
00010000
00000100
00100000
00000001
10000000
00000010
10000000
00000010
,
10000000
00000010
10000000
00000100
01000000
00000001
01000000
00000010
00010000
00000100
00100000
00000001
10000000
00000010
10000000
00000001
,
01000000
00000010
10000000
00000010
10000000
00001000
10000000
00000001
10000000
00000100
10000000
00000100
01000000
00000001
01000000
00001000
,
10000000
00000100
10000000
00000100
10000000
00000100
10000000
00000100
10000000
00000100
00010000
00000100
00100000
00000001
00100000
00000100
,
00100000
00000100
01000000
00000001
01000000
00000010
00010000
00000001
01000000
00000100
00100000
00001000
10000000
00000100
10000000
00000001
,
01000000
00000010
00010000
00000001
01000000
00001000
01000000
00000010
01000000
00001000
01000000
00000001
10000000
00000010
10000000
00000010
,
10000000
00000010
00100000
00000010
10000000
00000001
10000000
00000010
10000000
00001000
01000000
00000010
00010000
00000100
01000000
00000001
,
00010000
00000100
00100000
00000010
00010000
00000010
00100000
00000001
00100000
00000100
00010000
00000100
01000000
00000100
10000000
00000100
,
10000000
00000010
10000000
00000001
10000000
00000010
10000000
00000010
10000000
00000001
10000000
00000100
00100000
00000010
00100000
00001000
,
10000000
00001000
00100000
00000100
00010000
00000001
01000000
00000010
00010000
00000100
00100000
00000100
00100000
00001000
00100000
00000010
,
10000000
00000001
01000000
00000010
01000000
00000010
00100000
00001000
10000000
00001000
00100000
00000010
10000000
00000100
10000000
00000100
,
00100000
00001000
00100000
00000001
10000000
00000010
10000000
00000010
00100000
00000010
10000000
00001000
00100000
00000100
00010000
00000100
,
01000000
00000100
00010000
00000010
01000000
00000001
10000000
00000100
10000000
00000010
10000000
00000010
00100000
00000001
10000000
00000100
,
01000000
00000010
00010000
00000001
00010000
00000100
00010000
00000001
00010000
00000100
01000000
00000001
00010000
00000010
00100000
00000001
,
01000000
00000100
01000000
00000001
10000000
00000100
00100000
00001000
01000000
00000100
10000000
00000100
10000000
00001000
00100000
00000001
,
00100000
00000010
00010000
00000010
00010000
00000100
00100000
00000001
00100000
00000010
00010000
00000100
00010000
00000100
00100000
00001000
,
00100000
00001000
01000000
00000100
00010000
00000100
00010000
00000100
10000000
00000100
00100000
00000100
00100000
00000100
00010000
00000010
,
00010000
00000010
01000000
00000010
00010000
00000001
00010000
00000010
00100000
00000001
01000000
00000010
01000000
00000001
00010000
00000010
,
10000000
00000010
00100000
00000010
00010000
00000010
00010000
00000001
00100000
00000010
10000000
00000010
10000000
00000100
10000000
00000001
,
00100000
00000010
00100000
00000001
10000000
00000010
01000000
00000001
01000000
00000010
01000000
00001000
01000000
00000010
00100000
00000010
,
10000000
00000001
10000000
00000100
10000000
00000100
01000000
00000010
01000000
00000001
10000000
00000100
01000000
00000001
01000000
00000010
,
10000000
00001000
00100000
00000001
00100000
00000100
10000000
00000100
10000000
00000100
10000000
00000100
01000000
00000100
00100000
00001000
,
00100000
00000100
00010000
00000100
00010000
00000010
01000000
00000001
10000000
00000010
01000000
00000001
01000000
00001000
01000000
00001000
,
10000000
00001000
00100000
00001000
01000000
00000100
10000000
00001000
00100000
00001000
10000000
00000100
01000000
00001000
00100000
00000010
,
00100000
00001000
00100000
00000010
10000000
00000001
00010000
00000100
01000000
00000100
00010000
00000100
10000000
00000100
01000000
00001000
,
10000000
00000100
10000000
00000001
10000000
00000100
01000000
00000010
01000000
00000001
10000000
00000010
01000000
00000100
10000000
00001000
,
01000000
00001000
10000000
00000001
10000000
00000010
00100000
00000010
00100000
00000001
10000000
00000100
00010000
00000001
00100000
00000010
,
00010000
00000010
10000000
00000001
10000000
00000010
10000000
00000001
00100000
00000010
00100000
00000001
00100000
00000100
10000000
00000010
,
00100000
00000001
00100000
00000010
00010000
00000100
00100000
00001000
10000000
00001000
00100000
00000010
01000000
00000010
10000000
00000010
,
00100000
00000001
00010000
00000010
10000000
00000010
10000000
00001000
10000000
00000010
00100000
00001000
00100000
00000001
10000000
00000100
,
10000000
00000100
10000000
00000100
00010000
00000001
01000000
00000010
00010000
00000001
00010000
00000100
10000000
00001000
10000000
00001000
,
10000000
00000100
00100000
00001000
10000000
00001000
00100000
00000001
00100000
00000100
00100000
00001000
10000000
00000010
10000000
00000010
,
10000000
00000100
10000000
00000100
00100000
00000001
00100000
00001000
00100000
00000100
10000000
00001000
00100000
00001000
00100000
00000100
,
10000000
00000010
10000000
00000001
10000000
00000100
01000000
00000100
00100000
00000001
00010000
00000100
00010000
00000100
10000000
00000001
,
00100000
00000100
00010000
00000100
00010000
00000100
10000000
00000001
00100000
00000010
10000000
00000001
00100000
00001000
10000000
00000010
,
10000000
00001000
10000000
00000010
10000000
00000100
01000000
00000001
01000000
00000010
10000000
00001000
01000000
00001000
00100000
00000100
,
10000000
00000100
10000000
00000001
10000000
00000100
01000000
00000100
00010000
00000010
00100000
00000001
00010000
00000100
00010000
00000010
,
00010000
00000010
01000000
00000010
10000000
00001000
01000000
00000010
01000000
00000100
01000000
00001000
10000000
00001000
10000000
00000100
,
01000000
00000001
10000000
00000100
00010000
00000001
00010000
00000100
00010000
00000001
01000000
00000100
00100000
00001000
10000000
00001000
,
00100000
00000100
10000000
00000100
10000000
00000001
00100000
00000100
10000000
00001000
10000000
00000100
01000000
00001000
00100000
00001000
,
00100000
00000100
10000000
00000001
00010000
00000010
01000000
00001000
01000000
00000100
01000000
00000001
00010000
00000100
00010000
00000010
,
01000000
00000001
01000000
00000010
01000000
00000010
00100000
00000001
00100000
00000010
00100000
00001000
10000000
00001000
01000000
00000001
,
00010000
00000100
00100000
00000001
10000000
00001000
01000000
00001000
01000000
00000100
00010000
00000010
00100000
00000001
10000000
00000100
,
10000000
00001000
00100000
00000010
10000000
00000001
10000000
00000100
01000000
00001000
01000000
00000010
01000000
00000010
00100000
00000010
,
00100000
00001000
10000000
00000100
10000000
00000010
01000000
00000001
01000000
00000100
01000000
00000010
01000000
00000001
10000000
00000010
,
10000000
00000100
10000000
00001000
10000000
00000100
00100000
00000001
00100000
00000100
00010000
00000001
00010000
00000010
10000000
00001000
,
10000000
00001000
10000000
00000010
01000000
00000001
10000000
00000010
10000000
00000100
01000000
00000001
01000000
00000100
00010000
00000100
,
01000000
00000010
10000000
00000010
00100000
00001000
10000000
00000001
01000000
00000010
01000000
00000010
10000000
00000100
10000000
00000001
,
01000000
00000100
10000000
00000010
01000000
00000001
01000000
00000010
10000000
00000001
00100000
00000010
01000000
00001000
10000000
00000010
,
01000000
00001000
00100000
00001000
10000000
00000010
10000000
00000010
00100000
00000010
00100000
00000010
10000000
00000100
10000000
00001000
,
00100000
00000010
10000000
00000100
01000000
00000100
01000000
00000001
10000000
00000100
10000000
00000100
00100000
00000100
10000000
00000001
,
10000000
00000010
10000000
00000001
00100000
00000010
00010000
00000001
01000000
00000100
00100000
00000001
00010000
00000100
00100000
00000001
,
10000000
00001000
10000000
00000100
10000000
00001000
01000000
00000001
00010000
00000100
01000000
00000100
00010000
00000001
00100000
00000100
,
00010000
00000010
01000000
00000001
00010000
00000010
00100000
00000001
01000000
00000010
01000000
00000001
10000000
00000100
10000000
00000010
,
10000000
00000001
00100000
00000010
10000000
00000100
00100000
00001000
10000000
00000100
10000000
00001000
10000000
00000100
01000000
00000100
,
00100000
00000100
10000000
00000001
00100000
00000100
00100000
00000010
00100000
00000010
10000000
00000001
01000000
00001000
10000000
00000010
,
00100000
00001000
10000000
00000010
01000000
00001000
01000000
00001000
01000000
00001000
00100000
00000010
10000000
00000001
00100000
00000100
,
01000000
00000001
10000000
00000010
01000000
00000001
00100000
00000100
10000000
00000001
10000000
00000010
10000000
00000001
00100000
00000100
,
00100000
00001000
00100000
00000001
10000000
00000100
01000000
00000100
10000000
00001000
10000000
00000100
01000000
00001000
00100000
00001000
,
00100000
00001000
00100000
00001000
00100000
00000010
00010000
00000100
00010000
00000001
01000000
00000010
00010000
00000100
01000000
00000001
,
10000000
00000100
00100000
00001000
01000000
00001000
10000000
00000010
01000000
00000001
00100000
00000100
00010000
00000001
00010000
00000100
,
00100000
00000001
10000000
00000100
01000000
00000010
01000000
00000001
10000000
00000010
01000000
00001000
01000000
00000001
01000000
00000100
,
10000000
00000001
10000000
00000100
00010000
00000100
00010000
00000001
00100000
00000010
00010000
00000001
00100000
00001000
10000000
00000100
,
00100000
00000001
10000000
00000010
10000000
00000100
01000000
00000100
01000000
00000100
01000000
00000001
00100000
00000010
10000000
00000001
,
01000000
00000100
01000000
00000001
01000000
00001000
01000000
00001000
01000000
00000100
10000000
00000100
10000000
00000001
10000000
00000010
,
01000000
00000100
10000000
00000100
10000000
00001000
10000000
00000001
00100000
00000100
10000000
00000100
00100000
00000010
10000000
00001000
,
01000000
00001000
10000000
00000001
10000000
00000010
00100000
00000010
10000000
00001000
10000000
00001000
01000000
00001000
10000000
00001000
,
10000000
00000001
01000000
00000010
00010000
00000001
00010000
00000010
10000000
00001000
00100000
00001000
00100000
00000010
00100000
00000001
,
01000000
00000100
10000000
00000001
10000000
00000100
10000000
00000001
00100000
00000100
00010000
00000100
01000000
00000010
01000000
00000001
,
01000000
00000010
10000000
00000001
00100000
00001000
00100000
00000100
00100000
00000001
00100000
00000010
00100000
00000001
00010000
00000100
,
00100000
00000001
01000000
00000010
10000000
00000001
00100000
00000100
10000000
00000100
00010000
00000100
01000000
00001000
10000000
00000100
,
00100000
00000001
10000000
00000010
00010000
00000001
01000000
00000010
10000000
00000001
01000000
00001000
10000000
00001000
01000000
00001000
,
01000000
00000001
00010000
00000100
01000000
00000001
00010000
00000010
00100000
00000010
01000000
00001000
10000000
00001000
00100000
00001000
,
01000000
00000010
10000000
00000010
01000000
00000010
10000000
00000001
00100000
00000100
10000000
00001000
01000000
00000001
01000000
00000100
,
00010000
00000100
00100000
00000010
00100000
00000010
00100000
00001000
00100000
00000100
10000000
00000100
01000000
00000001
00010000
00000100
,
00010000
00000001
01000000
00000100
01000000
00000001
01000000
00000010
00100000
00001000
00100000
00000100
00010000
00000100
00010000
00000001
,
01000000
00000010
10000000
00001000
00100000
00000010
10000000
00000100
01000000
00001000
01000000
00000100
00010000
00000001
00010000
00000100
,
00010000
00000001
00100000
00000100
10000000
00000100
00010000
00000100
01000000
00001000
01000000
00000010
10000000
00000010
00100000
00000100
,
00010000
00000100
01000000
00000100
10000000
00000100
10000000
00000010
10000000
00000010
00100000
00000001
00100000
00000100
01000000
00001000
,
01000000
00000100
01000000
00000001
00100000
00000010
10000000
00000010
01000000
00000010
00010000
00000010
10000000
00000010
10000000
00001000
,
00100000
00001000
10000000
00000010
00010000
00000010
00010000
00000001
00010000
00000010
00010000
00000100
00010000
00000100
00010000
00000001
,
00100000
00000010
10000000
00000010
10000000
00001000
01000000
00001000
01000000
00000010
00100000
00001000
10000000
00000100
00100000
00000001
,
00100000
00000100
01000000
00000001
01000000
00000010
01000000
00000001
10000000
00000010
00100000
00000010
00100000
00000010
00010000
00000010
,
00010000
00000100
01000000
00000001
00010000
00000010
01000000
00000001
01000000
00001000
10000000
00000100
10000000
00000001
00100000
00000100
,
00010000
00000010
00100000
00000001
10000000
00000100
10000000
00000100
01000000
00000001
10000000
00000010
10000000
00001000
10000000
00001000
,
01000000
00000001
00010000
00000100
00100000
00000001
00010000
00000100
00010000
00000010
00100000
00000010
00100000
00001000
00100000
00000001
,
00010000
00000010
00100000
00001000
00100000
00000100
01000000
00000001
01000000
00000010
10000000
00000001
00010000
00000100
00010000
00000001
,
01000000
00000100
00100000
00000100
10000000
00000100
10000000
00000100
00010000
00000100
00010000
00000001
00100000
00000100
00100000
00000001
,
00010000
00000100
00010000
00000100
10000000
00000001
10000000
00000010
00100000
00000001
00100000
00001000
10000000
00000100
01000000
00001000
,
01000000
00001000
00100000
00001000
10000000
00000010
10000000
00000010
10000000
00000100
00100000
00000100
10000000
00001000
10000000
00000010
,
10000000
00000010
10000000
00000100
00100000
00000100
00100000
00000100
00100000
00000001
01000000
00000100
00010000
00000001
01000000
00000100
,
10000000
00001000
00100000
00001000
10000000
00000010
10000000
00000010
10000000
00001000
00100000
00000001
00010000
00000010
00010000
00000010
,
01000000
00000100
00010000
00000100
00010000
00000001
01000000
00000010
10000000
00001000
00100000
00001000
10000000
00000100
00100000
00000001
,
10000000
00000010
01000000
00001000
10000000
00000010
00010000
00000001
01000000
00000010
00010000
00000010
10000000
00001000
01000000
00001000
,
10000000
00000010
00010000
00000010
01000000
00001000
01000000
00000100
01000000
00000001
10000000
00000010
10000000
00000100
10000000
00000001
,
00100000
00000010
00010000
00000001
10000000
00000100
00100000
00000001
00100000
00000010
00010000
00000010
10000000
00000001
00100000
00000010
,
00100000
00000001
00100000
00000100
01000000
00000100
00010000
00000100
00100000
00000001
00010000
00000100
10000000
00000100
10000000
00000100
,
10000000
00000100
10000000
00000001
10000000
00000100
01000000
00000001
00010000
00000010
00010000
00000001
10000000
00000100
10000000
00000001
,
01000000
00000010
10000000
00000001
00100000
00000010
01000000
00000001
00010000
00000010
00010000
00000001
10000000
00000010
00100000
00001000
,
10000000
00000100
00010000
00000001
01000000
00000100
00010000
00000001
00100000
00001000
00100000
00000010
10000000
00001000
00100000
00000010
,
00100000
00000010
00100000
00000001
00010000
00000010
00100000
00001000
01000000
00001000
10000000
00001000
10000000
00001000
00100000
00000001
,
00010000
00000100
00010000
00000100
00010000
00000001
00010000
00000010
00100000
00001000
01000000
00000100
01000000
00001000
10000000
00000010
,
01000000
00001000
01000000
00000010
00010000
00000010
00100000
00000001
00010000
00000100
00100000
00000010
00010000
00000010
00100000
00000001
,
10000000
00000010
00100000
00001000
00100000
00001000
00100000
00000100
10000000
00000100
10000000
00001000
00100000
00000001
10000000
00000100
,
10000000
00001000
10000000
00000100
00010000
00000001
01000000
00000100
10000000
00001000
10000000
00000001
01000000
00000100
01000000
00001000
,
01000000
00001000
01000000
00000100
00010000
00000100
10000000
00001000
00100000
00000100
00100000
00001000
00100000
00000001
10000000
00000100
,
00100000
00001000
10000000
00000100
00010000
00000100
00010000
00000001
01000000
00000010
00100000
00000010
10000000
00001000
10000000
00000010
,
01000000
00000100
00010000
00000001
01000000
00000100
01000000
00001000
01000000
00000010
10000000
00000010
00100000
00000100
10000000
00000100
,
10000000
00000001
00100000
00000010
00100000
00000010
01000000
00000001
00010000
00000010
00010000
00000010
01000000
00000010
10000000
00000001
,
00010000
00000010
00100000
00000010
10000000
00000001
00100000
00000100
10000000
00000010
01000000
00000001
01000000
00000010
01000000
00000001
,
00100000
00000010
10000000
00000010
00100000
00000010
00100000
00000010
00010000
00000001
00010000
00000010
00010000
00000100
00100000
00000100
,
00100000
00000001
00100000
00000100
01000000
00000100
01000000
00000001
10000000
00000100
00010000
00000001
00100000
00000010
10000000
00001000
,
01000000
00001000
01000000
00000001
10000000
00000010
10000000
00000001
01000000
00000100
10000000
00000001
01000000
00000010
10000000
00000010
,
10000000
00000010
01000000
00000001
10000000
00000100
10000000
00000010
01000000
00000010
01000000
00001000
01000000
00001000
00100000
00001000
,
00100000
00000100
00010000
00000001
10000000
00000010
00100000
00001000
10000000
00000010
10000000
00000100
01000000
00000100
10000000
00000100
,
10000000
00000010
01000000
00000010
00010000
00000010
00010000
00000001
00100000
00000010
00100000
00000001
01000000
00000100
10000000
00000001
,
10000000
00000100
00100000
00000010
00010000
00000010
00100000
00000001
00010000
00000100
00010000
00000100
00010000
00000001
01000000
00000100
,
00010000
00000001
00100000
00001000
00100000
00000010
00100000
00001000
00100000
00000100
01000000
00000100
10000000
00001000
10000000
00000100
,
00100000
00001000
10000000
00000010
01000000
00000100
00010000
00000100
01000000
00000001
01000000
00000010
00010000
00000010
00010000
00000100
,
01000000
00000001
00010000
00000100
00100000
00000010
00100000
00001000
00100000
00000100
00100000
00000001
10000000
00000100
10000000
00000010
,
01000000
00000010
01000000
00000010
00010000
00000001
00100000
00001000
10000000
00000010
01000000
00000001
01000000
00001000
10000000
00000100
,
10000000
00000100
10000000
00000010
00100000
00000010
10000000
00000001
10000000
00000100
10000000
00000001
10000000
00000100
00100000
00001000
,
00100000
00000100
10000000
00001000
01000000
00000001
01000000
00000100
01000000
00000001
00010000
00000100
01000000
00000001
00010000
00000010
,
10000000
00000010
01000000
00000001
00010000
00000010
10000000
00000010
00100000
00000010
00010000
00000010
10000000
00000010
01000000
00000001
,
00010000
00000010
10000000
00000010
10000000
00000001
10000000
00000100
00010000
00000001
01000000
00000100
10000000
00000001
10000000
00000100
,
10000000
00000100
01000000
00000100
01000000
00000100
01000000
00000100
00010000
00000100
01000000
00000001
00010000
00000100
00010000
00000001
,
00010000
00000010
00100000
00000100
10000000
00000001
01000000
00000100
10000000
00000010
10000000
00000001
01000000
00000010
00010000
00000001
,
10000000
00000010
00100000
00000001
00100000
00000100
10000000
00000001
10000000
00000010
01000000
00000001
00100000
00000100
00010000
00000001
,
00100000
00000100
00100000
00000010
10000000
00000010
10000000
00000010
10000000
00000010
10000000
00000010
00010000
00000001
01000000
00000100
,
10000000
00001000
00100000
00000001
00010000
00000010
01000000
00000010
00010000
00000100
00010000
00000100
00100000
00000001
10000000
00000010
,
01000000
00000001
00010000
00000100
00010000
00000100
00010000
00000010
01000000
00000001
01000000
00000010
10000000
00000100
10000000
00001000
,
00100000
00000010
10000000
00000100
10000000
00001000
00100000
00000010
10000000
00001000
01000000
00000001
10000000
00000010
10000000
00000010
,
10000000
00001000
01000000
00000100
10000000
00000010
10000000
00000010
10000000
00000010
10000000
00001000
00100000
00000100
10000000
00000100
,
00010000
00000001
00010000
00000010
00100000
00000001
00100000
00000100
01000000
00000001
01000000
00000100
00010000
00000100
01000000
00000100
,
00100000
00000001
00010000
00000100
00010000
00000001
00100000
00000100
00100000
00000001
01000000
00000100
01000000
00000001
01000000
00000010
,
10000000
00000010
01000000
00000100
01000000
00000100
01000000
00000100
01000000
00000001
00100000
00000100
00100000
00000100
00010000
00000001
,
00010000
00000100
00100000
00001000
01000000
00000100
10000000
00000100
10000000
00000100
10000000
00000010
01000000
00000010
01000000
00000001
,
10000000
00001000
01000000
00001000
01000000
00000100
10000000
00000100
01000000
00000100
00010000
00000100
00100000
00001000
00100000
00000001
,
00100000
00000010
00010000
00000001
00010000
00000100
00010000
00000100
10000000
00000001
10000000
00000010
00100000
00000010
01000000
00000010
,
10000000
00000010
00100000
00000010
00010000
00000100
01000000
00000001
10000000
00000010
01000000
00000010
00010000
00000001
10000000
00000100
,
10000000
00000100
10000000
00001000
01000000
00000001
00010000
00000010
00100000
00000001
00010000
00000100
00010000
00000001
01000000
00001000
,
01000000
00001000
10000000
00000100
10000000
00001000
01000000
00001000
00100000
00000010
10000000
00001000
10000000
00001000
01000000
00000001
,
01000000
00000010
10000000
00000001
01000000
00000010
00100000
00001000
00100000
00001000
10000000
00000100
10000000
00000100
10000000
00000010
,
01000000
00001000
10000000
00000010
10000000
00001000
10000000
00000100
00010000
00000001
01000000
00000100
01000000
00001000
01000000
00000100
,
10000000
00000001
00100000
00001000
10000000
00000100
01000000
00000001
01000000
00001000
01000000
00001000
01000000
00000100
10000000
00000001
,
00100000
00000100
10000000
00001000
00100000
00000100
00010000
00000010
00010000
00000010
00100000
00001000
00100000
00000010
10000000
00000001
,
00010000
00000010
01000000
00000001
00010000
00000100
00010000
00000001
10000000
00000010
10000000
00000010
10000000
00001000
00100000
00000001
,
00010000
00000100
00010000
00000100
00100000
00000001
01000000
00000100
01000000
00001000
01000000
00001000
10000000
00000100
01000000
00001000
,
00100000
00000100
10000000
00000001
10000000
00000100
01000000
00000001
01000000
00000100
00100000
00000001
00010000
00000010
00010000
00000010
,
00010000
00000100
01000000
00000100
01000000
00000100
01000000
00000100
01000000
00000010
00010000
00000001
01000000
00000100
10000000
00000100
,
10000000
00000100
00100000
00000001
00100000
00001000
00100000
00000010
10000000
00001000
00100000
00001000
01000000
00000100
00010000
00000100
,
00010000
00000100
00100000
00000010
10000000
00000001
00100000
00000100
10000000
00000100
01000000
00000001
01000000
00000100
01000000
00000010
,
01000000
00000001
10000000
00000010
10000000
00001000
10000000
00000100
01000000
00000100
00100000
00000100
00100000
00000001
00100000
00000100
,
10000000
00001000
00100000
00000100
10000000
00000100
10000000
00000010
10000000
00000010
01000000
00000001
01000000
00000010
10000000
00000010
,
10000000
00001000
10000000
00000100
01000000
00001000
00100000
00000010
10000000
00000010
00100000
00000010
10000000
00000100
10000000
00000100
,
10000000
00000001
01000000
00000100
00100000
00001000
10000000
00000010
10000000
00000010
01000000
00000100
10000000
00000100
10000000
00000001
,
01000000
00000100
01000000
00001000
00100000
00001000
00100000
00000100
00100000
00000001
01000000
00000100
10000000
00000100
10000000
00000100
,
00010000
00000100
00100000
00000100
00100000
00001000
01000000
00000010
01000000
00000001
10000000
00000010
10000000
00000100
00100000
00000001
,
00100000
00000100
00010000
00000010
00100000
00000010
10000000
00000001
10000000
00000100
10000000
00000010
10000000
00000001
00100000
00000010
,
00100000
00000100
10000000
00001000
01000000
00000010
00010000
00000100
00010000
00000100
00010000
00000001
00010000
00000100
10000000
00000001
,
00100000
00000010
00100000
00001000
10000000
00000010
01000000
00000001
10000000
00000010
00010000
00000010
01000000
00000001
01000000
00000010
,
00010000
00000010
00100000
00000100
10000000
00000100
00100000
00001000
00100000
00000010
01000000
00001000
10000000
00001000
10000000
00001000
,
10000000
00000010
10000000
00000010
10000000
00000001
01000000
00000100
10000000
00000001
00100000
00000100
00010000
00000001
10000000
00000100
,
01000000
00000100
01000000
00000100
00100000
00000100
10000000
00000001
10000000
00000100
10000000
00000001
10000000
00000010
00100000
00000001
,
10000000
00001000
01000000
00001000
10000000
00000010
00100000
00000100
10000000
00000001
10000000
00000010
01000000
00000001
00010000
00000100
,
10000000
00000100
10000000
00001000
00100000
00001000
10000000
00000001
10000000
00000010
10000000
00000010
00100000
00000010
01000000
00000010
,
00010000
00000001
00010000
00000100
00100000
00000010
00010000
00000001
00010000
00000100
00100000
00000010
00100000
00000010
10000000
00000001
,
00100000
00000010
00100000
00000100
10000000
00000100
10000000
00000100
10000000
00000010
01000000
00000001
10000000
00000010
00100000
00000010
,
10000000
00000010
10000000
00000010
10000000
00000001
01000000
00000010
00100000
00000010
00100000
00001000
00100000
00000100
00100000
00000001
,
01000000
00000010
01000000
00001000
10000000
00000100
10000000
00000010
01000000
00000001
01000000
00000010
00010000
00000010
00010000
00000100
,
00100000
00001000
00100000
00001000
00100000
00000100
00100000
00000001
01000000
00000010
01000000
00001000
01000000
00000010
00100000
00000001
,
10000000
00000100
01000000
00001000
00100000
00000010
10000000
00001000
01000000
00001000
00100000
00001000
10000000
00000010
10000000
00000001
,
00100000
00001000
10000000
00001000
01000000
00000010
00010000
00000010
01000000
00001000
00100000
00000100
00100000
00000100
10000000
00000001
,
10000000
00000010
00100000
00000100
10000000
00001000
00100000
00001000
00100000
00000010
10000000
00000001
01000000
00001000
01000000
00000010
,
00010000
00000010
01000000
00001000
00100000
00000010
00100000
00000010
00100000
00000010
00010000
00000001
00100000
00001000
00100000
00000100
,
00100000
00001000
10000000
00000010
01000000
00000100
10000000
00001000
10000000
00000100
00100000
00001000
10000000
00000100
10000000
00000001
,
00100000
00000100
00100000
00000001
01000000
00000100
01000000
00000001
01000000
00000010
10000000
00000001
01000000
00001000
01000000
00001000
,
01000000
00000010
10000000
00000100
01000000
00000100
00010000
00000001
00010000
00000010
00010000
00000010
10000000
00000001
01000000
00000010
,
00010000
00000010
00010000
00000100
00100000
00000100
00100000
00000001
10000000
00000100
01000000
00000010
01000000
00000001
10000000
00000100
,
10000000
00000100
00100000
00000001
00010000
00000010
01000000
00000100
00010000
00000100
00010000
00000001
00010000
00000100
01000000
00000010
,
10000000
00000001
01000000
00000100
01000000
00000001
01000000
00000010
10000000
00000001
10000000
00000100
01000000
00000100
00100000
00001000
,
10000000
00000100
00100000
00000100
00010000
00000001
00010000
00000100
10000000
00000100
00100000
00000001
00010000
00000100
10000000
00000100
,
10000000
00001000
00100000
00001000
01000000
00001000
10000000
00001000
00100000
00001000
00100000
00000001
10000000
00000010
01000000
00000001
,
10000000
00001000
01000000
00000010
10000000
00001000
10000000
00000100
10000000
00000010
00100000
00000001
10000000
00000100
10000000
00001000
,
10000000
00001000
00100000
00000001
10000000
00000010
00100000
00000001
10000000
00000010
10000000
00000100
01000000
00001000
10000000
00000010
,
10000000
00000001
01000000
00001000
01000000
00000010
00010000
00000010
00100000
00000100
10000000
00000100
01000000
00000100
00010000
00000100
,
00010000
00000010
00100000
00000001
00100000
00000100
00100000
00000100
00010000
00000001
00100000
00000010
10000000
00000001
00100000
00000010
,
10000000
00000100
01000000
00000001
10000000
00000010
10000000
00000100
00100000
00001000
00100000
00000100
00100000
00000001
10000000
00001000
,
10000000
00001000
10000000
00000100
00100000
00000001
00100000
00001000
00100000
00000010
00100000
00000010
00010000
00000001
10000000
00000010
,
00100000
00000010
10000000
00000001
10000000
00001000
00100000
00000010
00100000
00001000
00100000
00000010
10000000
00000001
10000000
00000010
,
10000000
00000010
00100000
00000001
00010000
00000100
00100000
00000001
00100000
00000100
01000000
00001000
01000000
00000100
01000000
00000100
,
00100000
00001000
00100000
00001000
10000000
00000100
00010000
00000100
01000000
00000001
01000000
00000100
10000000
00000100
10000000
00000100
,
00100000
00000010
00100000
00001000
10000000
00000100
10000000
00000100
00010000
00000100
00010000
00000001
00100000
00000100
10000000
00000010
,
10000000
00000010
01000000
00000001
01000000
00000100
10000000
00000100
10000000
00001000
00100000
00000010
10000000
00000100
10000000
00000100
,
01000000
00000100
10000000
00000001
00100000
00000100
00100000
00001000
00100000
00000010
10000000
00000100
10000000
00000001
01000000
00000100
,
10000000
00000001
01000000
00000100
01000000
00000001
10000000
00001000
10000000
00000100
10000000
00000100
00100000
00000010
00010000
00000010
,
01000000
00000010
01000000
00000001
10000000
00001000
10000000
00000010
01000000
00000001
10000000
00001000
01000000
00000010
10000000
00000010
,
00100000
00000001
00100000
00001000
00100000
00001000
10000000
00000010
00100000
00000001
10000000
00000010
10000000
00000001
01000000
00000100
,
01000000
00000100
00100000
00000100
10000000
00000100
10000000
00000100
10000000
00000010
00100000
00000001
10000000
00000010
00100000
00000001
,
00100000
00000100
10000000
00000010
01000000
00000001
01000000
00000010
00010000
00000010
01000000
00001000
01000000
00000100
01000000
00000001
,
00010000
00000100
10000000
00000100
10000000
00001000
00100000
00000010
01000000
00000001
00010000
00000100
01000000
00000100
00100000
00000001
,
00100000
00000010
00010000
00000010
00010000
00000010
01000000
00000010
00010000
00000100
00010000
00000001
00100000
00000010
10000000
00001000
,
00100000
00000001
10000000
00000100
00100000
00001000
00100000
00001000
10000000
00001000
10000000
00000010
01000000
00000001
10000000
00000010
,
00010000
00000001
00010000
00000010
00100000
00000010
01000000
00000010
01000000
00001000
01000000
00000100
01000000
00000100
10000000
00000100
,
01000000
00000001
10000000
00000010
00010000
00000001
00010000
00000100
00100000
00001000
00100000
00000010
10000000
00000001
10000000
00000010
,
00010000
00000001
00010000
00000100
00010000
00000100
01000000
00001000
00100000
00000100
00010000
00000100
00100000
00000100
00100000
00000010
,
10000000
00000010
00100000
00001000
00100000
00000001
10000000
00000100
00100000
00000001
10000000
00000100
00100000
00000100
00100000
00000010
,
10000000
00000010
10000000
00000001
00100000
00000010
00010000
00000001
01000000
00000100
10000000
00000001
10000000
00000010
00100000
00000100
,
10000000
00000100
01000000
00000001
00010000
00000100
10000000
00001000
01000000
00000100
10000000
00000001
00010000
00000010
00100000
00000010
,
00010000
00000010
10000000
00001000
01000000
00001000
01000000
00000100
00010000
00000010
00100000
00001000
00100000
00001000
00100000
00001000
,
10000000
00000001
00100000
00000010
10000000
00001000
00100000
00001000
00100000
00000001
10000000
00000010
00100000
00001000
00100000
00001000
,
01000000
00001000
10000000
00000100
10000000
00001000
00100000
00000001
10000000
00000010
00100000
00000001
00010000
00000100
00010000
00000010
,
00100000
00000010
10000000
00001000
00100000
00000010
00100000
00001000
00100000
00000010
01000000
00001000
10000000
00001000
01000000
00000010
,
00100000
00000001
10000000
00000010
10000000
00000001
00010000
00000010
00010000
00000010
01000000
00000001
00100000
00000100
00010000
00000100
,
00100000
00001000
10000000
00000100
01000000
00000010
01000000
00000001
01000000
00000010
00010000
00000010
00100000
00000001
10000000
00000010
,
10000000
00000100
10000000
00000100
00100000
00000100
00010000
00000010
00100000
00001000
00100000
00001000
00100000
00000001
10000000
00000100
,
10000000
00000100
01000000
00001000
00100000
00000100
00010000
00000100
00100000
00000100
01000000
00000001
10000000
00000100
10000000
00000001
,
01000000
00000100
10000000
00000001
01000000
00001000
01000000
00000010
10000000
00000001
01000000
00001000
01000000
00001000
01000000
00000010
,
10000000
00000010
01000000
00000010
00010000
00000100
01000000
00000001
10000000
00000010
01000000
00001000
01000000
00000010
00010000
00000001
,
01000000
00001000
01000000
00000010
00010000
00000001
00010000
00000010
00100000
00000100
00010000
00000100
01000000
00001000
01000000
00001000
,
01000000
00001000
00100000
00001000
00100000
00001000
10000000
00001000
01000000
00001000
01000000
00001000
10000000
00000100
10000000
00001000
,
01000000
00000001
01000000
00000010
00010000
00000010
00100000
00000001
10000000
00000100
01000000
00000001
00100000
00000010
00100000
00000001
,
00100000
00000100
00100000
00000010
10000000
00000010
00100000
00000010
10000000
00001000
01000000
00000001
01000000
00000010
10000000
00000001
,
01000000
00000100
00010000
00000010
00100000
00001000
00100000
00000010
00010000
00000010
00010000
00000001
01000000
00000100
01000000
00001000
,
01000000
00000001
10000000
00000010
10000000
00000001
00100000
00000100
00010000
00000100
00010000
00000001
00100000
00001000
00100000
00001000
,
10000000
00001000
10000000
00001000
01000000
00000010
10000000
00000100
01000000
00000001
00010000
00000010
00010000
00000010
01000000
00001000
,
10000000
00000001
00100000
00000010
10000000
00000001
00100000
00000010
10000000
00000100
00100000
00000100
00010000
00000100
00010000
00000100
,
00010000
00000010
00100000
00000001
00100000
00000010
00010000
00000100
00100000
00000001
00100000
00000100
00100000
00000001
01000000
00000010
,
10000000
00001000
00100000
00000100
10000000
00000010
00100000
00000001
00100000
00000010
00100000
00000010
01000000
00000010
01000000
00000001
,
10000000
00000100
01000000
00000100
10000000
00000010
00100000
00000010
10000000
00000010
01000000
00000100
00010000
00000001
00100000
00000010
,
10000000
00001000
10000000
00000010
00010000
00000001
01000000
00000100
00010000
00000100
00010000
00000010
00100000
00000001
00100000
00000100
,
00100000
00000001
01000000
00000100
10000000
00000100
00100000
00001000
00100000
00001000
10000000
00000001
10000000
00000100
01000000
00001000
,
10000000
00001000
00100000
00000010
00100000
00000001
00100000
00001000
10000000
00000100
00100000
00001000
00100000
00000001
10000000
00000100
,
00100000
00000100
10000000
00001000
00100000
00000010
00010000
00000010
01000000
00000100
00010000
00000001
00100000
00000010
00100000
00000010
,
01000000
00001000
10000000
00001000
01000000
00000010
00100000
00000001
00100000
00000010
10000000
00000001
01000000
00000100
00100000
00001000
,
00100000
00001000
10000000
00001000
01000000
00000100
00100000
00000100
10000000
00000100
10000000
00000001
10000000
00000100
00100000
00001000
,
01000000
00001000
10000000
00000100
01000000
00001000
10000000
00001000
00100000
00001000
01000000
00001000
10000000
00000010
00100000
00000001
,
01000000
00000100
00010000
00000100
00010000
00000100
01000000
00000001
01000000
00000100
01000000
00000100
00010000
00000010
00010000
00000001
,
00100000
00000100
00100000
00000010
00010000
00000010
00010000
00000001
00100000
00000010
00010000
00000010
10000000
00000010
10000000
00000001
,
10000000
00000010
01000000
00001000
01000000
00000001
00010000
00000010
00100000
00000010
10000000
00000001
10000000
00000100
00100000
00000001
,
10000000
00000100
00100000
00000100
10000000
00000010
10000000
00000010
01000000
00000010
10000000
00000001
00100000
00000100
10000000
00000001
,
01000000
00000010
00100000
00000010
00100000
00000001
00100000
00000010
00010000
00000010
01000000
00000100
10000000
00001000
01000000
00001000
,
10000000
00000100
00100000
00000001
00010000
00000010
00010000
00000001
01000000
00000100
00100000
00000001
00100000
00000100
00010000
00000100
,
01000000
00000010
01000000
00000001
10000000
00000010
00100000
00000010
01000000
00000010
00010000
00000010
01000000
00000001
10000000
00000100
,
01000000
00000010
01000000
00000001
01000000
00000010
01000000
00000010
10000000
00000001
01000000
00000100
10000000
00000100
10000000
00000010
,
10000000
00001000
00100000
00001000
00100000
00000001
00010000
00000010
01000000
00000001
10000000
00000010
00100000
00000001
00010000
00000100
,
00010000
00000001
00010000
00000100
01000000
00000010
01000000
00000010
10000000
00000010
00100000
00001000
01000000
00001000
01000000
00000010
,
01000000
00000001
10000000
00000100
10000000
00000010
10000000
00000010
01000000
00000001
10000000
00001000
10000000
00000010
00100000
00000010
,
00010000
00000010
00100000
00000001
00100000
00000010
00100000
00001000
00100000
00000001
00010000
00000010
00010000
00000010
00010000
00000100
,
01000000
00000100
00010000
00000100
00010000
00000010
00100000
00000010
00100000
00001000
10000000
00000010
01000000
00000010
00100000
00000001
,
10000000
00000100
10000000
00001000
10000000
00000001
01000000
00000100
01000000
00000001
00010000
00000100
00100000
00000010
00010000
00000001
,
00010000
00000100
00100000
00000100
00010000
00000010
00100000
00000001
00100000
00000010
10000000
00000010
00100000
00001000
00100000
00001000
,
01000000
00001000
10000000
00000100
00100000
00001000
01000000
00001000
10000000
00001000
10000000
00000010
01000000
00000100
01000000
00000001
,
01000000
00000010
01000000
00000001
01000000
00000100
00100000
00000100
00010000
00000001
00010000
00000100
01000000
00001000
00100000
00001000
,
00100000
00000010
00100000
00000001
01000000
00000100
01000000
00000100
00010000
00000001
01000000
00001000
01000000
00001000
10000000
00000100
,
00100000
00000010
10000000
00001000
10000000
00001000
01000000
00000100
10000000
00000100
00010000
00000001
00100000
00000100
00010000
00000100
,
01000000
00000001
01000000
00001000
01000000
00000010
10000000
00001000
01000000
00000100
00100000
00000100
00100000
00000001
10000000
00000100
,
10000000
00001000
10000000
00001000
01000000
00000001
00010000
00000010
00010000
00000010
00100000
00000010
00100000
00001000
00100000
00001000
,
10000000
00000100
00010000
00000100
00100000
00000001
10000000
00000100
01000000
00000010
10000000
00000010
10000000
00001000
01000000
00000001
,
01000000
00000100
01000000
00001000
10000000
00000010
10000000
00000001
10000000
00000010
01000000
00000010
00010000
00000100
00010000
00000001
,
00010000
00000010
01000000
00000010
00010000
00000010
10000000
00000010
10000000
00000001
00100000
00000100
00010000
00000010
01000000
00001000
,
01000000
00001000
01000000
00000001
01000000
00000100
01000000
00000100
10000000
00000100
00100000
00001000
10000000
00001000
00100000
00000010
,
00100000
00000001
00010000
00000100
00100000
00001000
00100000
00000001
00100000
00000100
00100000
00000001
00010000
00000100
01000000
00000100
,
01000000
00001000
10000000
00000100
10000000
00000001
00010000
00000100
00010000
00000100
01000000
00000001
00100000
00000100
10000000
00000100
,
01000000
00000100
00010000
00000001
00100000
00000010
00010000
00000010
10000000
00000001
00100000
00000100
00010000
00000001
00100000
00001000
,
00100000
00000100
10000000
00000100
10000000
00001000
00100000
00000010
10000000
00000100
01000000
00001000
01000000
00000100
00010000
00000001
,
10000000
00000100
00100000
00001000
00100000
00001000
10000000
00000010
10000000
00000010
10000000
00000100
10000000
00000100
10000000
00000001
,
01000000
00000100
10000000
00000001
00100000
00000100
00100000
00001000
10000000
00001000
10000000
00000010
10000000
00000001
10000000
00000100
,
01000000
00000100
00010000
00000100
00100000
00000001
10000000
00001000
01000000
00000010
10000000
00000010
10000000
00000100
10000000
00000100
,
01000000
00000100
00010000
00000010
00100000
00001000
00100000
00001000
00100000
00000100
10000000
00000100
00010000
00000100
01000000
00000001
,
01000000
00000100
01000000
00000001
00100000
00000010
10000000
00000001
01000000
00000100
01000000
00000100
00100000
00001000
00100000
00000010
,
00010000
00000010
10000000
00000010
10000000
00000010
01000000
00001000
01000000
00000001
10000000
00000100
00100000
00000001
10000000
00000010
,
00100000
00000001
01000000
00000100
00010000
00000001
01000000
00000100
01000000
00000010
10000000
00000001
00100000
00000010
00100000
00000100
,
10000000
00001000
01000000
00000100
01000000
00000001
01000000
00001000
10000000
00000100
10000000
00000100
00100000
00000001
01000000
00000010
,
10000000
00000010
01000000
00001000
01000000
00000010
01000000
00001000
01000000
00000100
00010000
00000001
01000000
00000010
10000000
00000100
,
01000000
00000100
00010000
00000001
01000000
00000010
01000000
00001000
01000000
00001000
10000000
00000001
10000000
00000100
00100000
00001000
,
10000000
00000010
00100000
00000001
00100000
00001000
10000000
00000100
00100000
00000001
00100000
00001000
10000000
00000010
01000000
00001000
,
01000000
00001000
10000000
00000010
10000000
00000001
01000000
00000010
01000000
00000001
00100000
00000010
10000000
00000010
00100000
00000010
;

//---------------dance-single - Kyzentun Science----------------
#NOTES:
     dance-single:
     Kyzentun Science:
     Challenge:
     14:
     0.853,1.000,0.008,0.591,0.894,1291.000,2.000,142.000,99.000,32.000,16.000,0.853,1.000,0.008,0.591,0.894,1291.000,2.000,142.000,99.000,32.000,16.000:
0000
0000
0000
0000
,
1000
0001
0010
0001
0010
0100
1000
0001
0100
0001
0100
0010
0100
0010
0100
0010
,
1000
0100
0010
0001
1000
0100
1000
0001
0100
0001
0100
0010
1000
0100
0010
0100
,
0010
0001
0010
0100
0010
0001
0010
0001
1000
0001
0010
0001
0100
0010
0100
0010
,
0100
0001
0100
0001
1000
0001
0100
0010
0100
0001
1000
0100
1000
0010
1000
0010
,
0100
0010
0100
0001
1000
0001
0100
0010
0100
0001
0100
0001
0010
0001
0010
0001
,
1000
0010
1000
0010
1000
0100
0010
0100
0010
0001
0010
0001
1000
0100
1000
0010
,
0100
0010
0100
0010
0100
0001
0100
0010
1000
0001
0100
0010
1000
0010
1000
0010
,
1000
0001
0100
0001
1000
0100
0010
0001
0100
0001
1000
0010
1000
0010
0100
0010
,
0100
0001
0100
0001
0010
0001
1000
0100
1000
0100
0010
0100
1000
0001
0100
0001
,
0010
0100
0010
0001
0010
0001
0010
0100
1000
0001
1000
0001
0100
0010
1000
0001
,
0100
0010
0100
0010
0100
0010
1000
0010
1000
0001
1000
0100
0010
0100
1000
0010
,
1000
0010
0100
0001
0100
0010
0100
0010
0100
0001
0100
0010
0100
0001
0100
0010
,
1000
0010
0100
0010
0100
0010
0100
0001
0010
0100
0010
0001
0010
0001
1000
0010
,
1000
0010
1000
0100
1000
0100
1000
0001
0100
0010
0100
0010
1000
0010
1000
0010
,
1000
0100
1000
0100
0010
0100
0010
0001
0010
0001
0100
0010
0100
0001
0100
0001
,
0010
0001
0010
0100
0010
0100
1000
0010
1000
0001
1000
0100
0010
0100
1000
0100
,
0010
0100
1000
0100
1000
0001
1000
0001
0010
0100
0010
0100
1000
0010
1000
0001
,
1000
0001
0010
0100
1000
0010
1000
0001
0100
0001
1000
0100
0010
0100
0010
0100
,
0010
0001
0100
0001
1000
0010
1000
0001
1000
0001
1000
0001
1000
0100
0010
0100
,
0010
0001
1000
0100
0010
0001
1000
0001
0010
0001
1000
0001
1000
0010
0100
0010
,
1000
0001
1000
0100
1000
0100
1000
0100
1000
0010
1000
0001
0010
0100
0010
0100
,
1000
0010
1000
0001
1000
0001
0010
0100
0010
0001
0100
0001
1000
0010
1000
0001
,
1000
0100
0010
0100
1000
0100
1000
0100
1000
0100
1000
0001
0100
0001
1000
0100
,
1000
0100
0010
0100
1000
0001
0010
0001
1000
0010
1000
0100
1000
0100
0010
0001
,
0010
0001
0010
0001
1000
0001
0010
0100
1000
0100
0010
0001
0010
0100
1000
0100
,
1000
0010
0100
0010
1000
0010
1000
0100
1000
0001
0100
0001
0100
0010
0100
0010
,
1000
0010
1000
0001
1000
0001
0010
0001
0010
0100
0010
0001
0100
0001
0100
0001
,
0100
0001
1000
0001
1000
0001
0010
0001
0010
0001
1000
0001
0100
0001
1000
0010
,
1000
0100
0010
0100
0010
0001
1000
0001
0100
0001
0100
0010
0100
0010
1000
0100
,
0010
0100
0010
0100
1000
0010
0100
0001
1000
0001
0100
0001
0100
0001
0010
0001
,
0010
0100
1000
0001
0100
0001
0100
0010
0100
0001
1000
0010
1000
0100
1000
0100
,
0010
0100
1000
0001
0010
0001
0100
0001
1000
0100
0010
0100
1000
0100
0010
0100
,
1000
0100
1000
0010
1000
0001
1000
0010
1000
0100
1000
0100
0010
0001
1000
0010
,
1000
0010
0100
0001
0100
0010
0100
0001
0010
0100
0010
0001
0010
0100
0010
0001
,
0100
0001
1000
0001
1000
0010
1000
0010
0100
0010
1000
0100
1000
0100
1000
0100
,
1000
0001
0100
0001
1000
0001
1000
0100
1000
0100
0010
0001
0100
0001
0100
0001
,
1000
0001
1000
0100
1000
0100
1000
0001
0010
0100
0010
0100
0010
0001
0010
0100
,
1000
0100
1000
0010
1000
0010
0100
0010
0100
0010
0100
0010
1000
0010
0100
0010
,
0100
0010
0100
0001
0100
0001
0010
0100
0010
0001
0010
0100
1000
0100
1000
0010
,
1000
0010
0100
0010
0100
0001
1000
0100
0010
0001
0100
0001
1000
0010
0100
0001
,
1000
0100
1000
0001
0010
0001
0100
0010
1000
0010
0100
0001
0100
0010
0100
0010
,
1000
0001
1000
0100
0010
0100
0010
0100
0010
0100
0010
0100
0010
0001
0010
0100
,
1000
0010
1000
0001
0100
0001
0100
0010
0100
0001
0100
0001
0100
0001
0100
0010
,
1000
0010
0100
0010
0100
0010
0100
0010
0100
0010
0100
0001
0010
0100
1000
0001
,
1000
0100
0010
0001
0010
0100
1000
0100
0010
0001
0010
0100
0010
0100
1000
0001
,
1000
0010
0100
0010
0100
0001
1000
0001
0100
0001
1000
0100
0010
0100
1000
0100
,
0010
0001
0010
0100
0010
0001
0010
0100
1000
0010
0100
0001
1000
0100
1000
0100
,
0010
0001
0010
0100
1000
0100
0010
0001
1000
0001
0100
0010
1000
0001
0010
0100
,
1000
0010
0100
0001
0100
0001
1000
0001
1000
0010
1000
0001
0010
0100
1000
0010
,
1000
0010
0100
0010
0100
0010
0100
0010
0100
0001
0100
0010
1000
0010
0100
0001
,
0010
0100
1000
0100
1000
0001
1000
0001
0100
0001
0010
0100
0010
0100
1000
0001
,
1000
0010
0100
0010
0100
0010
0100
0001
0100
0001
0010
0100
0010
0001
0010
0100
,
0010
0100
0010
0001
1000
0010
1000
0010
1000
0001
0010
0100
0010
0001
0010
0001
,
0010
0001
0010
0100
0010
0001
1000
0010
0100
0010
1000
0010
1000
0010
1000
0010
,
1000
0100
0010
0001
0010
0100
1000
0010
1000
0001
1000
0100
1000
0100
0010
0001
,
0010
0001
0100
0001
1000
0010
1000
0010
0100
0010
1000
0100
1000
0100
0010
0100
,
1000
0001
0100
0001
0100
0010
0100
0010
1000
0010
0100
0010
0100
0001
0010
0100
,
0010
0001
0010
0100
1000
0001
1000
0010
0100
0010
0100
0001
0100
0001
0010
0001
,
1000
0010
0100
0001
0100
0001
0100
0001
1000
0010
0100
0010
0100
0010
0100
0001
,
0010
0001
1000
0100
1000
0001
0100
0010
0100
0010
0100
0001
1000
0100
0010
0100
,
0010
0100
0010
0001
0100
0001
0100
0010
1000
0010
1000
0001
0100
0001
0100
0010
,
0100
0001
1000
0010
1000
0100
1000
0100
1000
0100
0010
0001
0010
0001
0100
0001
,
0100
0001
0100
0010
1000
0010
0100
0001
0100
0010
0100
0001
0010
0100
0010
0100
,
0010
0001
1000
0001
0010
0001
0100
0010
1000
0010
1000
0010
1000
0001
0010
0100
,
0010
0100
1000
0001
0100
0001
0100
0001
0100
0010
1000
0100
0010
0001
0010
0001
,
0010
0100
0010
0100
1000
0010
0100
0010
0100
0001
1000
0010
0100
0010
0100
0001
,
1000
0100
0010
0100
0010
0001
0100
0010
1000
0001
1000
0100
0010
0100
0010
0100
,
0010
0100
1000
0010
0100
0001
0100
0010
1000
0001
0010
0001
0010
0001
0100
0001
,
1000
0010
1000
0001
0010
0001
0010
0100
1000
0001
0100
0001
0100
0010
1000
0100
,
0010
0001
0010
0100
1000
0100
0010
0001
0100
0010
0100
0001
0100
0001
0010
0001
,
1000
0001
0010
0100
0010
0100
1000
0010
1000
0001
0010
0001
1000
0010
1000
0001
,
0100
0010
1000
0001
1000
0001
0100
0001
1000
0001
1000
0001
1000
0100
1000
0010
,
0100
0010
0100
0010
0100
0001
1000
0001
0010
0100
1000
0001
0100
0001
1000
0100
,
0010
0100
0010
0001
0100
0001
1000
0001
0100
0001
1000
0100
1000
0010
0100
0010
,
1000
0001
1000
0001
0010
0001
0010
0100
0010
0001
1000
0100
1000
0100
1000
0001
,
0100
0001
0100
0001
0010
0001
1000
0100
1000
0001
1000
0010
1000
0010
1000
0010
,
0100
0001
0100
0010
0100
0001
0010
0001
1000
0001
0010
0001
0100
0001
0100
0001
,
1000
0100
0010
0100
0010
0001
0010
0001
0010
0100
0010
0001
1000
0001
0010
0001
,
0010
0100
0010
0001
0010
0100
0010
0001
1000
0001
1000
0010
1000
0001
0100
0001
,
0100
0010
1000
0001
0100
0010
0100
0001
0100
0001
1000
0010
1000
0100
1000
0001
,
1000
0001
0100
0010
1000
0100
0010
0001
0010
0100
1000
0001
0010
0100
0010
0100
,
1000
0010
0100
0001
1000
0010
0100
0001
0010
0100
1000
0001
1000
0001
0010
0100
,
1000
0100
0010
0100
0010
0100
0010
0100
1000
0100
1000
0010
1000
0001
0010
0100
,
0010
0001
0100
0001
1000
0010
0100
0010
1000
0010
1000
0001
0100
0010
1000
0001
,
0010
0100
1000
0100
0010
0001
1000
0001
0100
0001
0100
0010
0100
0001
0010
0100
,
0010
0001
0010
0100
1000
0100
1000
0001
0010
0001
1000
0001
1000
0100
1000
0010
,
0100
0010
0100
0001
1000
0001
0100
0001
0100
0001
0010
0001
0010
0100
1000
0100
,
1000
0100
0010
0100
1000
0100
1000
0010
0100
0010
1000
0010
0100
0010
0100
0001
,
0100
0001
1000
0001
1000
0100
1000
0001
0100
0001
0100
0001
0010
0100
0010
0100
,
0010
0100
0010
0100
1000
0001
1000
0001
1000
0100
0010
0001
1000
0100
0010
0001
,
1000
0010
1000
0010
0100
0010
0100
0001
1000
0001
0100
0001
0100
0010
1000
0010
,
0100
0010
0100
0001
1000
0001
0100
0001
0010
0001
1000
0010
1000
0001
1000
0001
,
0010
0001
0010
0100
0010
0001
1000
0010
0100
0001
0010
0001
1000
0100
0010
0001
,
0100
0001
1000
0100
0010
0001
0100
0001
0100
0010
0100
0001
0010
0100
0010
0100
,
0010
0100
1000
0100
0010
0001
0010
0001
0100
0001
0100
0010
0100
0001
0010
0100
,
1000
0001
1000
0100
0010
0100
1000
0100
1000
0001
1000
0010
1000
0001
0100
0001
,
1000
0001
0010
0100
1000
0100
1000
0001
1000
0001
0100
0001
0100
0010
0100
0010
,
0100
0001
1000
0010
0100
0010
1000
0100
1000
0001
1000
0100
1000
0001
0100
0010
,
0100
0010
1000
0001
0010
0100
0010
0100
1000
0010
0100
0010
0100
0010
0100
0001
,
0100
0010
1000
0010
0100
0001
1000
0001
0100
0010
1000
0001
1000
0001
0010
0001
,
0010
0001
0100
0010
0100
0010
0100
0001
0100
0001
1000
0010
1000
0010
0100
0010
,
0100
0010
0100
0010
1000
0010
0100
0010
1000
0100
0010
0001
0010
0100
1000
0001
,
0100
0001
1000
0100
0010
0100
1000
0100
1000
0010
1000
0010
1000
0010
0100
0010
,
1000
0001
1000
0100
1000
0100
0010
0001
1000
0001
0100
0001
1000
0001
0010
0100
,
0010
0001
1000
0100
1000
0001
1000
0010
0100
0010
0100
0001
1000
0001
0010
0100
,
0010
0001
0100
0001
1000
0001
0010
0100
1000
0001
0010
0100
0010
0100
1000
0001
,
1000
0001
0100
0001
1000
0010
1000
0001
0100
0001
0100
0001
1000
0010
0100
0001
,
0010
0001
0010
0100
0010
0100
1000
0001
0100
0010
1000
0010
1000
0001
0100
0001
,
0010
0001
1000
0010
1000
0010
0100
0001
0010
0001
0010
0001
1000
0010
0100
0010
,
1000
0010
0100
0010
0100
0010
1000
0010
0100
0010
1000
0001
0100
0010
0100
0001
,
0010
0001
1000
0100
1000
0001
1000
0001
1000
0100
1000
0001
0100
0001
1000
0100
,
1000
0010
0100
0010
0100
0001
0100
0010
0100
0010
1000
0010
1000
0100
1000
0100
,
1000
0100
1000
0001
0100
0010
1000
0010
0100
0001
1000
0001
0010
0100
1000
0100
,
1000
0010
1000
0001
0010
0100
1000
0001
0100
0001
1000
0001
0010
0001
0010
0100
,
0010
0100
0010
0001
0010
0001
0100
0010
0100
0001
1000
0001
0010
0001
0010
0100
,
1000
0010
0100
0010
1000
0001
1000
0001
0010
0001
0010
0100
1000
0010
0100
0010
,
0100
0010
1000
0010
0100
0001
0100
0010
0100
0010
1000
0001
1000
0001
0100
0010
,
0100
0001
0010
0001
1000
0001
0100
0010
0100
0010
1000
0001
0010
0001
0010
0001
,
1000
0100
1000
0001
1000
0001
0100
0010
0100
0001
0100
0001
0010
0100
0010
0001
,
1000
0100
1000
0100
1000
0001
0010
0001
1000
0100
1000
0100
0010
0100
0010
0001
,
0100
0001
1000
0010
1000
0010
1000
0100
0010
0100
0010
0001
1000
0001
0010
0100
,
1000
0100
0010
0100
0010
0001
0010
0100
1000
0001
0010
0100
0010
0100
1000
0010
,
1000
0001
1000
0001
0100
0001
0010
0100
1000
0100
0010
0100
1000
0010
0100
0010
,
0100
0001
1000
0100
0010
0100
1000
0001
1000
0001
0010
0001
1000
0100
1000
0100
,
0010
0100
0010
0001
0010
0001
0100
0001
1000
0010
0100
0010
0100
0001
0010
0100
,
1000
0100
1000
0001
1000
0001
0100
0001
0100
0010
0100
0001
1000
0010
0100
0001
,
0010
0001
1000
0001
1000
0100
1000
0100
1000
0010
1000
0010
1000
0010
0100
0010
,
0100
0010
0100
0010
0100
0001
0010
0001
1000
0010
1000
0001
1000
0001
0100
0001
,
0010
0100
1000
0100
0010
0001
0010
0100
1000
0010
0100
0001
0100
0010
0100
0001
,
0010
0100
0010
0100
0010
0100
1000
0010
1000
0010
0100
0010
1000
0100
1000
0100
,
0010
0100
1000
0001
1000
0010
1000
0010
1000
0100
0010
0100
1000
0100
1000
0001
,
0010
0001
1000
0100
1000
0001
0100
0010
0100
0001
0100
0001
1000
0001
0100
0001
,
0100
0010
1000
0010
0100
0010
0100
0001
1000
0010
1000
0001
0100
0010
0100
0010
,
0100
0001
1000
0010
0100
0010
1000
0100
0010
0100
1000
0100
1000
0010
0100
0010
,
0100
0001
0100
0001
1000
0001
0100
0010
1000
0001
0010
0100
0010
0001
0010
0001
,
0100
0010
0100
0001
0100
0001
0100
0001
1000
0010
1000
0010
1000
0010
1000
0001
,
0100
0010
1000
0001
0010
0001
0100
0001
0100
0010
0100
0010
1000
0010
1000
0100
,
0010
0100
0010
0100
0010
0001
1000
0001
0010
0100
1000
0001
0010
0001
0010
0100
,
0010
0100
1000
0010
0100
0001
0100
0001
0100
0001
0010
0100
0010
0100
1000
0100
,
0010
0001
0010
0001
0010
0100
0010
0001
0100
0001
1000
0010
1000
0010
0100
0010
,
1000
0010
1000
0100
1000
0100
0010
0001
0010
0100
1000
0001
0100
0001
0100
0001
,
1000
0001
1000
0001
1000
0001
0010
0001
0100
0010
0100
0010
0100
0010
0100
0001
,
0010
0001
0010
0001
1000
0001
0100
0001
1000
0100
1000
0010
0100
0010
1000
0001
,
0010
0100
1000
0100
0010
0001
0010
0100
1000
0010
0100
0010
0100
0010
1000
0010
,
1000
0001
0100
0001
0010
0100
0010
0100
1000
0001
1000
0010
1000
0010
0100
0010
,
0100
0001
1000
0010
1000
0001
1000
0100
1000
0100
0010
0100
0010
0001
0100
0001
,
1000
0001
0100
0010
0100
0010
1000
0100
0010
0001
1000
0100
1000
0010
1000
0001
,
1000
0001
1000
0001
0010
0001
1000
0001
0100
0010
0100
0010
1000
0010
1000
0100
,
1000
0100
0010
0100
1000
0001
0100
0010
1000
0100
1000
0100
0010
0100
0010
0100
,
0010
0100
1000
0010
0100
0010
0100
0001
0100
0001
0100
0010
1000
0001
0100
0001
,
0100
0010
1000
0001
0100
0001
1000
0010
0100
0010
1000
0100
0010
0100
0010
0100
,
1000
0100
0010
0001
0010
0001
0100
0010
0100
0001
1000
0010
0100
0010
0100
0010
,
1000
0010
0100
0001
0100
0010
1000
0001
1000
0010
1000
0010
0100
0001
0100
0010
,
0100
0001
1000
0010
1000
0100
0010
0001
1000
0010
1000
0100
1000
0100
1000
0001
,
0100
0001
0010
0001
0010
0100
1000
0100
1000
0100
0010
0001
0010
0100
1000
0001
,
0010
0100
1000
0100
0010
0001
0100
0001
0100
0010
1000
0010
1000
0001
1000
0001
,
0010
0100
0010
0100
0010
0100
0010
0001
0010
0100
1000
0100
1000
0001
1000
0100
,
0010
0100
0010
0001
0010
0001
0100
0001
0100
0010
1000
0010
0100
0010
0100
0010
,
0100
0010
1000
0001
0100
0010
1000
0001
0100
0010
0100
0010
1000
0001
0010
0001
,
0100
0010
1000
0001
0010
0100
0010
0100
1000
0100
1000
0001
0100
0001
1000
0100
,
0010
0001
1000
0001
0100
0010
0100
0001
1000
0100
1000
0001
1000
0100
0010
0100
,
1000
0001
0010
0100
1000
0100
1000
0010
1000
0010
0100
0010
0100
0001
0010
0001
,
0010
0100
1000
0001
0100
0010
0100
0001
1000
0001
1000
0100
1000
0001
1000
0001
,
0100
0001
0100
0001
0100
0001
1000
0001
0100
0010
0100
0010
1000
0010
1000
0100
,
1000
0100
1000
0100
1000
0010
1000
0001
0010
0100
0010
0001
1000
0010
1000
0010
,
1000
0001
0100
0001
0010
0100
0010
0100
1000
0100
0010
0001
1000
0100
0010
0100
,
1000
0010
1000
0001
0100
0010
0100
0001
0010
0100
1000
0001
0010
0100
1000
0010
,
0100
0001
1000
0010
0100
0010
0100
0001
0010
0001
1000
0001
1000
0001
0010
0100
,
1000
0001
0100
0010
1000
0001
0010
0001
0010
0100
1000
0010
0100
0010
0100
0010
,
0100
0001
0100
0010
0100
0010
0100
0010
1000
0001
1000
0001
1000
0010
0100
0001
,
1000
0001
0100
0001
0100
0010
0100
0010
0100
0001
0100
0010
0100
0010
0100
0010
,
0100
0010
1000
0001
0100
0001
0010
0100
1000
0100
0010
0001
0100
0001
1000
0100
,
1000
0001
1000
0001
0010
0001
0010
0100
0010
0100
1000
0010
1000
0001
1000
0010
,
0100
0010
0100
0001
0010
0001
1000
0100
0010
0001
1000
0001
0100
0001
1000
0001
,
1000
0010
1000
0001
1000
0100
1000
0001
0100
0001
0100
0001
0010
0001
0010
0001
,
0010
0100
1000
0010
1000
0001
0100
0001
1000
0100
1000
0001
0010
0001
1000
0100
,
1000
0010
0100
0010
1000
0001
1000
0100
0010
0100
0010
0001
1000
0001
0100
0010
,
0100
0001
1000
0010
0100
0010
0100
0001
0010
0001
1000
0001
1000
0010
1000
0010
,
0100
0001
0100
0010
1000
0010
1000
0100
1000
0100
0010
0100
1000
0001
1000
0001
,
0100
0001
0100
0010
1000
0010
0100
0010
0100
0001
0010
0001
1000
0100
0010
0001
,
1000
0001
0010
0100
1000
0100
1000
0001
0010
0001
0010
0001
1000
0100
0010
0001
,
0010
0100
1000
0100
1000
0010
1000
0010
0100
0001
1000
0100
0010
0100
0010
0100
,
1000
0010
0100
0001
1000
0001
1000
0001
1000
0100
0010
0100
1000
0100
0010
0001
,
1000
0100
1000
0100
1000
0100
1000
0001
1000
0100
0010
0100
0010
0100
1000
0010
,
0100
0010
0100
0010
1000
0010
0100
0010
0100
0001
0010
0001
0010
0100
0010
0001
,
1000
0001
1000
0100
1000
0010
0100
0010
1000
0001
1000
0100
1000
0100
1000
0010
,
0100
0010
1000
0010
1000
0001
1000
0001
0010
0001
0010
0001
1000
0010
1000
0010
,
0100
0001
0010
0001
1000
0100
1000
0100
0010
0100
1000
0010
1000
0010
0100
0010
,
1000
0100
1000
0100
0010
0001
1000
0001
0100
0001
0100
0010
0100
0001
0100
0001
,
1000
0100
1000
0010
1000
0010
0100
0010
0100
0001
0100
0001
0010
0001
0010
0001
,
1000
0100
1000
0010
1000
0001
0100
0010
0100
0001
0100
0010
1000
0010
0100
0001
,
1000
0010
0100
0010
0100
0001
0100
0001
1000
0010
1000
0100
0010
0100
1000
0001
,
0100
0010
1000
0100
0010
0001
1000
0010
0100
0010
0100
0010
0100
0010
1000
0010
,
0100
0001
0100
0001
0010
0001
0010
0100
0010
0100
1000
0010
1000
0010
0100
0001
,
0100
0010
0100
0010
1000
0100
1000
0100
1000
0001
0100
0010
0100
0001
1000
0001
,
0010
0100
0010
0001
1000
0001
0010
0001
1000
0100
0010
0100
1000
0100
1000
0100
,
1000
0100
0010
0100
0010
0100
1000
0100
1000
0001
1000
0010
1000
0010
0100
0001
,
1000
0010
0100
0010
1000
0100
1000
0100
0010
0001
1000
0100
1000
0001
1000
0001
,
0100
0001
0010
0001
0010
0100
0010
0100
0010
0001
0100
0010
0100
0010
1000
0001
,
0100
0010
1000
0010
0100
0001
0100
0001
0100
0001
0010
0001
0010
0100
0010
0100
,
1000
0010
1000
0001
0010
0001
0010
0100
1000
0001
0010
0100
1000
0010
1000
0001
,
1000
0010
1000
0100
1000
0001
0010
0001
0010
0100
1000
0100
1000
0010
0100
0001
,
1000
0001
0100
0001
1000
0100
1000
0001
1000
0100
1000
0100
1000
0100
1000
0100
,
1000
0001
0100
0001
0100
0010
0100
0010
1000
0001
0100
0010
0100
0001
0100
0001
,
0100
0010
0100
0001
1000
0100
0010
0100
1000
0001
1000
0100
1000
0001
1000
0100
,
1000
0001
1000
0010
0100
0010
1000
0100
1000
0100
0010
0100
0010
0100
0010
0100
,
1000
0010
1000
0001
1000
0010
1000
0010
1000
0001
1000
0010
0100
0001
0100
0010
,
1000
0010
1000
0010
1000
0010
1000
0010
1000
0010
0100
0010
0100
0010
1000
0001
,
0100
0001
0010
0001
0010
0100
1000
0100
0010
0100
0010
0001
0010
0100
0010
0100
,
0010
0100
1000
0100
1000
0010
1000
0010
0100
0010
1000
0100
1000
0001
0010
0100
,
0010
0001
0010
0001
1000
0100
1000
0001
0100
0010
1000
0010
1000
0100
1000
0100
,
1000
0001
1000
0001
1000
0001
0010
0001
0100
0010
1000
0010
0100
0010
1000
0001
,
0010
0001
0010
0100
1000
0100
0010
0100
0010
0001
0100
0010
1000
0001
0010
0100
,
0010
0100
1000
0100
1000
0001
1000
0010
0100
0010
0100
0010
1000
0010
0100
0001
,
1000
0001
0010
0001
1000
0001
0100
0001
1000
0100
1000
0010
1000
0010
1000
0010
,
0100
0001
0010
0100
1000
0100
0010
0001
0100
0001
0100
0001
1000
0001
0100
0001
,
0100
0001
0100
0010
1000
0010
0100
0001
0100
0010
1000
0010
1000
0100
1000
0001
,
0010
0100
1000
0001
0100
0001
0010
0001
0010
0100
0010
0100
1000
0010
0100
0001
,
0100
0001
0100
0001
0100
0001
1000
0001
0100
0001
0100
0001
0010
0100
0010
0001
,
0010
0001
1000
0010
1000
0001
0100
0010
1000
0100
1000
0001
0010
0001
1000
0100
,
1000
0100
0010
0001
1000
0100
1000
0001
0010
0001
0010
0100
1000
0010
1000
0010
,
1000
0001
1000
0100
1000
0010
1000
0010
1000
0010
0100
0001
0100
0010
1000
0100
,
1000
0100
1000
0001
0100
0001
0010
0100
0010
0100
0010
0001
1000
0100
0010
0001
,
0010
0100
0010
0001
1000
0100
1000
0010
0100
0001
1000
0010
0100
0001
0100
0010
,
1000
0010
1000
0100
1000
0100
0010
0100
1000
0100
1000
0001
1000
0001
0010
0001
,
0010
0100
1000
0001
0010
0100
1000
0100
0010
0100
0010
0001
0100
0001
1000
0100
,
1000
0001
0010
0001
0100
0010
0100
0001
0100
0001
1000
0001
1000
0010
1000
0100
,
1000
0100
1000
0100
0010
0100
0010
0100
1000
0010
0100
0001
0100
0010
1000
0010
,
1000
0100
1000
0001
1000
0001
0100
0001
0100
0010
0100
0010
1000
0010
0100
0001
,
0100
0001
1000
0100
1000
0001
1000
0001
1000
0100
1000
0010
1000
0010
1000
0001
,
1000
0001
0010
0100
1000
0010
0100
0010
0100
0001
0100
0010
0100
0010
0100
0001
,
0100
0010
0100
0010
1000
0100
1000
0100
0010
0100
0010
0100
0010
0100
1000
0100
,
0010
0001
0010
0001
0010
0001
0100
0001
0100
0001
1000
0001
0100
0010
0100
0010
,
1000
0010
0100
0010
1000
0010
0100
0010
0100
0001
0010
0100
1000
0001
0010
0001
,
0010
0001
0100
0001
0100
0010
1000
0010
0100
0001
0100
0001
0010
0100
1000
0001
,
0010
0001
0100
0001
0100
0010
0100
0010
1000
0100
1000
0001
1000
0010
1000
0001
,
0100
0001
0010
0001
0010
0100
0010
0001
1000
0001
0010
0100
0010
0001
1000
0010
,
1000
0001
0100
0001
0010
0100
0010
0001
0010
0100
0010
0100
0010
0001
0100
0010
,
1000
0010
0100
0001
0100
0001
0010
0100
0010
0001
1000
0010
1000
0001
0010
0001
,
1000
0001
0100
0010
0100
0010
1000
0010
1000
0010
1000
0010
0100
0001
0100
0010
,
1000
0010
0100
0010
0100
0001
0010
0001
1000
0010
1000
0001
1000
0001
1000
0100
,
1000
0010
0100
0010
1000
0001
0100
0010
1000
0010
0100
0001
1000
0001
0010
0100
,
0010
0100
1000
0010
0100
0001
0100
0010
1000
0010
1000
0001
0010
0001
1000
0001
,
0100
0010
1000
0001
0100
0001
0100
0010
0100
0001
0010
0001
1000
0100
1000
0100
,
0010
0001
0010
0001
0100
0010
1000
0010
1000
0001
0100
0010
1000
0010
1000
0100
,
1000
0100
0010
0001
1000
0100
0010
0100
0010
0100
0010
0100
1000
0100
1000
0100
,
1000
0100
0010
0001
0010
0001
0010
0100
0010
0100
0010
0100
0010
0001
0100
0001
,
0100
0010
1000
0001
0100
0010
0100
0001
0100
0001
0100
0010
0100
0010
0100
0001
,
1000
0010
1000
0010
0100
0010
0100
0001
0100
0001
0010
0100
0010
0100
1000
0100
,
1000
0100
1000
0100
1000
0100
0010
0001
0010
0001
0010
0001
1000
0010
1000
0010
,
1000
0100
0010
0001
1000
0001
0010
0100
0010
0001
0100
0001
1000
0010
1000
0010
,
1000
0001
0100
0001
0100
0001
0100
0001
0010
0100
0010
0001
1000
0010
0100
0001
,
0100
0010
1000
0010
1000
0100
1000
0100
0010
0100
0010
0001
0010
0001
0010
0100
,
0010
0001
0100
0001
0100
0010
0100
0001
0010
0100
0010
0001
0010
0100
1000
0010
,
0100
0001
0100
0001
1000
0100
0010
0001
0010
0001
0010
0001
1000
0010
0100
0010
,
1000
0010
1000
0010
0100
0001
0010
0100
0010
0100
0010
0100
1000
0010
1000
0001
,
0100
0001
0100
0010
0100
0010
0100
0001
0100
0010
1000
0001
0100
0001
0100
0001
,
0100
0001
1000
0100
1000
0010
1000
0001
0010
0100
0010
0001
0010
0001
0100
0001
,
1000
0001
0100
0001
1000
0010
0100
0001
0010
0001
0010
0100
0010
0100
1000
0100
,
1000
0100
1000
0010
0100
0010
0100
0001
1000
0001
0010
0001
0010
0100
1000
0100
,
0010
0001
0010
0100
0010
0100
0010
0001
0010
0100
1000
0100
1000
0010
0100
0010
,
1000
0010
1000
0100
1000
0100
0010
0100
0010
0001
0010
0001
1000
0001
1000
0100
,
1000
0100
0010
0100
0010
0100
1000
0100
1000
0001
1000
0010
0100
0010
0100
0001
,
1000
0010
0100
0010
0100
0001
0010
0001
1000
0010
1000
0010
1000
0100
0010
0001
,
0010
0100
0010
0100
0010
0100
0010
0001
0100
0001
1000
0100
1000
0001
0100
0001
,
1000
0010
0100
0010
1000
0010
1000
0010
1000
0010
0100
0010
0100
0001
0010
0001
,
1000
0100
1000
0001
0010
0001
0100
0010
1000
0001
1000
0001
0010
0001
1000
0001
,
0100
0001
0010
0001
0010
0001
1000
0001
0100
0010
0100
0010
1000
0010
1000
0100
,
0010
0100
1000
0100
1000
0010
1000
0010
1000
0001
1000
0001
1000
0001
1000
0010
,
1000
0100
0010
0100
1000
0100
1000
0010
1000
0010
1000
0001
1000
0010
0100
0010
,
0100
0010
0100
0010
1000
0100
1000
0001
0010
0100
1000
0001
1000
0001
0100
0010
,
1000
0001
1000
0100
0010
0100
1000
0010
0100
0001
1000
0010
1000
0010
0100
0010
,
1000
0001
1000
0010
1000
0010
0100
0001
0100
0001
0100
0001
1000
0010
1000
0100
,
0010
0100
0010
0100
0010
0100
0010
0100
1000
0001
1000
0100
0010
0100
0010
0001
,
0100
0001
0100
0001
0100
0010
1000
0100
1000
0100
1000
0001
0010
0001
0100
0010
,
0100
0001
0100
0001
0100
0010
1000
0001
0100
0001
0100
0010
0100
0010
1000
0100
,
0010
0100
0010
0100
0010
0001
0010
0100
0010
0100
1000
0010
0100
0010
0100
0010
,
1000
0001
1000
0010
0100
0010
1000
0001
1000
0100
1000
0001
1000
0100
1000
0100
,
0010
0100
1000
0001
1000
0100
0010
0100
0010
0100
0010
0001
1000
0001
1000
0100
,
1000
0100
0010
0001
0010
0100
1000
0001
0100
0010
0100
0001
0010
0001
0010
0001
,
0010
0100
0010
0001
1000
0100
1000
0010
1000
0001
1000
0100
1000
0001
0100
0001
,
0100
0010
0100
0010
1000
0010
1000
0100
0010
0100
0010
0001
1000
0100
0010
0100
,
0010
0001
0100
0010
1000
0010
1000
0010
1000
0010
1000
0001
1000
0100
0010
0100
,
1000
0100
1000
0001
0010
0001
0010
0001
1000
0010
1000
0001
0010
0100
1000
0010
,
1000
0001
1000
0001
1000
0100
0010
0100
1000
0010
1000
0010
0100
0010
1000
0010
,
1000
0010
0100
0001
0100
0010
0100
0010
1000
0001
0010
0100
0010
0100
1000
0100
,
1000
0010
1000
0010
1000
0010
1000
0010
1000
0010
0100
0001
1000
0010
0100
0010
,
1000
0001
1000
0001
0010
0001
0100
0010
0100
0001
1000
0001
1000
0010
1000
0010
,
0100
0010
1000
0001
0010
0001
0100
0001
1000
0100
0010
0100
0010
0100
0010
0001
,
0010
0001
0010
0100
0010
0001
1000
0010
0100
0001
0100
0001
0010
0100
1000
0001
,
0100
0001
1000
0001
1000
0010
0100
0010
1000
0010
1000
0100
0010
0100
1000
0001
,
1000
0010
0100
0001
0100
0010
0100
0010
0100
0010
0100
0010
0100
0001
0010
0001
,
0010
0001
0010
0100
0010
0100
1000
0001
0100
0001
1000
0001
0010
0001
1000
0100
,
1000
0010
1000
0001
0100
0001
0100
0010
0100
0010
1000
0010
1000
0100
1000
0100
,
1000
0100
1000
0010
1000
0010
0100
0010
0100
0010
0100
0010
1000
0010
1000
0001
,
1000
0001
0010
0100
1000
0001
0100
0010
1000
0100
1000
0100
0010
0100
1000
0001
,
1000
0100
0010
0001
1000
0010
1000
0100
0010
0001
1000
0010
0100
0001
0010
0100
,
0010
0001
1000
0100
0010
0100
0010
0100
1000
0100
1000
0010
0100
0010
0100
0010
,
0100
0001
0010
0100
0010
0001
0010
0100
0010
0001
0100
0001
0100
0010
1000
0001
,
0010
0100
1000
0010
1000
0001
0010
0001
0010
0001
0010
0001
0100
0010
0100
0001
,
0100
0001
0010
0001
0010
0001
1000
0001
0010
0001
1000
0010
0100
0010
0100
0001
,
1000
0001
0010
0001
0010
0100
1000
0100
0010
0100
1000
0001
0100
0001
0100
0010
,
0100
0001
0100
0001
0010
0001
0010
0100
1000
0001
1000
0001
1000
0100
0010
0100
,
1000
0100
0010
0001
0100
0001
0100
0010
0100
0010
1000
0100
0010
0001
0010
0001
,
0010
0001
0010
0100
0010
0001
0100
0001
1000
0100
1000
0100
0010
0100
0010
0001
,
0100
0001
1000
0010
0100
0010
1000
0010
1000
0100
1000
0100
0010
0001
1000
0100
,
1000
0010
0100
0001
0100
0010
1000
0010
0100
0010
1000
0100
0010
0001
1000
0100
,
1000
0100
0010
0001
0010
0001
0010
0100
1000
0100
1000
0001
0100
0001
0010
0100
,
0010
0001
0010
0001
0010
0001
1000
0010
1000
0010
0100
0001
0100
0001
1000
0010
,
1000
0100
1000
0001
0100
0001
0100
0001
0100
0001
1000
0001
1000
0100
1000
0100
,
0010
0100
0010
0100
0010
0100
1000
0001
0010
0100
1000
0100
0010
0100
0010
0100
,
1000
0010
0100
0001
1000
0010
1000
0001
0010
0100
0010
0100
1000
0010
0100
0001
,
0100
0001
1000
0001
1000
0100
0010
0001
1000
0010
1000
0100
1000
0100
0010
0100
,
0010
0001
0010
0001
0100
0001
0100
0010
1000
0010
0100
0001
0100
0010
0100
0010
,
0100
0010
0100
0001
1000
0001
0100
0010
0100
0010
1000
0010
1000
0100
1000
0100
,
1000
0100
1000
0100
1000
0100
0010
0100
1000
0010
1000
0010
1000
0001
1000
0100
,
1000
0100
0010
0001
0100
0001
1000
0001
1000
0010
1000
0010
0100
0010
0100
0001
,
0100
0001
1000
0001
0100
0010
1000
0010
0100
0010
0100
0010
1000
0010
0100
0001
,
0100
0010
1000
0010
1000
0100
1000
0100
1000
0100
0010
0001
0100
0010
1000
0010
,
0100
0010
0100
0010
1000
0010
0100
0010
0100
0001
1000
0001
0100
0010
0100
0010
,
0100
0001
0100
0010
1000
0010
1000
0100
1000
0001
0010
0001
0010
0100
0010
0100
,
1000
0001
1000
0010
0100
0001
1000
0010
1000
0001
0100
0001
0010
0001
1000
0010
,
1000
0010
1000
0100
1000
0100
0010
0001
0010
0100
0010
0100
1000
0100
0010
0001
,
0100
0010
1000
0010
0100
0001
0100
0001
1000
0100
0010
0001
0100
0001
1000
0100
,
1000
0001
0100
0001
0010
0100
0010
0100
1000
0100
0010
0001
0010
0100
0010
0001
,
0010
0100
0010
0001
1000
0001
0100
0010
1000
0100
0010
0100
0010
0100
0010
0100
,
1000
0010
1000
0001
0010
0001
0010
0001
1000
0010
0100
0010
1000
0010
0100
0010
,
0100
0001
0100
0001
0010
0100
1000
0100
0010
0001
0010
0001
1000
0001
0100
0010
,
0100
0010
1000
0010
1000
0100
0010
0001
1000
0100
1000
0010
1000
0010
0100
0001
,
0100
0010
0100
0001
0010
0100
0010
0001
1000
0001
0010
0100
1000
0010
0100
0010
,
1000
0001
1000
0010
0100
0010
0100
0001
0010
0001
1000
0010
1000
0001
1000
0001
,
0100
0001
0100
0001
1000
0100
0010
0001
1000
0001
0010
0001
1000
0100
1000
0001
,
0100
0001
0100
0010
0100
0001
1000
0100
0010
0001
0100
0001
1000
0100
0010
0100
,
0010
0001
1000
0001
0100
0001
1000
0001
0100
0010
0100
0001
1000
0100
0010
0001
,
0010
0001
1000
0010
1000
0010
1000
0001
0010
0001
1000
0001
0100
0001
1000
0001
,
0010
0100
1000
0001
0010
0001
1000
0100
0010
0100
0010
0001
1000
0100
0010
0100
,
1000
0010
1000
0010
0100
0010
0100
0010
1000
0100
0010
0100
1000
0100
1000
0100
,
0010
0001
0100
0010
1000
0001
0010
0001
0100
0001
1000
0001
0010
0100
0010
0100
,
1000
0001
1000
0100
1000
0010
0100
0010
0100
0001
1000
0001
0100
0010
1000
0100
,
1000
0100
0010
0100
0010
0001
0100
0001
1000
0100
1000
0001
0100
0001
1000
0010
,
1000
0010
0100
0010
1000
0001
1000
0010
0100
0010
1000
0100
1000
0100
1000
0001
,
0010
0100
1000
0100
1000
0010
1000
0001
1000
0001
0100
0010
0100
0001
0100
0001
,
1000
0010
1000
0001
0010
0001
0010
0100
0010
0001
0010
0001
0010
0001
0100
0001
,
1000
0001
0100
0010
0100
0010
1000
0001
1000
0100
0010
0100
1000
0010
1000
0001
,
1000
0010
0100
0001
0010
0100
0010
0001
1000
0001
0100
0010
0100
0010
1000
0100
,
1000
0001
0010
0001
1000
0010
1000
0100
0010
0001
0010
0100
0010
0001
0100
0010
,
1000
0010
0100
0010
0100
0010
0100
0001
1000
0010
0100
0001
0100
0010
1000
0001
,
0100
0001
1000
0001
1000
0100
1000
0001
0010
0100
1000
0100
0010
0100
0010
0001
,
0100
0010
1000
0001
1000
0010
1000
0100
1000
0100
1000
0100
0010
0001
1000
0010
,
1000
0001
0100
0010
0100
0010
1000
0010
1000
0100
0010
0100
1000
0100
1000
0001
;

//---------------dance-single - Kyzentun Science----------------
#NOTES:
     dance-single:
     Kyzentun Science:
     Hard:
     12:
     0.853,1.000,0.008,0.591,0.894,1291.000,2.000,142.000,99.000,32.000,16.000,0.853,1.000,0.008,0.591,0.894,1291.000,2.000,142.000,99.000,32.000,16.000:
0000
0000
0000
0000
,
1000
0001
0010
0001
0010
0100
1000
0001
0100
0001
0100
0010
,
0100
0010
0100
0010
1000
0100
0010
0001
0100
0010
0100
0010
,
0100
0010
0100
0001
1000
0100
0010
0100
0010
0001
0010
0100
,
0010
0001
0010
0001
1000
0001
0010
0001
0100
0010
0100
0010
,
0100
0001
0100
0001
1000
0001
0100
0010
0100
0001
1000
0100
,
1000
0010
1000
0010
0100
0010
0100
0001
1000
0001
0100
0010
,
0100
0001
0100
0001
0010
0001
0010
0001
1000
0010
1000
0010
,
1000
0100
0010
0100
0010
0001
0010
0001
1000
0100
1000
0010
,
0100
0010
0100
0010
0100
0001
0100
0010
1000
0001
0100
0010
,
1000
0010
1000
0010
1000
0001
0100
0001
1000
0100
0010
0001
,
0100
0001
1000
0010
1000
0001
0100
0001
0100
0001
0100
0001
,
0010
0001
1000
0100
1000
0010
0100
0010
1000
0001
0100
0001
,
0010
0100
0010
0001
0010
0001
0010
0100
1000
0001
1000
0001
,
0100
0010
1000
0001
0100
0010
0100
0010
0100
0010
1000
0010
,
1000
0001
1000
0100
0010
0100
1000
0010
1000
0010
0100
0001
,
0100
0010
0100
0010
0100
0001
0100
0010
0100
0001
0100
0010
,
1000
0010
0100
0010
0100
0010
0100
0001
0010
0100
0010
0001
,
0010
0001
1000
0010
1000
0010
1000
0100
1000
0100
1000
0010
,
1000
0010
0100
0010
1000
0010
1000
0010
1000
0100
1000
0100
,
0010
0100
0010
0001
0010
0001
0100
0010
0100
0001
0010
0001
,
0010
0001
1000
0010
0100
0010
1000
0010
1000
0001
1000
0100
,
0010
0100
1000
0100
0010
0100
1000
0100
1000
0001
1000
0001
,
0010
0100
0010
0100
1000
0010
1000
0001
1000
0001
0010
0100
,
1000
0010
1000
0001
0100
0001
0100
0010
0100
0010
0100
0010
,
0100
0001
0100
0001
1000
0010
1000
0001
1000
0001
1000
0001
,
1000
0100
0010
0100
0010
0001
1000
0100
0010
0001
1000
0001
,
0010
0001
1000
0001
1000
0010
0100
0010
1000
0001
1000
0100
,
1000
0100
1000
0100
1000
0010
1000
0001
0010
0100
0010
0100
,
1000
0010
1000
0001
1000
0001
0010
0100
0010
0001
0100
0001
,
1000
0010
1000
0100
1000
0100
0010
0100
1000
0100
1000
0100
,
1000
0100
1000
0001
0100
0001
1000
0100
1000
0100
0010
0100
,
1000
0001
0010
0001
1000
0010
1000
0100
1000
0100
0010
0001
,
0010
0001
0010
0001
1000
0001
0010
0100
1000
0100
0010
0001
,
0010
0100
1000
0100
1000
0010
0100
0010
1000
0010
1000
0100
,
1000
0001
0100
0001
0100
0010
0100
0010
1000
0010
1000
0001
,
1000
0001
0010
0001
0010
0100
0010
0001
0100
0001
0100
0001
,
0100
0001
1000
0001
1000
0001
0010
0001
0010
0001
1000
0001
,
0100
0001
1000
0010
1000
0100
0010
0100
0010
0001
1000
0001
,
0100
0001
0100
0010
0100
0010
1000
0100
0010
0100
0010
0100
,
1000
0010
0100
0001
0100
0001
0100
0001
0100
0001
0010
0001
,
0010
0100
1000
0010
0100
0001
0100
0010
0100
0001
1000
0010
,
1000
0100
1000
0100
0010
0100
1000
0001
0010
0001
0100
0001
,
1000
0100
0010
0100
1000
0100
0010
0100
1000
0100
1000
0010
,
1000
0001
1000
0010
1000
0100
1000
0100
0010
0001
1000
0010
,
1000
0010
0100
0001
0100
0010
0100
0001
0010
0100
0010
0001
,
0010
0100
0010
0001
0100
0001
1000
0001
1000
0010
1000
0010
,
0100
0010
1000
0100
1000
0100
1000
0100
1000
0001
0100
0001
,
1000
0001
1000
0100
1000
0100
0010
0001
0100
0001
0100
0001
,
1000
0001
1000
0100
1000
0100
1000
0001
0010
0100
0010
0100
,
0010
0001
0010
0100
1000
0100
1000
0010
1000
0010
0100
0010
,
0100
0010
0100
0010
1000
0010
0100
0010
0100
0010
0100
0001
,
0100
0001
0010
0100
0010
0001
0100
0010
1000
0010
1000
0100
,
1000
0100
0010
0100
0010
0001
1000
0100
0010
0001
0100
0001
,
1000
0010
0100
0001
1000
0100
1000
0001
0010
0001
0100
0010
,
1000
0100
0010
0001
0010
0100
0010
0100
1000
0001
1000
0100
,
0010
0100
0010
0100
0010
0100
0010
0100
0010
0001
0010
0100
,
1000
0010
1000
0001
0100
0001
1000
0100
1000
0001
0100
0001
,
0100
0001
0100
0010
1000
0010
0100
0010
0100
0010
0100
0010
,
0100
0010
0100
0001
0010
0100
1000
0001
1000
0100
0010
0001
,
0010
0100
1000
0100
0010
0001
0010
0100
0010
0100
1000
0001
,
1000
0010
0100
0010
0100
0001
1000
0001
0100
0001
1000
0100
,
0010
0100
1000
0100
0010
0001
0010
0100
0010
0001
0010
0100
,
1000
0010
0100
0001
0100
0010
1000
0010
0100
0001
0010
0100
,
1000
0100
0010
0001
1000
0001
0100
0010
1000
0001
0010
0100
,
1000
0010
0100
0001
0100
0001
0010
0001
0010
0100
1000
0001
,
0010
0100
1000
0010
1000
0010
0100
0010
0100
0010
0100
0010
,
0100
0001
0100
0010
1000
0010
0100
0001
0010
0100
1000
0010
,
1000
0001
1000
0001
0100
0001
0010
0100
0010
0100
1000
0001
,
1000
0010
0100
0010
0100
0010
0100
0001
0100
0001
0010
0100
,
0010
0001
1000
0100
1000
0100
0010
0001
1000
0010
1000
0010
,
1000
0001
0010
0100
0010
0001
0010
0001
0010
0001
0010
0100
,
0010
0001
1000
0010
0100
0010
1000
0010
1000
0010
1000
0010
,
1000
0100
0010
0001
0010
0100
1000
0010
1000
0001
1000
0100
,
1000
0100
0010
0001
0010
0001
0100
0001
1000
0010
1000
0100
,
0010
0100
1000
0010
1000
0010
0100
0010
1000
0001
0100
0001
,
0100
0010
0100
0010
1000
0010
0100
0010
0100
0001
0010
0100
,
0010
0001
1000
0100
0010
0100
0010
0001
0010
0001
1000
0100
,
1000
0010
1000
0001
0100
0001
1000
0100
0010
0100
1000
0010
,
1000
0010
0100
0010
0100
0010
0100
0001
0010
0001
1000
0100
,
1000
0001
0100
0010
0100
0010
0100
0001
1000
0100
0010
0100
,
0010
0100
0010
0001
0100
0001
0100
0010
1000
0100
1000
0100
,
1000
0100
0010
0001
0010
0001
1000
0010
1000
0100
1000
0100
,
1000
0100
0010
0001
0010
0001
0100
0001
0100
0001
0100
0010
,
1000
0010
0100
0001
0100
0010
0100
0001
0010
0100
0010
0100
,
0010
0001
1000
0001
0010
0001
0100
0010
1000
0010
1000
0010
,
1000
0001
0010
0100
0010
0100
1000
0001
0100
0001
0100
0001
,
0100
0010
1000
0100
0010
0001
1000
0100
0010
0100
0010
0100
,
1000
0010
0100
0010
0100
0001
1000
0010
0100
0010
0100
0001
,
1000
0100
0010
0100
0010
0001
0100
0010
1000
0100
1000
0001
,
0100
0010
0100
0010
0100
0010
1000
0010
0100
0001
0100
0010
,
1000
0001
0010
0001
0010
0001
0100
0001
1000
0010
1000
0100
,
0010
0001
0010
0100
1000
0001
0100
0001
0100
0010
1000
0100
,
0010
0001
0010
0100
1000
0100
0010
0001
0100
0010
0100
0001
,
0100
0001
0010
0001
1000
0001
0010
0100
0010
0100
1000
0010
,
1000
0001
0010
0001
1000
0010
1000
0001
0100
0010
1000
0001
,
1000
0001
0100
0001
1000
0001
1000
0001
1000
0100
1000
0010
,
0100
0010
0100
0010
0100
0001
1000
0001
0010
0100
1000
0001
,
0100
0001
1000
0100
0010
0100
0010
0001
0100
0001
1000
0001
,
0100
0001
1000
0100
1000
0010
0100
0010
1000
0010
0100
0010
,
1000
0100
1000
0100
0010
0001
1000
0100
1000
0100
1000
0001
,
0100
0001
0100
0001
0010
0001
1000
0100
1000
0010
1000
0010
,
1000
0010
1000
0010
0100
0001
0100
0010
0100
0001
0010
0001
,
1000
0001
0010
0001
0100
0001
0100
0001
0010
0001
0010
0001
,
1000
0010
1000
0010
0100
0010
0100
0001
1000
0001
0010
0001
,
0010
0100
0010
0001
0010
0100
0010
0001
1000
0001
1000
0010
,
1000
0001
0100
0001
0100
0010
1000
0001
0100
0010
0100
0001
,
0100
0001
1000
0010
1000
0100
1000
0001
1000
0001
0100
0010
,
1000
0100
0010
0001
0100
0010
1000
0001
0010
0100
0010
0100
,
1000
0010
0100
0001
0100
0001
0010
0001
1000
0010
1000
0010
,
0100
0010
1000
0100
1000
0001
0100
0010
0100
0010
0100
0010
,
1000
0100
1000
0001
1000
0001
0010
0100
0010
0001
0100
0001
,
1000
0010
0100
0010
1000
0010
1000
0001
0100
0010
1000
0001
,
0010
0100
1000
0100
0010
0001
1000
0001
0100
0001
0100
0010
,
0100
0001
0010
0100
0010
0001
0010
0100
1000
0100
1000
0001
,
0010
0001
1000
0001
1000
0100
1000
0010
0100
0010
0100
0001
,
1000
0001
0100
0001
0100
0001
0010
0001
0010
0100
1000
0010
,
1000
0001
0100
0010
1000
0100
1000
0100
0010
0100
1000
0100
,
0010
0100
0010
0001
0100
0001
1000
0001
1000
0100
1000
0001
,
0100
0001
0100
0001
0010
0100
0010
0100
0010
0100
0010
0100
,
1000
0001
1000
0001
1000
0100
0010
0001
1000
0100
0010
0001
,
1000
0010
1000
0010
0100
0010
0100
0001
1000
0001
0100
0001
,
0100
0010
1000
0010
0100
0010
0100
0001
1000
0001
0100
0001
,
0010
0001
1000
0010
1000
0100
1000
0001
0010
0001
0010
0100
,
0010
0001
1000
0010
0100
0001
0010
0001
1000
0100
0010
0001
,
0100
0001
1000
0100
0010
0001
0100
0001
0100
0010
0100
0001
,
0010
0100
0010
0100
0010
0100
1000
0100
0010
0001
0010
0001
,
0100
0001
0100
0010
0100
0001
0010
0100
1000
0010
1000
0010
,
0100
0010
1000
0100
1000
0100
0010
0100
0010
0001
0100
0001
,
1000
0001
0010
0100
1000
0100
1000
0001
1000
0001
0100
0001
,
0100
0010
0100
0010
0100
0001
1000
0010
0100
0010
1000
0100
,
1000
0001
1000
0100
1000
0001
0100
0010
0100
0010
1000
0001
,
0010
0100
0010
0100
1000
0010
0100
0010
0100
0010
0100
0001
,
0100
0010
1000
0010
0100
0001
1000
0001
0100
0010
1000
0001
,
1000
0001
0010
0001
0010
0001
0100
0010
0100
0010
0100
0001
,
0100
0001
1000
0010
1000
0010
0100
0010
0100
0010
0100
0010
,
1000
0010
0100
0010
1000
0100
0010
0001
0100
0010
1000
0001
,
0100
0001
1000
0100
0010
0100
1000
0100
1000
0010
1000
0010
,
1000
0010
0100
0010
1000
0001
1000
0100
1000
0100
0010
0001
,
1000
0001
0100
0001
1000
0001
0010
0100
0010
0001
1000
0100
,
1000
0001
1000
0010
0100
0010
0100
0001
1000
0001
0010
0100
,
0010
0001
0100
0001
1000
0001
0010
0100
1000
0001
0010
0100
,
0010
0100
1000
0001
1000
0001
0100
0001
1000
0010
1000
0001
,
0100
0001
0100
0001
1000
0010
0100
0001
0010
0001
0010
0100
,
0010
0100
1000
0001
0100
0010
1000
0010
1000
0001
0100
0001
,
0010
0001
1000
0010
1000
0010
0100
0001
0010
0001
0010
0001
,
1000
0010
0100
0010
1000
0010
0100
0010
0100
0010
1000
0010
,
0100
0010
1000
0001
0100
0010
0100
0001
0010
0001
1000
0100
,
1000
0010
1000
0010
0100
0010
0100
0001
0100
0001
1000
0100
,
1000
0010
0100
0010
0100
0001
0010
0100
0010
0100
1000
0010
,
1000
0010
1000
0100
1000
0100
1000
0001
0100
0010
1000
0010
,
0100
0001
1000
0001
0010
0100
1000
0100
1000
0010
1000
0001
,
0010
0100
1000
0001
0100
0001
1000
0001
0010
0001
0010
0100
,
0010
0100
0010
0001
0010
0001
0100
0010
0100
0001
0100
0001
,
0010
0001
0010
0100
1000
0010
0100
0010
1000
0100
1000
0100
,
0010
0001
0010
0100
1000
0010
0100
0010
0100
0010
1000
0010
,
0100
0001
0100
0010
0100
0010
1000
0001
1000
0001
0100
0010
,
0100
0001
0010
0001
1000
0001
0100
0010
0100
0010
1000
0001
,
0010
0001
0010
0001
1000
0100
1000
0001
1000
0001
0100
0010
,
0100
0001
0100
0001
0010
0100
0010
0001
0100
0001
0100
0001
,
0100
0001
0010
0001
0010
0100
1000
0100
0010
0100
0010
0001
,
0100
0001
1000
0010
1000
0001
0100
0001
0010
0100
0010
0001
,
1000
0001
0010
0100
1000
0100
0010
0100
0010
0001
0010
0100
,
1000
0001
0010
0100
0010
0100
1000
0010
1000
0001
1000
0001
,
0100
0001
0010
0100
1000
0001
0100
0010
1000
0010
0100
0010
,
0100
0001
1000
0100
0010
0100
1000
0001
1000
0001
0010
0001
,
1000
0100
1000
0100
0010
0100
0010
0001
0010
0001
0100
0001
,
1000
0010
0100
0010
0100
0001
0010
0100
1000
0100
1000
0001
,
1000
0001
0100
0001
0100
0010
0100
0001
1000
0010
0100
0001
,
0010
0001
1000
0001
1000
0100
1000
0100
1000
0010
1000
0010
,
1000
0010
0100
0010
0100
0010
0100
0010
0100
0001
0010
0001
,
1000
0010
1000
0100
1000
0100
0010
0001
0010
0100
1000
0001
,
0100
0001
0010
0100
1000
0010
0100
0001
0010
0100
0010
0001
,
0010
0100
0010
0100
0010
0100
1000
0010
1000
0010
0100
0010
,
1000
0100
1000
0100
0010
0100
1000
0001
1000
0010
1000
0010
,
1000
0100
0010
0100
1000
0100
1000
0001
0010
0001
1000
0100
,
1000
0001
0100
0010
0100
0001
0100
0001
1000
0001
0100
0001
,
0100
0010
1000
0010
0100
0010
0100
0001
1000
0010
1000
0001
,
0100
0010
0100
0010
0100
0001
1000
0010
0100
0010
1000
0100
,
0010
0100
1000
0010
1000
0001
1000
0001
1000
0010
0100
0001
,
1000
0001
0100
0010
1000
0001
0010
0100
0010
0001
0010
0001
,
0100
0010
0100
0001
0010
0001
0010
0001
1000
0010
1000
0010
,
1000
0010
1000
0001
0100
0010
1000
0001
0010
0001
0100
0001
,
0100
0010
0100
0010
1000
0010
1000
0100
0010
0100
0010
0100
,
0010
0001
1000
0001
0010
0100
1000
0001
0010
0001
0010
0100
,
0010
0100
1000
0010
0100
0001
0100
0001
0010
0001
0010
0100
,
0010
0100
1000
0001
0010
0100
0010
0100
1000
0010
1000
0001
,
1000
0001
0100
0001
0100
0010
0100
0010
1000
0010
1000
0100
,
1000
0100
0010
0001
0010
0100
1000
0001
0100
0001
0100
0001
,
1000
0001
1000
0001
1000
0001
0010
0001
0100
0010
0100
0010
,
0100
0010
0100
0001
0010
0001
0010
0001
0100
0010
0100
0010
,
0100
0010
1000
0010
0100
0010
1000
0010
1000
0010
1000
0100
,
0010
0001
0010
0100
1000
0010
0100
0010
0100
0010
1000
0010
,
1000
0001
0100
0001
0010
0100
0010
0100
1000
0100
1000
0010
,
1000
0001
0100
0010
0100
0001
1000
0010
1000
0001
1000
0100
,
1000
0100
0010
0100
0010
0001
0100
0001
1000
0001
0100
0010
,
0100
0010
1000
0100
0010
0001
0010
0001
0010
0001
0010
0001
,
1000
0001
1000
0001
0010
0001
1000
0001
0100
0010
0100
0010
,
1000
0010
1000
0100
1000
0100
0010
0100
1000
0001
0100
0010
,
1000
0100
1000
0100
0010
0100
0010
0100
0010
0100
1000
0010
,
0100
0010
0100
0001
0010
0001
0010
0100
1000
0001
0100
0001
,
0100
0010
1000
0001
0100
0001
1000
0010
0100
0010
1000
0100
,
0010
0100
0010
0100
1000
0100
0010
0001
0010
0001
0100
0010
,
0100
0001
0010
0001
0010
0100
0010
0100
1000
0100
0010
0001
,
0010
0100
1000
0001
1000
0010
1000
0010
0100
0001
0100
0010
,
0100
0001
1000
0010
1000
0100
0010
0001
1000
0010
1000
0100
,
1000
0100
1000
0001
0100
0001
0010
0001
0010
0100
1000
0100
,
1000
0100
0010
0001
0010
0100
1000
0001
0010
0100
1000
0100
,
0010
0001
0100
0001
0100
0010
1000
0001
0100
0010
0100
0010
,
1000
0100
0010
0100
0010
0100
0010
0001
0010
0100
1000
0100
,
1000
0001
1000
0100
0010
0100
0010
0001
0010
0001
0100
0001
,
0100
0010
1000
0001
0010
0100
0010
0100
0010
0100
1000
0001
,
0100
0010
1000
0001
0100
0010
0100
0010
1000
0001
0010
0001
,
0100
0010
1000
0010
1000
0010
0100
0010
1000
0100
1000
0100
,
0010
0100
0010
0100
0010
0001
1000
0001
0100
0010
0100
0001
,
1000
0100
1000
0001
1000
0100
0010
0100
1000
0001
0010
0100
,
1000
0100
1000
0010
1000
0010
0100
0010
0100
0001
0010
0001
,
0010
0100
1000
0010
1000
0010
0100
0001
1000
0001
1000
0100
,
1000
0001
1000
0001
0100
0001
0100
0001
0100
0001
1000
0001
,
0100
0010
0100
0010
1000
0010
1000
0100
1000
0100
1000
0100
,
1000
0010
1000
0001
0010
0100
0010
0001
1000
0010
1000
0010
,
1000
0001
0100
0001
0010
0100
0010
0100
1000
0001
0100
0001
,
1000
0100
0010
0100
1000
0010
1000
0001
0100
0010
0100
0001
,
0010
0100
1000
0100
1000
0010
1000
0010
0100
0001
1000
0010
,
0100
0010
0100
0001
0010
0001
1000
0001
1000
0001
0010
0100
,
1000
0001
0100
0010
1000
0001
0010
0001
0010
0100
1000
0010
,
0100
0010
0100
0010
0100
0001
0100
0010
0100
0010
0100
0010
,
1000
0001
1000
0001
1000
0010
0100
0001
1000
0001
0100
0001
,
0100
0010
0100
0010
0100
0001
0100
0010
0100
0010
0100
0010
,
0100
0010
1000
0001
0100
0001
0010
0100
1000
0010
0100
0001
,
0100
0001
1000
0100
1000
0010
0100
0010
1000
0010
0100
0001
,
0100
0010
1000
0010
1000
0100
1000
0100
0010
0100
0010
0001
,
0010
0001
1000
0100
0010
0001
1000
0001
0100
0001
1000
0001
,
1000
0010
1000
0001
1000
0100
1000
0001
0100
0001
0100
0001
,
0010
0001
0010
0001
0010
0100
1000
0010
1000
0001
0100
0001
,
0010
0100
0010
0100
1000
0100
1000
0100
1000
0010
0100
0010
,
1000
0100
0010
0001
0100
0010
0100
0001
1000
0001
0100
0010
,
0100
0001
1000
0010
0100
0010
0100
0001
0010
0001
1000
0001
,
1000
0010
1000
0010
0100
0001
0100
0010
1000
0010
1000
0100
,
1000
0100
0010
0100
1000
0001
1000
0001
0100
0001
0100
0010
,
1000
0010
0100
0010
0100
0001
0010
0001
1000
0100
0010
0001
,
1000
0001
0010
0100
1000
0100
1000
0001
0010
0001
0010
0001
,
1000
0100
0010
0001
0010
0100
1000
0100
1000
0010
1000
0010
,
0100
0001
0100
0010
0100
0010
0100
0010
1000
0010
0100
0001
,
0100
0001
0100
0001
1000
0100
0010
0100
1000
0100
0010
0001
,
1000
0100
1000
0100
1000
0100
1000
0001
1000
0100
0010
0100
,
0010
0100
1000
0010
0100
0010
0100
0010
1000
0010
0100
0010
,
0100
0001
0010
0001
0010
0100
0010
0001
1000
0001
1000
0100
,
1000
0010
0100
0010
1000
0001
1000
0100
1000
0100
1000
0010
,
0100
0010
1000
0001
0100
0010
1000
0001
0010
0001
0010
0001
,
1000
0010
1000
0010
0100
0001
0010
0001
1000
0100
1000
0100
,
0010
0100
1000
0010
1000
0010
0100
0010
1000
0100
1000
0100
,
0010
0001
0010
0100
1000
0100
1000
0100
0010
0001
0010
0001
,
1000
0100
1000
0010
1000
0010
0100
0010
0100
0001
0100
0001
,
0010
0001
0010
0001
1000
0100
1000
0010
1000
0001
0100
0010
,
0100
0001
0100
0010
1000
0010
0100
0001
1000
0010
0100
0010
,
0100
0001
0100
0001
1000
0010
1000
0100
0010
0100
1000
0001
,
0100
0010
1000
0100
0010
0001
0010
0100
1000
0010
1000
0010
,
0100
0010
1000
0010
0100
0001
0100
0001
0010
0001
0010
0100
,
0010
0100
1000
0010
1000
0010
0100
0001
1000
0100
1000
0100
,
0010
0100
0010
0100
1000
0001
0100
0010
0100
0001
1000
0001
,
0010
0100
0010
0001
1000
0001
0010
0001
1000
0100
0010
0100
,
1000
0100
1000
0100
1000
0100
0010
0100
0010
0100
1000
0100
,
1000
0001
1000
0010
1000
0010
0100
0001
1000
0010
0100
0010
,
1000
0100
1000
0100
0010
0001
1000
0100
1000
0001
1000
0001
,
0100
0001
0010
0001
0010
0100
0010
0100
0010
0001
0100
0010
,
0100
0010
1000
0010
0100
0001
0100
0001
1000
0010
0100
0001
,
0100
0001
0010
0001
0010
0100
0010
0100
1000
0010
1000
0001
,
0010
0001
0010
0100
1000
0001
0010
0100
1000
0010
1000
0001
,
1000
0010
1000
0100
1000
0001
0010
0001
0010
0100
1000
0100
,
1000
0010
0100
0001
1000
0001
0100
0001
1000
0100
1000
0001
,
1000
0100
1000
0100
1000
0100
1000
0100
1000
0001
0100
0001
,
0100
0010
0100
0010
1000
0001
0100
0010
0100
0001
0100
0001
,
0100
0010
0100
0001
1000
0100
0010
0100
1000
0001
1000
0100
,
1000
0001
1000
0100
1000
0001
1000
0010
0100
0010
1000
0100
,
1000
0100
0010
0100
0010
0100
0010
0100
1000
0010
1000
0001
,
1000
0010
1000
0010
1000
0001
1000
0010
0100
0001
0100
0010
,
1000
0010
1000
0010
1000
0010
1000
0010
1000
0010
0100
0010
,
0100
0010
1000
0001
0100
0001
0010
0001
0010
0100
1000
0100
,
0010
0100
0010
0001
0010
0100
0010
0100
0010
0100
1000
0100
,
1000
0010
1000
0010
0100
0010
1000
0100
1000
0001
0010
0100
,
0010
0001
0010
0001
1000
0100
1000
0001
0100
0010
1000
0010
,
1000
0100
1000
0100
1000
0100
0010
0001
1000
0001
0010
0001
,
0100
0010
1000
0001
1000
0010
1000
0001
0010
0001
0010
0100
,
1000
0100
0010
0100
0010
0001
0100
0010
1000
0010
0100
0001
,
1000
0100
0010
0100
1000
0001
1000
0010
0100
0010
0100
0010
,
1000
0010
0100
0001
1000
0001
0010
0001
1000
0001
0100
0001
,
1000
0100
1000
0010
1000
0010
1000
0001
0010
0100
0010
0100
,
1000
0100
0010
0001
0100
0001
0100
0001
0010
0100
1000
0010
,
1000
0001
1000
0010
0100
0010
0100
0001
0100
0010
1000
0010
,
1000
0100
1000
0001
0010
0100
1000
0001
0100
0001
0010
0001
,
0010
0100
0010
0100
1000
0010
0100
0001
0100
0001
0010
0001
,
1000
0100
0010
0001
0010
0001
0100
0001
1000
0010
0100
0001
,
0010
0001
1000
0010
1000
0001
0100
0010
1000
0100
1000
0001
,
0010
0001
0100
0001
0100
0010
0100
0001
1000
0100
1000
0001
,
0010
0001
0010
0100
1000
0010
1000
0010
1000
0100
1000
0100
,
1000
0010
1000
0010
1000
0010
0100
0001
0100
0010
1000
0100
,
1000
0100
1000
0010
0100
0010
1000
0010
0100
0010
0100
0001
,
1000
0100
0010
0001
0010
0100
0010
0001
1000
0100
1000
0010
,
0100
0001
0100
0001
1000
0100
1000
0001
1000
0010
1000
0100
,
1000
0100
0010
0100
1000
0100
1000
0001
1000
0001
0010
0001
,
0010
0100
1000
0001
0010
0100
1000
0100
0010
0100
0010
0001
,
0100
0001
1000
0100
1000
0010
1000
0010
0100
0010
0100
0001
,
1000
0010
0100
0001
1000
0010
1000
0100
1000
0100
1000
0100
,
0010
0100
0010
0100
1000
0010
0100
0001
0100
0010
1000
0010
,
1000
0100
1000
0001
1000
0001
0100
0001
0100
0010
0100
0010
,
1000
0010
0100
0001
0100
0001
1000
0100
1000
0001
1000
0001
,
1000
0100
1000
0010
1000
0010
1000
0001
1000
0001
0010
0100
,
1000
0010
0100
0010
0100
0001
1000
0100
0010
0100
0010
0001
,
0100
0010
0100
0010
1000
0100
1000
0100
0010
0100
0010
0100
,
0010
0100
1000
0100
0010
0001
0010
0001
0010
0001
0100
0001
,
0100
0001
1000
0001
0100
0010
0100
0010
1000
0010
0100
0010
,
1000
0010
0100
0010
0100
0001
0010
0100
1000
0100
1000
0010
,
0100
0010
0100
0001
1000
0001
0100
0001
0100
0010
1000
0010
,
1000
0100
1000
0001
0010
0001
0100
0001
0100
0010
0100
0010
,
1000
0100
1000
0001
1000
0010
1000
0001
0100
0001
0010
0001
,
0010
0100
0010
0001
1000
0001
0010
0100
0010
0001
1000
0010
,
1000
0001
0100
0001
0010
0100
0010
0001
1000
0001
0010
0100
,
0010
0001
0100
0010
1000
0001
0010
0001
0100
0001
0100
0010
,
0100
0001
0010
0001
1000
0010
1000
0100
0010
0100
0010
0001
,
1000
0100
0010
0001
0010
0100
1000
0010
0100
0001
0100
0010
,
1000
0010
0100
0010
0100
0001
0010
0001
1000
0010
1000
0001
,
1000
0001
1000
0100
1000
0010
0100
0010
1000
0100
0010
0100
,
1000
0010
0100
0001
1000
0001
0010
0100
0010
0100
1000
0010
,
0100
0001
0100
0010
1000
0010
1000
0001
0010
0001
1000
0001
,
0100
0010
1000
0001
0100
0001
0100
0010
0100
0001
0010
0001
,
1000
0100
1000
0100
0010
0001
0010
0001
0100
0010
1000
0010
,
1000
0100
1000
0100
1000
0010
1000
0001
0010
0001
0010
0100
,
1000
0100
0010
0100
0010
0100
0010
0100
1000
0100
1000
0100
,
1000
0100
0010
0001
0010
0001
0010
0100
0010
0100
0010
0100
,
0010
0001
0100
0001
0100
0010
1000
0100
1000
0001
1000
0010
,
0100
0001
0100
0010
0100
0010
0100
0001
1000
0010
1000
0010
,
0100
0010
0100
0001
0100
0001
0010
0100
0010
0100
1000
0001
,
1000
0100
1000
0100
1000
0100
0010
0001
0010
0001
0010
0001
,
1000
0010
1000
0010
1000
0100
0010
0001
0100
0001
1000
0001
,
0100
0010
1000
0100
0010
0100
0010
0100
1000
0001
0100
0001
,
0100
0001
0100
0001
0010
0100
0010
0001
0010
0001
1000
0100
,
0010
0100
1000
0100
1000
0010
1000
0010
0100
0010
0100
0001
,
0100
0001
0010
0100
0010
0001
0100
0001
0100
0010
0100
0001
,
0010
0100
0010
0001
0010
0100
1000
0010
0100
0001
0010
0001
,
1000
0100
0010
0001
0010
0001
0010
0001
1000
0010
0100
0010
,
1000
0010
1000
0010
0100
0001
0010
0100
0010
0100
0010
0100
,
1000
0010
1000
0001
0100
0001
0100
0010
0100
0010
0100
0001
,
0100
0010
1000
0001
0100
0001
0100
0001
0100
0001
1000
0100
,
1000
0010
1000
0001
0010
0100
0010
0001
0010
0001
0100
0001
,
1000
0001
0100
0001
1000
0010
0100
0001
0010
0001
0010
0100
,
0010
0100
1000
0100
1000
0100
1000
0010
0100
0010
0100
0001
,
0100
0010
1000
0001
0100
0010
1000
0100
0010
0001
0010
0100
,
0010
0100
0010
0001
0010
0100
1000
0100
1000
0010
0100
0010
,
1000
0010
1000
0100
1000
0100
0010
0100
0010
0001
0010
0001
,
1000
0001
1000
0100
1000
0100
0010
0100
0010
0100
1000
0100
;

//---------------dance-single - Kyzentun Science----------------
#NOTES:
     dance-single:
     Kyzentun Science:
     Medium:
     8:
     0.853,1.000,0.008,0.591,0.894,1291.000,2.000,142.000,99.000,32.000,16.000,0.853,1.000,0.008,0.591,0.894,1291.000,2.000,142.000,99.000,32.000,16.000:
0000
0000
0000
0000
,
1000
0001
1000
0100
0010
0100
0001
0100
,
1000
0001
1000
0010
0001
0010
0100
1000
,
0100
0010
0100
1000
0100
0001
0010
0100
,
0001
0100
0010
0001
1000
0010
0001
0010
,
1000
0001
0100
0010
0001
0010
0100
1000
,
0100
0001
0010
0100
1000
0010
0001
0010
,
0100
0010
1000
0010
0001
0010
0100
0001
,
0100
0010
0001
0010
1000
0100
0010
0001
,
0100
0010
1000
0010
0001
0010
1000
0001
,
0100
0001
1000
0010
0001
0010
0100
0001
,
0010
1000
0010
0001
1000
0010
0001
0010
,
0001
0010
0100
1000
0100
0001
1000
0100
,
0001
0100
1000
0010
0100
1000
0100
1000
,
0100
0001
0010
0100
0010
0001
1000
0001
,
0010
0100
1000
0010
0100
1000
0100
1000
,
0100
0010
0001
0010
0100
1000
0100
0001
,
1000
0010
1000
0100
0001
0100
1000
0001
,
0100
1000
0100
1000
0100
0010
1000
0001
,
1000
0010
0100
0001
1000
0100
0001
0100
,
0010
0001
1000
0010
0001
0010
1000
0100
,
0001
0100
0010
1000
0010
0100
0001
0100
,
1000
0010
1000
0100
0010
0001
1000
0010
,
0001
0010
0001
0010
1000
0001
0010
0001
,
1000
0001
0010
1000
0010
0001
0100
0001
,
0010
1000
0010
0001
1000
0010
0100
0001
,
0010
1000
0010
0100
1000
0010
0100
1000
,
0100
1000
0100
0010
0100
0001
0100
1000
,
0100
0001
1000
0100
0001
0100
1000
0010
,
0001
0010
0100
1000
0100
0010
0100
0001
,
0100
1000
0100
0001
1000
0010
0100
0001
,
0010
0001
0010
1000
0010
0100
1000
0010
,
0001
0010
0100
1000
0100
0010
0001
0010
,
1000
0010
1000
0001
0010
1000
0010
0001
,
1000
0100
0001
0100
0010
1000
0010
0100
,
1000
0001
0100
0010
1000
0100
0001
0100
,
1000
0010
0001
0010
0100
1000
0100
0010
,
0100
0001
0010
0100
0010
0001
1000
0010
,
0001
0010
0001
0010
0001
0010
0100
1000
,
0100
0010
1000
0100
0010
0001
1000
0100
,
1000
0001
0010
0100
0010
0001
0100
0010
,
0100
1000
0100
0001
0010
0100
0010
0001
,
1000
0100
0001
0100
0010
1000
0010
0001
,
0100
0010
1000
0001
0010
1000
0010
0100
,
0010
1000
0010
0001
0100
1000
0100
0010
,
1000
0001
0100
0010
1000
0001
0010
0001
,
0100
1000
0100
0010
1000
0010
0001
0010
,
1000
0100
0001
0100
0001
0100
0010
0100
,
0001
0100
0010
1000
0010
0100
0001
0100
,
0010
0100
1000
0010
0100
0001
1000
0100
,
0001
0100
0001
0100
1000
0010
0001
0010
,
1000
0100
1000
0001
0100
0010
0100
0010
,
0001
0010
0100
0010
0100
0001
0100
0001
,
1000
0010
0001
0010
0001
0010
1000
0001
,
0100
0010
0100
1000
0100
0001
1000
0100
,
0001
0100
0001
0100
0001
0100
1000
0100
,
1000
0001
0100
0010
1000
0100
0010
0001
,
0100
0010
0001
0010
0001
0010
0100
0001
,
0100
1000
0100
0001
1000
0100
0001
0100
,
0001
0100
0010
1000
0010
0001
0010
0100
,
0001
0100
0001
0100
0010
0001
0010
0100
,
0010
0100
1000
0001
0100
1000
0100
0010
,
0001
0010
1000
0001
0010
0100
0001
0100
,
1000
0001
0100
0010
0001
0010
1000
0001
,
0100
0010
1000
0010
1000
0001
0100
0010
,
0100
1000
0100
1000
0100
1000
0100
0001
,
1000
0010
1000
0010
0001
0010
1000
0010
,
0001
0010
0001
0010
1000
0100
0010
1000
,
0010
0001
0100
0001
0010
1000
0010
0100
,
1000
0001
0010
1000
0010
0100
1000
0001
,
0010
1000
0010
0001
0010
0100
1000
0010
,
0001
0010
0100
0010
0001
0010
1000
0100
,
0001
0100
1000
0001
0010
0100
1000
0001
,
0100
1000
0100
0010
0001
0010
0100
0001
,
0010
0100
1000
0001
0010
1000
0010
1000
,
0010
0001
1000
0001
0010
0100
0001
0100
,
1000
0100
0001
0100
0010
1000
0010
0100
,
0001
0100
0001
0100
0010
1000
0010
1000
,
0010
0100
0010
1000
0010
0100
1000
0001
,
0100
1000
0100
0010
1000
0001
1000
0010
,
0001
0010
0100
0010
0001
0010
1000
0100
,
0010
0001
1000
0100
1000
0010
0100
0001
,
1000
0001
1000
0010
0100
0010
0001
0010
,
0100
0001
1000
0010
0001
0010
0100
1000
,
0100
0001
0010
0100
0010
0100
1000
0100
,
0001
0100
1000
0010
0100
1000
0100
0010
,
0100
0001
0010
1000
0010
0001
0100
1000
,
0100
0010
0001
0010
0001
0010
1000
0010
,
0001
0010
1000
0100
0001
0100
1000
0100
,
0010
0001
0100
0010
0100
0001
0010
1000
,
0010
0001
1000
0001
1000
0010
0100
0001
,
1000
0010
0001
0010
1000
0100
1000
0100
,
1000
0100
0010
0001
1000
0010
0100
0010
,
0001
0010
0100
0010
0100
0010
0001
0010
,
1000
0100
0010
0001
1000
0100
0001
0100
,
0001
0100
0010
0100
1000
0010
0100
1000
,
0100
0010
1000
0010
0100
1000
0100
1000
,
0100
0010
0001
0010
0100
0001
1000
0010
,
0100
0001
1000
0001
0010
1000
0010
1000
,
0010
0001
0010
0100
1000
0001
0100
0010
,
1000
0010
0001
0010
0100
0001
1000
0010
,
0100
0001
0010
1000
0010
0001
0100
1000
,
0100
0010
0001
0010
0100
1000
0100
0010
,
0001
0010
1000
0100
0001
0100
1000
0100
,
0001
0100
0010
1000
0010
0100
0001
0100
,
0010
0001
1000
0010
1000
0100
0001
0100
,
0010
0100
1000
0010
0001
0010
1000
0100
,
1000
0001
0010
0100
0001
0100
1000
0010
,
0001
0010
1000
0100
0001
0100
1000
0001
,
0100
1000
0100
1000
0100
0010
0001
0010
,
0100
0001
0100
0010
0001
0010
1000
0100
,
0010
0100
0001
0100
0010
0001
0010
0100
,
0010
0001
1000
0100
0001
0100
0010
0001
,
0010
0100
0001
0100
1000
0010
0100
1000
,
0100
0010
0001
0010
1000
0100
0010
0001
,
0100
0010
0001
0010
1000
0001
0100
0001
,
1000
0001
0010
0001
1000
0010
0001
0010
,
0100
1000
0100
0010
0100
1000
0100
0001
,
1000
0100
0010
0001
1000
0010
0100
0010
,
0100
0001
1000
0100
0010
0001
1000
0100
,
1000
0100
0010
1000
0010
0001
1000
0010
,
0100
1000
0100
1000
0100
0010
0001
0010
,
0100
0010
0001
0010
0001
0010
0100
0001
,
0010
0001
1000
0100
0010
0001
0010
0100
,
0001
0100
1000
0010
0100
0010
0100
1000
,
0100
1000
0100
0010
1000
0100
1000
0010
,
0001
0010
1000
0001
0100
0010
0100
1000
,
0100
0010
1000
0100
0010
0001
1000
0100
,
0010
1000
0010
0100
0001
0100
1000
0010
,
0100
1000
0100
0001
0010
0100
0001
0100
,
1000
0001
0100
1000
0100
0010
0001
0010
,
1000
0100
0010
0001
0100
0010
0100
0001
,
1000
0010
0001
0010
0100
0001
1000
0010
,
1000
0001
0010
0100
1000
0010
0100
0001
,
0010
1000
0010
0001
1000
0010
1000
0001
,
0100
1000
0100
0001
0010
1000
0010
0100
,
1000
0001
1000
0010
0100
0001
1000
0100
,
0001
0100
0001
0100
1000
0001
0010
0100
,
0001
0100
0001
0100
1000
0010
0001
0010
,
1000
0100
1000
0001
0100
0010
0001
0010
,
0100
0010
0001
0010
0100
0001
0010
1000
,
0010
0001
0010
0100
0010
1000
0010
0001
,
1000
0100
0001
0100
0001
0100
0001
0100
,
0010
0100
0001
0100
0010
0001
0100
0001
,
1000
0010
0001
0010
1000
0100
0001
0100
,
0010
0001
1000
0100
0010
0001
0100
1000
,
0100
0001
1000
0010
0001
0010
0100
1000
,
0100
0001
0010
0001
0100
1000
0100
0010
,
0100
0001
1000
0001
0010
1000
0010
0100
,
1000
0010
0001
0010
0001
0010
1000
0100
,
1000
0010
0100
0001
1000
0010
0100
1000
,
0100
0001
1000
0100
0001
0100
1000
0001
,
0010
0001
0100
1000
0100
0010
0001
0010
,
1000
0100
0010
0001
0100
0010
1000
0100
,
0001
0100
1000
0010
0001
0010
0100
0001
,
0010
0001
0100
1000
0100
0010
1000
0010
,
0100
0001
0010
0100
0010
0100
0001
0100
,
0010
0001
1000
0001
1000
0010
0100
0001
,
1000
0010
1000
0001
0010
0100
0001
0100
,
0010
0100
1000
0001
0100
1000
0100
0001
,
0100
0010
0001
0010
1000
0100
0001
0100
,
0001
0100
0010
1000
0010
0100
0001
0100
,
0010
1000
0010
0001
1000
0001
0100
1000
,
0100
0010
0001
0010
1000
0010
0100
1000
,
0100
1000
0100
0001
1000
0010
0001
0010
,
0100
0010
1000
0100
0010
0001
0100
1000
,
0100
0001
0100
1000
0100
1000
0100
1000
,
0100
0001
1000
0010
0001
0010
1000
0100
,
1000
0001
1000
0010
1000
0100
0010
1000
,
0010
0001
0100
0001
0010
1000
0010
0100
,
1000
0001
0010
0001
0100
0010
0100
0001
,
1000
0010
1000
0001
0010
0001
0100
1000
,
0100
0010
0001
0010
0100
1000
0100
1000
,
0100
0001
0100
0010
1000
0100
0010
0001
,
1000
0010
0100
1000
0100
0010
1000
0100
,
0001
0100
0001
0100
0010
0001
0010
1000
,
0010
0001
0100
1000
0100
0001
1000
0100
,
1000
0100
0001
0100
1000
0100
0010
0001
,
0100
0010
0001
0010
1000
0010
1000
0001
,
0010
1000
0010
1000
0010
0001
0100
0001
,
0010
1000
0010
0001
0100
0010
0001
0010
,
0100
0001
1000
0001
0010
0100
0001
0100
,
0010
0001
1000
0100
0010
0001
0010
1000
,
0010
0001
1000
0100
0010
1000
0010
0100
,
0010
0001
1000
0010
0001
0010
1000
0100
,
0010
0001
0100
1000
0100
0001
1000
0100
,
0001
0100
0010
0001
0100
1000
0100
1000
,
0100
0001
0100
0001
0010
0100
0001
0100
,
1000
0001
1000
0100
0010
0001
1000
0100
,
1000
0001
0010
1000
0010
0100
0010
0001
,
0100
1000
0100
1000
0100
0010
1000
0010
,
0100
0001
0010
0100
0010
1000
0010
0100
,
1000
0001
0010
1000
0010
0100
0001
0100
,
1000
0001
0100
1000
0100
1000
0100
0010
,
1000
0001
0010
0100
1000
0001
0010
0100
,
0001
0100
0010
0001
1000
0001
0100
0010
,
1000
0001
0010
0100
1000
0010
0100
1000
,
0100
1000
0100
0010
0001
0010
0100
1000
,
0100
0001
0010
0100
1000
0010
0100
0010
,
0001
0010
0001
0010
0100
1000
0100
0010
,
0001
0010
1000
0001
0010
1000
0010
0100
,
1000
0010
0100
0001
1000
0010
0100
0010
,
0001
0010
0001
0010
1000
0010
0001
0010
,
0001
0010
1000
0010
0001
0010
0001
0010
,
0100
0010
0001
0010
0100
0001
1000
0100
,
0001
0100
1000
0010
0100
0010
0001
0010
,
0100
0001
1000
0100
1000
0001
0010
0100
,
0010
0100
0001
0100
0001
0100
1000
0001
,
0100
0010
0001
0010
1000
0010
1000
0001
,
1000
0001
0010
1000
0010
0001
0100
0010
,
0001
0010
1000
0010
0100
1000
0100
0010
,
0001
0010
1000
0100
0010
0100
0001
0100
,
0010
1000
0010
0001
1000
0001
1000
0001
,
0100
1000
0100
0010
0100
0001
0100
1000
,
0100
0001
0100
0001
1000
0100
0001
0100
,
0010
0100
0010
0001
0010
1000
0010
0001
,
1000
0010
0100
1000
0100
0010
1000
0001
,
0100
1000
0100
0001
0100
0010
1000
0001
,
0100
1000
0100
0010
0001
0010
0100
0001
,
0010
0001
0100
0010
0001
0010
1000
0001
,
0100
1000
0100
1000
0100
0001
1000
0010
,
1000
0010
1000
0100
0010
0001
0100
0010
,
1000
0100
0010
0001
0100
0010
1000
0100
,
1000
0001
0010
1000
0010
0100
1000
0001
,
0100
1000
0100
0001
0010
0100
0001
0100
,
1000
0100
0001
0100
0010
1000
0010
1000
,
0010
0001
0100
0010
1000
0001
1000
0001
,
0010
0100
0010
0001
0010
0100
0010
0001
,
0100
0001
1000
0100
0010
1000
0010
0100
,
1000
0001
0010
1000
0010
0001
0100
0010
,
1000
0001
0010
0001
0100
0001
0010
0100
,
0001
0100
1000
0100
0010
0001
1000
0001
,
0100
0010
0100
1000
0100
0001
0010
0100
,
1000
0100
0001
0100
1000
0001
0010
0001
,
0100
0010
0001
0010
1000
0100
0001
0100
,
0010
1000
0010
0100
1000
0001
0010
1000
,
0010
0100
0010
1000
0010
1000
0010
0001
,
1000
0010
0100
0001
0100
0001
1000
0010
,
0001
0010
1000
0100
0001
0100
0001
0100
,
0001
0100
1000
0001
0100
1000
0100
0001
,
1000
0100
1000
0010
1000
0001
0100
1000
,
0100
1000
0100
0001
1000
0100
0001
0100
,
1000
0010
0001
0010
0100
1000
0100
0001
,
0010
0001
0010
1000
0010
0100
0001
0100
,
1000
0001
0010
0100
0001
0100
0010
0100
,
1000
0010
0001
0010
1000
0100
0010
0100
,
1000
0100
0001
0100
1000
0100
0001
0100
,
0010
0001
1000
0010
0001
0010
1000
0010
,
0100
0010
0001
0010
1000
0001
0010
1000
,
0010
0100
0001
0100
0010
0001
0100
0001
,
0100
1000
0100
1000
0100
0001
0100
1000
,
0100
0001
0100
0010
0001
0010
0100
1000
,
0100
0001
0010
0100
1000
0100
1000
0001
,
0100
1000
0100
1000
0100
0010
0001
0010
,
1000
0010
0100
0010
1000
0100
0010
0001
,
1000
0010
0100
0001
0010
1000
0010
0100
,
0010
0001
0100
0010
0001
0010
1000
0100
,
0001
0100
1000
0010
0001
0010
0001
0010
,
1000
0001
1000
0100
0001
0100
0010
0100
,
0010
0001
0100
0001
1000
0010
0100
0001
,
1000
0100
0001
0100
0010
0100
0001
0100
,
1000
0100
0010
0100
1000
0010
0001
0010
,
0100
1000
0100
0001
0010
0001
0100
0001
,
0010
1000
0010
0100
1000
0100
0001
0100
,
1000
0010
0100
0010
0001
0010
0001
0010
,
0100
0001
1000
0100
0010
0100
1000
0001
,
0010
0100
0001
0100
0010
0001
0010
0100
,
0001
0100
0010
1000
0010
0001
0100
0010
,
1000
0001
0010
1000
0010
0100
1000
0001
,
0010
0001
0100
1000
0100
0001
0010
1000
,
0010
0001
1000
0010
0100
1000
0100
0001
,
1000
0001
0010
1000
0010
0100
0001
0100
,
0001
0100
0010
0001
0100
1000
0100
0001
,
0100
1000
0100
0001
0010
1000
0010
0100
,
1000
0100
0001
0100
0010
0100
0010
0001
,
1000
0010
0100
0001
1000
0100
0010
0001
,
1000
0100
0010
1000
0010
0100
1000
0001
,
0010
0100
1000
0010
0001
0010
1000
0100
,
0001
0100
1000
0010
0001
0010
1000
0100
,
1000
0001
0010
0100
0010
1000
0010
0100
,
0010
0001
0100
0010
0001
0010
0100
0001
,
1000
0100
0001
0100
0010
0001
0100
0001
,
1000
0100
0001
0100
0010
0001
1000
0100
,
0010
1000
0010
1000
0010
0100
0001
0100
,
0001
0100
0001
0100
1000
0010
0100
0001
,
0010
0100
1000
0001
0100
1000
0100
1000
,
0100
0010
0001
0010
0100
0010
1000
0010
,
0001
0010
1000
0010
0100
1000
0100
0001
,
0100
1000
0100
1000
0100
0010
0001
0010
,
1000
0010
0100
1000
0100
0001
0010
1000
,
0010
0001
1000
0100
0001
0100
0010
1000
,
0010
0001
1000
0100
0010
0001
0100
0010
,
0001
0010
1000
0100
1000
0100
0001
0100
,
0010
1000
0010
1000
0010
1000
0010
0001
,
1000
0010
0100
1000
0100
0010
0001
0010
,
0100
1000
0100
0010
0001
0010
0100
1000
,
0100
1000
0100
0010
1000
0100
0001
0100
,
1000
0001
0100
0010
0001
0010
0100
0001
,
1000
0010
0100
1000
0100
0001
1000
0100
,
0001
0100
0001
0100
0010
1000
0010
0100
,
0010
0001
1000
0010
0100
1000
0100
0001
,
0010
0100
1000
0001
0100
1000
0100
0001
,
0010
0100
0001
0100
0010
0100
0001
0100
,
1000
0001
1000
0100
0010
1000
0010
0001
,
1000
0001
1000
0100
0010
0001
1000
0100
,
0010
0100
1000
0001
0010
1000
0010
0001
,
1000
0100
0001
0100
1000
0001
0100
0010
,
0100
1000
0100
1000
0100
0010
1000
0100
,
0010
0100
1000
0010
0100
1000
0100
0001
,
0010
1000
0010
1000
0010
0100
1000
0010
,
0100
1000
0100
0010
1000
0001
0100
0010
,
0100
0010
1000
0001
0100
0001
0010
1000
,
0010
1000
0010
1000
0010
0100
0010
0001
,
0100
0001
1000
0001
0010
1000
0010
0001
,
0100
1000
0100
0010
1000
0010
0100
1000
,
0100
0001
0100
0001
1000
0001
0100
0010
,
0001
0010
0100
0010
0001
0010
0100
0001
,
0010
1000
0010
1000
0010
0100
0001
0100
,
1000
0010
0001
0010
0100
1000
0100
0010
,
1000
0010
0001
0010
1000
0100
0010
0100
,
0001
0100
0001
0100
0010
1000
0010
0001
,
0100
0010
0100
1000
0100
0010
1000
0100
,
0001
0100
0010
1000
0010
0001
0010
1000
,
0010
0001
1000
0010
0100
0001
1000
0010
,
0100
1000
0100
0001
1000
0010
0100
0001
,
1000
0010
1000
0100
0001
0100
0001
0100
,
0010
1000
0010
0100
0010
1000
0010
1000
,
0010
0100
0010
0001
1000
0010
0001
0010
,
0100
1000
0100
0010
1000
0100
0010
1000
,
0010
0100
1000
0010
0001
0010
0100
1000
,
0100
1000
0100
0010
0100
1000
0100
0001
,
1000
0010
0001
0010
0100
1000
0100
1000
,
0100
0010
1000
0010
0100
0010
1000
0010
,
1000
0100
0001
0100
1000
0001
1000
0100
,
0001
0100
1000
0001
0010
0100
1000
0001
,
0010
0100
1000
0001
0010
0100
0010
1000
,
0010
0001
0100
0001
1000
0100
0010
0001
,
1000
0001
0010
0100
0001
0100
0010
1000
,
0010
0001
1000
0001
1000
0010
0001
0010
,
0100
0001
0010
0100
1000
0001
1000
0100
,
0010
0100
1000
0100
1000
0010
0100
1000
,
0100
0010
0001
0010
1000
0010
0001
0010
,
0100
1000
0100
0010
0001
0010
1000
0010
,
0100
1000
0100
0010
1000
0001
0100
0001
,
1000
0010
0100
1000
0100
0010
0001
0010
,
0001
0010
0100
0001
0010
0001
1000
0100
,
0010
1000
0010
0100
0001
0100
0010
0001
,
1000
0100
0010
0100
0001
0100
1000
0001
,
0010
1000
0010
0001
1000
0100
0001
0100
,
0010
0001
1000
0001
0010
1000
0010
0001
,
0100
1000
0100
0001
0010
1000
0010
0100
;

//---------------dance-single - Kyzentun Science----------------
#NOTES:
     dance-single:
     Kyzentun Science:
     Medium:
     16:
     0.853,1.000,0.008,0.591,0.894,1291.000,2.000,142.000,99.000,32.000,16.000,0.853,1.000,0.008,0.591,0.894,1291.000,2.000,142.000,99.000,32.000,16.000:
0000
0000
0000
0000
,
1000
0001
1000
0100
0010
0100
0001
0100
1000
0001
1000
0010
0001
0010
0100
1000
,
0100
0010
0100
1000
0100
0001
0010
0100
0001
0100
0010
0001
1000
0010
0001
0010
,
1000
0001
0100
0010
0001
0010
0100
1000
0100
0001
0010
0100
1000
0010
0001
0010
,
0100
0010
1000
0010
0001
0010
0100
0001
0100
0010
0001
0010
1000
0100
0010
0001
,
0100
0010
1000
0010
0001
0010
1000
0001
0100
0001
1000
0010
0001
0010
0100
0001
,
0010
1000
0010
0001
1000
0010
0001
0010
0001
0010
0100
1000
0100
0001
1000
0100
,
0001
0100
1000
0010
0100
1000
0100
1000
0100
0001
0010
0100
0010
0001
1000
0001
,
0010
0100
1000
0010
0100
1000
0100
1000
0100
0010
0001
0010
0100
1000
0100
0001
,
1000
0010
1000
0100
0001
0100
1000
0001
0100
1000
0100
1000
0100
0010
1000
0001
,
1000
0010
0100
0001
1000
0100
0001
0100
0010
0001
1000
0010
0001
0010
1000
0100
,
0001
0100
0010
1000
0010
0100
0001
0100
1000
0010
1000
0100
0010
0001
1000
0010
,
0001
0010
0001
0010
1000
0001
0010
0001
1000
0001
0010
1000
0010
0001
0100
0001
,
0010
1000
0010
0001
1000
0010
0100
0001
0010
1000
0010
0100
1000
0010
0100
1000
,
0100
1000
0100
0010
0100
0001
0100
1000
0100
0001
1000
0100
0001
0100
1000
0010
,
0001
0010
0100
1000
0100
0010
0100
0001
0100
1000
0100
0001
1000
0010
0100
0001
,
0010
0001
0010
1000
0010
0100
1000
0010
0001
0010
0100
1000
0100
0010
0001
0010
,
1000
0010
1000
0001
0010
1000
0010
0001
1000
0100
0001
0100
0010
1000
0010
0100
,
1000
0001
0100
0010
1000
0100
0001
0100
1000
0010
0001
0010
0100
1000
0100
0010
,
0100
0001
0010
0100
0010
0001
1000
0010
0001
0010
0001
0010
0001
0010
0100
1000
,
0100
0010
1000
0100
0010
0001
1000
0100
1000
0001
0010
0100
0010
0001
0100
0010
,
0100
1000
0100
0001
0010
0100
0010
0001
1000
0100
0001
0100
0010
1000
0010
0001
,
0100
0010
1000
0001
0010
1000
0010
0100
0010
1000
0010
0001
0100
1000
0100
0010
,
1000
0001
0100
0010
1000
0001
0010
0001
0100
1000
0100
0010
1000
0010
0001
0010
,
1000
0100
0001
0100
0001
0100
0010
0100
0001
0100
0010
1000
0010
0100
0001
0100
,
0010
0100
1000
0010
0100
0001
1000
0100
0001
0100
0001
0100
1000
0010
0001
0010
,
1000
0100
1000
0001
0100
0010
0100
0010
0001
0010
0100
0010
0100
0001
0100
0001
,
1000
0010
0001
0010
0001
0010
1000
0001
0100
0010
0100
1000
0100
0001
1000
0100
,
0001
0100
0001
0100
0001
0100
1000
0100
1000
0001
0100
0010
1000
0100
0010
0001
,
0100
0010
0001
0010
0001
0010
0100
0001
0100
1000
0100
0001
1000
0100
0001
0100
,
0001
0100
0010
1000
0010
0001
0010
0100
0001
0100
0001
0100
0010
0001
0010
0100
,
0010
0100
1000
0001
0100
1000
0100
0010
0001
0010
1000
0001
0010
0100
0001
0100
,
1000
0001
0100
0010
0001
0010
1000
0001
0100
0010
1000
0010
1000
0001
0100
0010
,
0100
1000
0100
1000
0100
1000
0100
0001
1000
0010
1000
0010
0001
0010
1000
0010
,
0001
0010
0001
0010
1000
0100
0010
1000
0010
0001
0100
0001
0010
1000
0010
0100
,
1000
0001
0010
1000
0010
0100
1000
0001
0010
1000
0010
0001
0010
0100
1000
0010
,
0001
0010
0100
0010
0001
0010
1000
0100
0001
0100
1000
0001
0010
0100
1000
0001
,
0100
1000
0100
0010
0001
0010
0100
0001
0010
0100
1000
0001
0010
1000
0010
1000
,
0010
0001
1000
0001
0010
0100
0001
0100
1000
0100
0001
0100
0010
1000
0010
0100
,
0001
0100
0001
0100
0010
1000
0010
1000
0010
0100
0010
1000
0010
0100
1000
0001
,
0100
1000
0100
0010
1000
0001
1000
0010
0001
0010
0100
0010
0001
0010
1000
0100
,
0010
0001
1000
0100
1000
0010
0100
0001
1000
0001
1000
0010
0100
0010
0001
0010
,
0100
0001
1000
0010
0001
0010
0100
1000
0100
0001
0010
0100
0010
0100
1000
0100
,
0001
0100
1000
0010
0100
1000
0100
0010
0100
0001
0010
1000
0010
0001
0100
1000
,
0100
0010
0001
0010
0001
0010
1000
0010
0001
0010
1000
0100
0001
0100
1000
0100
,
0010
0001
0100
0010
0100
0001
0010
1000
0010
0001
1000
0001
1000
0010
0100
0001
,
1000
0010
0001
0010
1000
0100
1000
0100
1000
0100
0010
0001
1000
0010
0100
0010
,
0001
0010
0100
0010
0100
0010
0001
0010
1000
0100
0010
0001
1000
0100
0001
0100
,
0001
0100
0010
0100
1000
0010
0100
1000
0100
0010
1000
0010
0100
1000
0100
1000
,
0100
0010
0001
0010
0100
0001
1000
0010
0100
0001
1000
0001
0010
1000
0010
1000
,
0010
0001
0010
0100
1000
0001
0100
0010
1000
0010
0001
0010
0100
0001
1000
0010
,
0100
0001
0010
1000
0010
0001
0100
1000
0100
0010
0001
0010
0100
1000
0100
0010
,
0001
0010
1000
0100
0001
0100
1000
0100
0001
0100
0010
1000
0010
0100
0001
0100
,
0010
0001
1000
0010
1000
0100
0001
0100
0010
0100
1000
0010
0001
0010
1000
0100
,
1000
0001
0010
0100
0001
0100
1000
0010
0001
0010
1000
0100
0001
0100
1000
0001
,
0100
1000
0100
1000
0100
0010
0001
0010
0100
0001
0100
0010
0001
0010
1000
0100
,
0010
0100
0001
0100
0010
0001
0010
0100
0010
0001
1000
0100
0001
0100
0010
0001
,
0010
0100
0001
0100
1000
0010
0100
1000
0100
0010
0001
0010
1000
0100
0010
0001
,
0100
0010
0001
0010
1000
0001
0100
0001
1000
0001
0010
0001
1000
0010
0001
0010
,
0100
1000
0100
0010
0100
1000
0100
0001
1000
0100
0010
0001
1000
0010
0100
0010
,
0100
0001
1000
0100
0010
0001
1000
0100
1000
0100
0010
1000
0010
0001
1000
0010
,
0100
1000
0100
1000
0100
0010
0001
0010
0100
0010
0001
0010
0001
0010
0100
0001
,
0010
0001
1000
0100
0010
0001
0010
0100
0001
0100
1000
0010
0100
0010
0100
1000
,
0100
1000
0100
0010
1000
0100
1000
0010
0001
0010
1000
0001
0100
0010
0100
1000
,
0100
0010
1000
0100
0010
0001
1000
0100
0010
1000
0010
0100
0001
0100
1000
0010
,
0100
1000
0100
0001
0010
0100
0001
0100
1000
0001
0100
1000
0100
0010
0001
0010
,
1000
0100
0010
0001
0100
0010
0100
0001
1000
0010
0001
0010
0100
0001
1000
0010
,
1000
0001
0010
0100
1000
0010
0100
0001
0010
1000
0010
0001
1000
0010
1000
0001
,
0100
1000
0100
0001
0010
1000
0010
0100
1000
0001
1000
0010
0100
0001
1000
0100
,
0001
0100
0001
0100
1000
0001
0010
0100
0001
0100
0001
0100
1000
0010
0001
0010
,
1000
0100
1000
0001
0100
0010
0001
0010
0100
0010
0001
0010
0100
0001
0010
1000
,
0010
0001
0010
0100
0010
1000
0010
0001
1000
0100
0001
0100
0001
0100
0001
0100
,
0010
0100
0001
0100
0010
0001
0100
0001
1000
0010
0001
0010
1000
0100
0001
0100
,
0010
0001
1000
0100
0010
0001
0100
1000
0100
0001
1000
0010
0001
0010
0100
1000
,
0100
0001
0010
0001
0100
1000
0100
0010
0100
0001
1000
0001
0010
1000
0010
0100
,
1000
0010
0001
0010
0001
0010
1000
0100
1000
0010
0100
0001
1000
0010
0100
1000
,
0100
0001
1000
0100
0001
0100
1000
0001
0010
0001
0100
1000
0100
0010
0001
0010
,
1000
0100
0010
0001
0100
0010
1000
0100
0001
0100
1000
0010
0001
0010
0100
0001
,
0010
0001
0100
1000
0100
0010
1000
0010
0100
0001
0010
0100
0010
0100
0001
0100
,
0010
0001
1000
0001
1000
0010
0100
0001
1000
0010
1000
0001
0010
0100
0001
0100
,
0010
0100
1000
0001
0100
1000
0100
0001
0100
0010
0001
0010
1000
0100
0001
0100
,
0001
0100
0010
1000
0010
0100
0001
0100
0010
1000
0010
0001
1000
0001
0100
1000
,
0100
0010
0001
0010
1000
0010
0100
1000
0100
1000
0100
0001
1000
0010
0001
0010
,
0100
0010
1000
0100
0010
0001
0100
1000
0100
0001
0100
1000
0100
1000
0100
1000
,
0100
0001
1000
0010
0001
0010
1000
0100
1000
0001
1000
0010
1000
0100
0010
1000
,
0010
0001
0100
0001
0010
1000
0010
0100
1000
0001
0010
0001
0100
0010
0100
0001
,
1000
0010
1000
0001
0010
0001
0100
1000
0100
0010
0001
0010
0100
1000
0100
1000
,
0100
0001
0100
0010
1000
0100
0010
0001
1000
0010
0100
1000
0100
0010
1000
0100
,
0001
0100
0001
0100
0010
0001
0010
1000
0010
0001
0100
1000
0100
0001
1000
0100
,
1000
0100
0001
0100
1000
0100
0010
0001
0100
0010
0001
0010
1000
0010
1000
0001
,
0010
1000
0010
1000
0010
0001
0100
0001
0010
1000
0010
0001
0100
0010
0001
0010
,
0100
0001
1000
0001
0010
0100
0001
0100
0010
0001
1000
0100
0010
0001
0010
1000
,
0010
0001
1000
0100
0010
1000
0010
0100
0010
0001
1000
0010
0001
0010
1000
0100
,
0010
0001
0100
1000
0100
0001
1000
0100
0001
0100
0010
0001
0100
1000
0100
1000
,
0100
0001
0100
0001
0010
0100
0001
0100
1000
0001
1000
0100
0010
0001
1000
0100
,
1000
0001
0010
1000
0010
0100
0010
0001
0100
1000
0100
1000
0100
0010
1000
0010
,
0100
0001
0010
0100
0010
1000
0010
0100
1000
0001
0010
1000
0010
0100
0001
0100
,
1000
0001
0100
1000
0100
1000
0100
0010
1000
0001
0010
0100
1000
0001
0010
0100
,
0001
0100
0010
0001
1000
0001
0100
0010
1000
0001
0010
0100
1000
0010
0100
1000
,
0100
1000
0100
0010
0001
0010
0100
1000
0100
0001
0010
0100
1000
0010
0100
0010
,
0001
0010
0001
0010
0100
1000
0100
0010
0001
0010
1000
0001
0010
1000
0010
0100
,
1000
0010
0100
0001
1000
0010
0100
0010
0001
0010
0001
0010
1000
0010
0001
0010
,
0001
0010
1000
0010
0001
0010
0001
0010
0100
0010
0001
0010
0100
0001
1000
0100
,
0001
0100
1000
0010
0100
0010
0001
0010
0100
0001
1000
0100
1000
0001
0010
0100
,
0010
0100
0001
0100
0001
0100
1000
0001
0100
0010
0001
0010
1000
0010
1000
0001
,
1000
0001
0010
1000
0010
0001
0100
0010
0001
0010
1000
0010
0100
1000
0100
0010
,
0001
0010
1000
0100
0010
0100
0001
0100
0010
1000
0010
0001
1000
0001
1000
0001
,
0100
1000
0100
0010
0100
0001
0100
1000
0100
0001
0100
0001
1000
0100
0001
0100
,
0010
0100
0010
0001
0010
1000
0010
0001
1000
0010
0100
1000
0100
0010
1000
0001
,
0100
1000
0100
0001
0100
0010
1000
0001
0100
1000
0100
0010
0001
0010
0100
0001
,
0010
0001
0100
0010
0001
0010
1000
0001
0100
1000
0100
1000
0100
0001
1000
0010
,
1000
0010
1000
0100
0010
0001
0100
0010
1000
0100
0010
0001
0100
0010
1000
0100
,
1000
0001
0010
1000
0010
0100
1000
0001
0100
1000
0100
0001
0010
0100
0001
0100
,
1000
0100
0001
0100
0010
1000
0010
1000
0010
0001
0100
0010
1000
0001
1000
0001
,
0010
0100
0010
0001
0010
0100
0010
0001
0100
0001
1000
0100
0010
1000
0010
0100
,
1000
0001
0010
1000
0010
0001
0100
0010
1000
0001
0010
0001
0100
0001
0010
0100
,
0001
0100
1000
0100
0010
0001
1000
0001
0100
0010
0100
1000
0100
0001
0010
0100
,
1000
0100
0001
0100
1000
0001
0010
0001
0100
0010
0001
0010
1000
0100
0001
0100
,
0010
1000
0010
0100
1000
0001
0010
1000
0010
0100
0010
1000
0010
1000
0010
0001
,
1000
0010
0100
0001
0100
0001
1000
0010
0001
0010
1000
0100
0001
0100
0001
0100
,
0001
0100
1000
0001
0100
1000
0100
0001
1000
0100
1000
0010
1000
0001
0100
1000
,
0100
1000
0100
0001
1000
0100
0001
0100
1000
0010
0001
0010
0100
1000
0100
0001
,
0010
0001
0010
1000
0010
0100
0001
0100
1000
0001
0010
0100
0001
0100
0010
0100
,
1000
0010
0001
0010
1000
0100
0010
0100
1000
0100
0001
0100
1000
0100
0001
0100
,
0010
0001
1000
0010
0001
0010
1000
0010
0100
0010
0001
0010
1000
0001
0010
1000
,
0010
0100
0001
0100
0010
0001
0100
0001
0100
1000
0100
1000
0100
0001
0100
1000
,
0100
0001
0100
0010
0001
0010
0100
1000
0100
0001
0010
0100
1000
0100
1000
0001
,
0100
1000
0100
1000
0100
0010
0001
0010
1000
0010
0100
0010
1000
0100
0010
0001
,
1000
0010
0100
0001
0010
1000
0010
0100
0010
0001
0100
0010
0001
0010
1000
0100
,
0001
0100
1000
0010
0001
0010
0001
0010
1000
0001
1000
0100
0001
0100
0010
0100
,
0010
0001
0100
0001
1000
0010
0100
0001
1000
0100
0001
0100
0010
0100
0001
0100
,
1000
0100
0010
0100
1000
0010
0001
0010
0100
1000
0100
0001
0010
0001
0100
0001
,
0010
1000
0010
0100
1000
0100
0001
0100
1000
0010
0100
0010
0001
0010
0001
0010
,
0100
0001
1000
0100
0010
0100
1000
0001
0010
0100
0001
0100
0010
0001
0010
0100
,
0001
0100
0010
1000
0010
0001
0100
0010
1000
0001
0010
1000
0010
0100
1000
0001
,
0010
0001
0100
1000
0100
0001
0010
1000
0010
0001
1000
0010
0100
1000
0100
0001
,
1000
0001
0010
1000
0010
0100
0001
0100
0001
0100
0010
0001
0100
1000
0100
0001
,
0100
1000
0100
0001
0010
1000
0010
0100
1000
0100
0001
0100
0010
0100
0010
0001
,
1000
0010
0100
0001
1000
0100
0010
0001
1000
0100
0010
1000
0010
0100
1000
0001
,
0010
0100
1000
0010
0001
0010
1000
0100
0001
0100
1000
0010
0001
0010
1000
0100
,
1000
0001
0010
0100
0010
1000
0010
0100
0010
0001
0100
0010
0001
0010
0100
0001
,
1000
0100
0001
0100
0010
0001
0100
0001
1000
0100
0001
0100
0010
0001
1000
0100
,
0010
1000
0010
1000
0010
0100
0001
0100
0001
0100
0001
0100
1000
0010
0100
0001
,
0010
0100
1000
0001
0100
1000
0100
1000
0100
0010
0001
0010
0100
0010
1000
0010
,
0001
0010
1000
0010
0100
1000
0100
0001
0100
1000
0100
1000
0100
0010
0001
0010
,
1000
0010
0100
1000
0100
0001
0010
1000
0010
0001
1000
0100
0001
0100
0010
1000
,
0010
0001
1000
0100
0010
0001
0100
0010
0001
0010
1000
0100
1000
0100
0001
0100
,
0010
1000
0010
1000
0010
1000
0010
0001
1000
0010
0100
1000
0100
0010
0001
0010
,
0100
1000
0100
0010
0001
0010
0100
1000
0100
1000
0100
0010
1000
0100
0001
0100
,
1000
0001
0100
0010
0001
0010
0100
0001
1000
0010
0100
1000
0100
0001
1000
0100
,
0001
0100
0001
0100
0010
1000
0010
0100
0010
0001
1000
0010
0100
1000
0100
0001
,
0010
0100
1000
0001
0100
1000
0100
0001
0010
0100
0001
0100
0010
0100
0001
0100
,
1000
0001
1000
0100
0010
1000
0010
0001
1000
0001
1000
0100
0010
0001
1000
0100
,
0010
0100
1000
0001
0010
1000
0010
0001
1000
0100
0001
0100
1000
0001
0100
0010
,
0100
1000
0100
1000
0100
0010
1000
0100
0010
0100
1000
0010
0100
1000
0100
0001
,
0010
1000
0010
1000
0010
0100
1000
0010
0100
1000
0100
0010
1000
0001
0100
0010
,
0100
0010
1000
0001
0100
0001
0010
1000
0010
1000
0010
1000
0010
0100
0010
0001
,
0100
0001
1000
0001
0010
1000
0010
0001
0100
1000
0100
0010
1000
0010
0100
1000
,
0100
0001
0100
0001
1000
0001
0100
0010
0001
0010
0100
0010
0001
0010
0100
0001
,
0010
1000
0010
1000
0010
0100
0001
0100
1000
0010
0001
0010
0100
1000
0100
0010
,
1000
0010
0001
0010
1000
0100
0010
0100
0001
0100
0001
0100
0010
1000
0010
0001
,
0100
0010
0100
1000
0100
0010
1000
0100
0001
0100
0010
1000
0010
0001
0010
1000
,
0010
0001
1000
0010
0100
0001
1000
0010
0100
1000
0100
0001
1000
0010
0100
0001
,
1000
0010
1000
0100
0001
0100
0001
0100
0010
1000
0010
0100
0010
1000
0010
1000
,
0010
0100
0010
0001
1000
0010
0001
0010
0100
1000
0100
0010
1000
0100
0010
1000
,
0010
0100
1000
0010
0001
0010
0100
1000
0100
1000
0100
0010
0100
1000
0100
0001
,
1000
0010
0001
0010
0100
1000
0100
1000
0100
0010
1000
0010
0100
0010
1000
0010
,
1000
0100
0001
0100
1000
0001
1000
0100
0001
0100
1000
0001
0010
0100
1000
0001
,
0010
0100
1000
0001
0010
0100
0010
1000
0010
0001
0100
0001
1000
0100
0010
0001
,
1000
0001
0010
0100
0001
0100
0010
1000
0010
0001
1000
0001
1000
0010
0001
0010
,
0100
0001
0010
0100
1000
0001
1000
0100
0010
0100
1000
0100
1000
0010
0100
1000
,
0100
0010
0001
0010
1000
0010
0001
0010
0100
1000
0100
0010
0001
0010
1000
0010
,
0100
1000
0100
0010
1000
0001
0100
0001
1000
0010
0100
1000
0100
0010
0001
0010
,
0001
0010
0100
0001
0010
0001
1000
0100
0010
1000
0010
0100
0001
0100
0010
0001
,
1000
0100
0010
0100
0001
0100
1000
0001
0010
1000
0010
0001
1000
0100
0001
0100
,
0010
0001
1000
0001
0010
1000
0010
0001
0100
1000
0100
0001
0010
1000
0010
0100
,
0001
0100
0010
1000
0010
0100
0010
1000
0010
0100
0001
0100
0010
1000
0010
1000
,
0010
0100
1000
0010
1000
0100
0001
0100
1000
0001
0100
1000
0100
0001
1000
0010
,
0100
0001
0010
1000
0010
0100
1000
0010
0001
0010
0100
1000
0100
0010
1000
0001
,
0010
1000
0010
0100
0001
0100
1000
0001
0010
0100
0001
0100
0001
0100
1000
0001
,
0100
0010
1000
0100
0001
0100
0010
0100
1000
0001
0100
0010
0001
0010
0100
0010
,
1000
0100
0001
0100
1000
0001
0100
1000
0100
0010
1000
0100
1000
0100
0001
0100
,
0001
0100
0001
0100
0001
0100
0010
0100
0010
1000
0010
0001
1000
0010
1000
0010
,
0100
0001
1000
0001
0100
0010
1000
0010
0100
0010
1000
0001
0010
1000
0010
0100
,
1000
0010
0100
0001
0100
1000
0100
0001
1000
0010
1000
0100
0010
1000
0010
1000
,
0010
0100
0001
0100
1000
0001
1000
0100
0010
0001
0100
0010
1000
0001
0010
1000
,
0010
0001
1000
0100
0001
0100
0010
1000
0010
0100
1000
0010
1000
0100
1000
0100
,
0010
1000
0010
0100
0010
0100
1000
0001
0100
1000
0100
1000
0100
0001
1000
0010
,
0100
1000
0100
0010
1000
0100
1000
0010
0100
0001
1000
0010
1000
0100
0010
1000
,
0010
0100
1000
0010
0001
0010
0100
0001
1000
0100
0001
0100
1000
0010
0100
1000
,
0100
0010
1000
0001
0100
1000
0100
0010
0001
0010
0100
1000
0100
1000
0100
0001
,
0010
1000
0010
0001
0010
1000
0010
0001
0010
0100
1000
0100
0001
0100
0010
0001
,
0010
0100
0001
0100
1000
0010
0001
0010
1000
0010
1000
0100
1000
0010
0100
0001
,
1000
0010
0001
0010
1000
0100
1000
0001
0100
1000
0100
0001
1000
0100
0001
0100
,
1000
0001
0100
1000
0100
0010
1000
0001
0010
0100
0001
0100
0001
0100
1000
0001
,
0010
1000
0010
0100
1000
0001
0100
0010
0001
0010
0100
0001
0010
1000
0010
1000
,
0010
0100
0001
0100
1000
0010
0001
0010
0100
0001
1000
0010
0100
1000
0100
0010
,
1000
0001
0010
0001
0010
0100
0001
0100
1000
0100
1000
0001
0100
0010
0001
0010
,
0001
0010
0100
0010
1000
0010
0001
0010
0100
0001
0010
1000
0010
0100
0001
0100
,
0010
0001
1000
0010
0100
1000
0100
0001
1000
0100
0010
1000
0010
0100
0010
1000
,
0010
0100
0010
0100
0001
0100
1000
0010
0100
0001
1000
0010
0100
1000
0100
0010
,
1000
0010
0001
0010
1000
0100
0001
0100
1000
0001
0010
0100
1000
0010
0001
0010
,
0001
0010
1000
0100
0010
1000
0010
0100
0001
0100
0010
1000
0010
0001
1000
0100
,
0001
0100
0010
0001
0010
0100
0010
1000
0010
1000
0010
1000
0010
0100
1000
0001
,
0010
0100
0001
0100
1000
0100
1000
0010
0001
0010
1000
0010
0100
0001
0010
1000
,
0010
0100
0001
0100
1000
0001
0010
0100
1000
0001
0010
0100
1000
0001
0010
0100
,
1000
0001
0100
0010
0001
0010
1000
0100
0001
0100
1000
0010
0001
0010
0100
0001
,
1000
0100
0001
0100
1000
0001
0100
1000
0100
0010
1000
0001
0100
1000
0100
0010
,
0001
0010
0100
1000
0100
0010
1000
0100
0010
1000
0010
0100
0001
0100
1000
0010
,
0001
0010
0100
0001
1000
0001
0010
1000
0010
1000
0010
0001
0100
0010
0001
0010
,
0100
0001
1000
0010
1000
0001
0100
0001
1000
0010
0100
1000
0100
0001
0010
0100
,
1000
0001
0010
0100
1000
0010
0100
0010
1000
0010
0001
0010
1000
0100
0010
0001
,
0010
0001
0100
1000
0100
0001
0010
0001
0010
0100
1000
0010
0001
0010
1000
0100
,
0001
0100
0010
0100
1000
0001
1000
0010
0001
0010
0100
1000
0100
0001
1000
0001
,
1000
0001
1000
0001
0010
1000
0010
0100
1000
0001
1000
0100
0001
0100
0010
1000
,
0010
1000
0010
0100
0010
1000
0010
0100
1000
0001
0100
0001
0010
0001
0100
0010
,
0001
0010
0100
0010
0001
0010
0100
0010
0001
0010
0100
0010
0001
0010
1000
0001
,
0010
1000
0010
0001
1000
0010
0001
0010
1000
0100
0010
0001
1000
0010
0001
0010
,
0100
0010
0001
0010
0100
1000
0100
1000
0100
0001
0010
0100
1000
0010
0100
1000
,
0100
0001
0010
1000
0010
0001
1000
0010
1000
0001
1000
0010
0001
0010
1000
0001
,
0100
1000
0100
0010
0001
0010
0100
1000
0100
0010
1000
0001
0100
1000
0100
0010
,
1000
0100
0010
0100
1000
0001
0100
0010
0001
0010
0100
0001
0100
0010
0001
0010
,
0100
1000
0100
0001
0010
1000
0010
0001
0010
1000
0010
0001
0100
1000
0100
0001
,
0010
0001
1000
0100
1000
0010
0100
0001
0010
1000
0010
0100
0010
1000
0010
0100
,
0001
0100
1000
0001
0100
1000
0100
0010
0001
0010
0100
0001
0010
0100
0001
0100
,
0001
0100
1000
0010
0100
1000
0100
1000
0100
1000
0100
0001
1000
0100
1000
0010
,
0001
0010
0001
0010
0001
0010
1000
0010
0001
0010
0100
0010
1000
0100
0001
0100
,
1000
0010
0001
0010
0100
1000
0100
0010
0100
1000
0100
0010
0001
0010
1000
0010
,
1000
0100
0010
0001
0100
0010
0001
0010
1000
0001
0010
0001
1000
0100
0001
0100
,
0010
0001
0010
0100
0001
0100
1000
0001
0100
0010
1000
0010
0100
1000
0100
0001
,
1000
0010
1000
0100
0001
0100
0010
0001
0100
0010
0001
0010
0100
1000
0100
0010
,
1000
0100
0001
0100
1000
0001
0100
1000
0100
0010
0001
0010
1000
0100
1000
0100
,
0010
0100
1000
0001
0100
0010
1000
0100
0001
0100
0001
0100
1000
0001
0100
0010
,
1000
0001
0010
0001
1000
0010
0001
0010
1000
0010
0001
0010
0100
0001
0010
0100
,
1000
0001
0010
0100
1000
0001
1000
0010
0100
1000
0100
0001
1000
0001
0010
0100
,
1000
0010
1000
0001
0010
0001
0010
0100
0010
1000
0010
0100
1000
0010
0001
0010
,
1000
0100
0001
0100
0001
0100
0010
0100
1000
0001
0100
0010
1000
0001
0010
1000
,
0010
0100
0010
0001
0100
0010
0001
0010
0100
0001
0100
1000
0100
0010
0001
0010
,
1000
0001
0100
0001
0010
1000
0010
0001
0100
1000
0100
0001
1000
0010
0100
0010
,
1000
0010
0100
0001
0100
0010
1000
0100
0010
1000
0010
0001
0100
0001
1000
0100
,
0010
1000
0010
0100
1000
0001
0100
0010
1000
0100
0010
1000
0010
0001
1000
0001
,
0100
0010
1000
0001
0010
1000
0010
0100
0001
0100
0010
0001
0010
0001
0100
0010
,
0001
0010
0100
0001
1000
0100
0010
1000
0010
0001
1000
0001
0010
0100
1000
0100
,
0010
1000
0010
0001
0100
1000
0100
0010
0001
0010
0001
0010
0100
0001
0100
1000
,
0100
0010
0100
0001
0010
1000
0010
0001
0100
1000
0100
0001
0010
1000
0010
1000
,
0010
0001
0100
1000
0100
0010
1000
0100
0010
0001
0100
1000
0100
0010
0100
0001
,
0010
0100
1000
0001
0010
1000
0010
0100
0010
1000
0010
0100
0001
0100
0010
1000
,
0010
0001
0100
1000
0100
0010
0001
0010
0100
0001
0010
1000
0010
1000
0010
0001
,
0100
0010
1000
0001
1000
0010
0100
0001
1000
0010
0001
0010
1000
0001
0100
0010
,
0001
0010
0100
0010
1000
0001
0100
0010
0001
0010
0100
1000
0100
0001
1000
0100
,
0010
1000
0010
0001
0010
1000
0010
0100
0001
0100
1000
0100
1000
0100
0010
0001
,
0010
0100
1000
0010
0100
0001
1000
0010
1000
0001
1000
0010
0001
0010
0100
1000
,
0100
0010
0001
0010
1000
0100
1000
0010
0001
0010
1000
0010
0001
0010
1000
0010
,
0001
0010
1000
0001
0100
1000
0100
0010
0001
0010
1000
0001
0100
1000
0100
0010
,
0100
1000
0100
0010
1000
0100
0001
0100
1000
0010
0001
0010
0100
0010
0001
0010
,
0100
1000
0100
0001
1000
0100
1000
0001
0010
1000
0010
0100
1000
0010
0001
0010
,
1000
0001
0100
0010
0001
0010
0001
0010
0001
0010
1000
0010
1000
0100
0010
1000
,
0010
0100
1000
0001
0010
0001
0100
1000
0100
0001
0010
1000
0010
0001
0100
1000
,
0100
0010
0001
0010
0100
0010
0001
0010
0100
1000
0100
0010
1000
0100
1000
0100
,
0010
0001
1000
0100
0001
0100
0010
0001
1000
0010
0001
0010
0001
0010
1000
0001
,
0010
0001
1000
0010
0100
0010
1000
0100
0010
0001
0010
0001
0100
1000
0100
1000
,
0100
0001
1000
0100
0001
0100
0010
1000
0010
0100
0001
0100
0010
0001
0100
1000
,
0100
0010
0001
0010
1000
0010
0100
1000
0100
0001
1000
0010
0100
1000
0100
0010
,
0100
0001
1000
0100
0010
1000
0010
0100
1000
0010
0100
1000
0100
0010
0001
0010
,
0100
0001
1000
0100
0010
1000
0010
0001
1000
0010
0100
0010
0100
1000
0100
0001
,
0010
1000
0010
0001
0100
0010
0001
0010
0001
0010
1000
0100
0010
0100
0010
0001
,
0010
0100
0001
0100
0010
1000
0010
0001
0100
0010
1000
0100
0010
0100
0010
0001
,
0010
1000
0010
0001
0100
1000
0100
1000
0100
0010
0100
0001
1000
0100
0001
0100
,
1000
0010
0100
0001
1000
0100
0010
1000
0010
0001
0100
0001
0100
1000
0100
0010
,
0100
0001
0010
1000
0010
0100
0001
0100
1000
0010
0100
1000
0100
0010
0001
0010
,
0100
1000
0100
0010
0001
0010
0001
0010
0100
1000
0100
0010
1000
0010
0100
0001
,
0010
1000
0010
0100
0001
0100
0010
0100
0001
0100
1000
0100
0001
0100
1000
0010
,
0100
1000
0100
0001
0010
1000
0010
1000
0010
0001
0100
1000
0100
0001
0010
1000
,
0010
0100
0001
0100
0010
0001
0100
0001
1000
0100
0001
0100
0010
0001
0100
1000
,
0100
0001
0100
1000
0100
0010
0001
0010
0100
0001
0010
0100
0001
0100
0001
0100
,
0010
0100
0001
0100
0001
0100
1000
0010
1000
0001
0100
0010
1000
0001
0100
0010
,
1000
0010
1000
0001
0010
1000
0010
0001
0100
1000
0100
0010
1000
0100
1000
0001
,
0010
0100
0001
0100
1000
0010
0100
1000
0100
0001
0010
1000
0010
0100
1000
0001
,
0010
0001
1000
0100
1000
0001
0100
0001
0010
0100
0001
0100
1000
0001
0010
1000
,
0010
1000
0010
0001
1000
0010
0001
0010
0001
0010
1000
0100
0010
0100
0001
0100
,
1000
0001
0010
1000
0010
0001
0100
1000
0100
0010
0001
0010
1000
0001
1000
0100
,
0001
0100
0010
0001
0010
0100
0001
0100
1000
0001
0010
1000
0010
0100
0010
1000
,
0010
0100
0001
0100
0010
0001
1000
0010
0001
0010
1000
0001
0010
0100
1000
0001
,
0010
1000
0010
0001
0100
0010
0100
1000
0100
0010
1000
0001
0100
0010
1000
0100
,
0001
0100
0010
0001
1000
0100
0010
0100
1000
0010
0100
0001
0010
1000
0010
0100
,
0010
1000
0010
0100
1000
0001
1000
0010
0100
0010
1000
0001
0010
0001
0010
1000
,
0010
0100
1000
0010
0001
0010
0100
1000
0100
1000
0100
0001
0010
1000
0010
0100
,
0001
0100
1000
0001
1000
0010
0100
1000
0100
0001
1000
0010
0001
0010
0001
0010
,
0001
0010
0100
1000
0100
0001
1000
0001
0010
0100
0001
0100
0010
0001
0100
1000
,
0100
1000
0100
0001
1000
0010
0001
0010
1000
0001
0010
1000
0010
0001
0100
1000
,
0100
0001
0100
0010
0001
0010
1000
0010
0001
0010
0100
0010
1000
0100
0010
0001
,
0100
1000
0100
0010
1000
0100
0010
0100
0001
0100
0010
1000
0010
0001
0100
1000
,
0100
0001
0010
0100
1000
0001
0010
0100
0010
1000
0010
1000
0010
0001
0010
0100
,
1000
0100
0001
0100
0010
0001
1000
0001
1000
0010
0001
0010
0100
1000
0100
0001
,
1000
0100
0010
0001
1000
0100
0010
1000
0010
0100
1000
0001
1000
0010
0100
1000
,
0100
0001
1000
0010
0001
0010
1000
0010
0001
0010
1000
0001
0100
1000
0100
0010
,
1000
0001
0100
1000
0100
0001
0010
0100
0010
1000
0010
0001
0010
1000
0010
0100
,
1000
0010
0100
0001
1000
0010
0100
0010
1000
0010
0001
0010
0100
1000
0100
0001
,
1000
0010
0001
0010
0100
0001
0010
1000
0010
1000
0010
0100
1000
0001
0010
1000
,
0010
0001
0100
0010
0001
0010
0100
0001
1000
0010
0001
0010
0100
1000
0100
0010
,
0001
0010
0100
1000
0100
0001
0010
0001
1000
0100
0001
0100
0010
0001
1000
0100
,
1000
0001
1000
0010
0100
1000
0100
0010
1000
0001
0100
0001
1000
0010
0001
0010
,
1000
0010
0001
0010
0100
1000
0100
0010
0001
0010
1000
0100
0001
0100
1000
0010
,
0100
0001
1000
0001
0010
1000
0010
0001
0100
0001
1000
0001
0100
1000
0100
0001
,
0010
1000
0010
0001
1000
0001
1000
0010
0001
0010
0100
1000
0100
0010
0001
0010
,
1000
0010
0100
1000
0100
0001
0010
0001
0010
0100
0001
0100
1000
0010
0100
1000
,
0100
0010
1000
0010
0001
0010
0001
0010
1000
0001
0010
0100
0001
0100
0001
0100
,
1000
0001
0010
1000
0010
1000
0010
0100
1000
0001
0100
0010
1000
0100
0010
1000
,
0010
0001
0010
1000
0010
1000
0010
0100
0010
0100
0001
0100
0001
0100
1000
0010
,
1000
0100
0010
0001
1000
0100
0001
0100
0001
0100
0010
1000
0010
1000
0010
0001
,
0100
0010
1000
0001
0010
0100
1000
0100
0010
1000
0010
0100
0010
1000
0010
0001
,
0010
0001
0010
1000
0010
0100
1000
0010
0100
0001
0010
0100
1000
0010
0100
1000
,
0100
0001
1000
0010
1000
0010
0001
0010
1000
0001
0010
1000
0010
0100
0001
0100
,
0010
0001
1000
0010
0001
0010
0001
0010
0100
0001
1000
0010
0100
0001
1000
0100
,
0010
0100
0010
0100
0001
0100
1000
0001
0010
1000
0010
0100
1000
0010
1000
0100
,
0010
0100
0001
0100
1000
0010
0001
0010
0100
0001
0010
1000
0010
0001
0010
0100
,
1000
0010
0001
0010
1000
0001
1000
0010
0100
0001
0010
1000
0010
0001
1000
0100
,
0001
0100
1000
0010
0001
0010
0100
0001
0010
0100
0001
0100
0010
1000
0010
0001
,
1000
0100
0001
0100
1000
0001
0010
0100
0010
1000
0010
0100
0001
0100
0001
0100
,
0010
0100
0001
0100
0010
1000
0010
0001
0010
1000
0010
0100
1000
0100
1000
0001
,
0010
0001
0100
0010
1000
0010
0001
0010
0100
1000
0100
1000
0100
0010
0001
0010
,
0100
0001
1000
0100
0010
0001
0100
1000
0100
0001
0100
1000
0100
0001
0100
1000
,
0100
1000
0100
0001
1000
0100
0010
1000
0010
1000
0010
0100
0001
0100
1000
0001
,
0100
0001
1000
0010
0100
0001
1000
0100
1000
0010
0001
0010
1000
0100
0001
0100
,
0001
0100
0010
0001
0100
0001
1000
0010
0001
0010
0100
0001
1000
0010
0001
0010
,
0100
1000
0100
0010
1000
0001
0100
1000
0100
0010
0100
1000
0100
0010
0001
0010
,
1000
0001
0100
1000
0100
0001
1000
0100
1000
0010
0001
0010
1000
0010
0100
0001
,
0010
1000
0010
0001
0100
1000
0100
0010
0001
0010
0100
0010
0001
0010
0100
0001
,
0010
1000
0010
1000
0010
0100
0001
0100
1000
0001
0100
0010
0001
0010
0100
1000
,
0100
0001
0010
0001
0010
1000
0010
0100
0010
1000
0010
0001
1000
0001
0010
0100
,
0001
0100
1000
0100
0001
0100
1000
0001
0100
1000
0100
0001
0010
1000
0010
0100
,
0001
0100
0010
0001
0100
1000
0100
0001
1000
0100
0001
0100
1000
0010
1000
0001
,
0010
0100
0001
0100
0010
0100
1000
0010
0001
0010
1000
0100
0001
0100
1000
0001
,
0010
0001
0100
0001
1000
0100
0010
1000
0010
0001
0100
1000
0100
1000
0100
0010
,
0001
0010
1000
0001
0010
0100
0001
0100
0010
0001
1000
0001
1000
0010
0001
0010
,
0100
0001
0100
0010
0100
0010
0100
0001
0100
0010
1000
0001
0010
1000
0010
0100
,
0001
0100
0010
0001
0100
0010
0001
0010
1000
0010
0100
0001
1000
0010
0100
1000
,
0100
0010
1000
0010
1000
0001
1000
0010
0100
0001
0100
0010
1000
0001
0100
1000
,
0100
0010
0001
0010
0100
0001
0010
1000
0010
0100
1000
0010
0001
0010
0100
1000
,
0100
0001
1000
0010
0001
0010
1000
0001
0100
0010
0001
0010
0100
1000
0100
0001
,
1000
0010
0100
1000
0100
0010
0001
0010
1000
0001
0010
1000
0010
0100
1000
0010
,
0001
0010
0100
0001
1000
0100
0001
0100
1000
0100
0010
0001
0100
1000
0100
0010
,
0001
0010
0100
0001
1000
0010
0001
0010
0100
1000
0100
0001
1000
0010
0100
0001
,
1000
0100
0010
0100
1000
0001
0010
0001
1000
0001
0010
1000
0010
0001
0010
1000
,
0010
0100
1000
0010
0100
0001
0010
1000
0010
0100
0001
0100
1000
0010
0100
1000
,
0100
0010
0001
0010
1000
0001
0010
0100
1000
0100
0010
0001
1000
0010
0001
0010
,
0100
0001
0010
0100
1000
0010
0001
0010
0100
0001
0100
0010
0001
0010
1000
0100
,
1000
0010
0100
1000
0100
0001
1000
0100
0010
0001
0100
1000
0100
1000
0100
1000
,
0100
0010
1000
0001
0100
0010
0001
0010
0001
0010
1000
0001
1000
0001
0100
0010
,
0100
0001
0010
0100
0001
0100
0010
0001
1000
0001
0010
1000
0010
0100
1000
0100
,
0001
0100
0010
1000
0010
0001
0100
1000
0100
0001
0010
0001
1000
0001
1000
0001
;
