#VERSION:0.83;
#TITLE:will;
#SUBTITLE:;
#ARTIST:NAOKI;
#TITLETRANSLIT:;
#SUBTITLETRANSLIT:;
#ARTISTTRANSLIT:;
#GENRE:;
#ORIGIN:;
#CREDIT:;
#BANNER:banner.png;
#BACKGROUND:background.png;
#PREVIEWVID:;
#JACKET:cdjacket.png;
#CDIMAGE:;
#DISCIMAGE:;
#LYRICSPATH:;
#CDTITLE:Cdtitle.png;
#MUSIC:will.mp3;
#OFFSET:0.423000;
#SAMPLESTART:43.096001;
#SAMPLELENGTH:15.880000;
#SELECTABLE:YES;
#BPMS:0.000=145.010;
#STOPS:;
#DELAYS:;
#WARPS:;
#TIMESIGNATURES:0.000=4=4;
#TICKCOUNTS:0.000=4;
#COMBOS:0.000=1;
#SPEEDS:0.000=1.000=0.000=0;
#SCROLLS:0.000=1.000;
#FAKES:;
#LABELS:0.000=Song Start;
#BGCHANGES:;
#KEYSOUNDS:;
#ATTACKS:
;

//---------------dance-single - ----------------
#NOTEDATA:;
#CHARTNAME:;
#STEPSTYPE:dance-single;
#DESCRIPTION:;
#CHARTSTYLE:;
#DIFFICULTY:Beginner;
#METER:2;
#RADARVALUES:0.147274,0.172144,0.077805,0.000000,0.000000,106.000000,98.000000,8.000000,0.000000,0.000000,0.000000,0.000000,0.000000,0.000000,0.147274,0.172144,0.077805,0.000000,0.000000,106.000000,98.000000,8.000000,0.000000,0.000000,0.000000,0.000000,0.000000,0.000000;
#CREDIT:;
#NOTES:
// measure 0
0000
0000
0000
0000
,  // measure 1
0000
0000
0000
0000
,  // measure 2
0000
0000
0000
0000
,  // measure 3
0010
0000
0010
0000
,  // measure 4
0100
0000
0100
0000
,  // measure 5
0001
0000
0001
0000
,  // measure 6
1000
0000
1000
0000
,  // measure 7
0001
0000
0001
0000
,  // measure 8
1000
0000
0010
0000
,  // measure 9
1001
0000
0000
0000
,  // measure 10
0000
0000
0000
0000
,  // measure 11
0010
0000
0010
0000
,  // measure 12
0010
0000
0000
0000
,  // measure 13
0100
0000
0100
0000
,  // measure 14
0100
0000
0100
0000
,  // measure 15
0100
0000
1000
0000
,  // measure 16
1000
0000
1000
0000
,  // measure 17
1000
0000
1000
0000
,  // measure 18
1001
0000
0000
0010
,  // measure 19
0000
0010
0000
0000
,  // measure 20
1000
0000
1000
0000
,  // measure 21
1000
0000
0001
0000
,  // measure 22
0001
0000
0001
0000
,  // measure 23
1000
0000
1000
0000
,  // measure 24
0001
0000
0000
0000
,  // measure 25
1001
0000
0000
0000
,  // measure 26
1001
0000
0000
0000
,  // measure 27
1001
0000
0001
0000
,  // measure 28
0001
0000
0100
0000
,  // measure 29
0100
0000
0100
0000
,  // measure 30
0100
0000
1000
0000
,  // measure 31
1000
0000
0001
0000
,  // measure 32
0001
0000
1000
0000
,  // measure 33
0010
0000
0010
0000
,  // measure 34
0100
0000
0100
0000
,  // measure 35
0110
0000
0000
0000
,  // measure 36
0000
0000
0000
0000
,  // measure 37
0000
0000
0000
0000
,  // measure 38
0000
0000
0000
0000
,  // measure 39
1000
0000
1000
0000
,  // measure 40
1000
0000
0100
0000
,  // measure 41
0100
0000
0100
0000
,  // measure 42
0010
0000
0010
0000
,  // measure 43
0010
0000
0001
0000
,  // measure 44
0001
0000
0001
0000
,  // measure 45
0001
0000
1000
0000
,  // measure 46
1000
0000
0001
0000
,  // measure 47
1000
0000
0010
0000
,  // measure 48
0001
0000
0100
0000
,  // measure 49
0010
0000
0010
0000
,  // measure 50
0100
0000
0100
0000
,  // measure 51
0101
0000
0010
0000
,  // measure 52
0010
0000
0100
0000
,  // measure 53
0100
0000
0001
0000
,  // measure 54
0001
0000
0010
0000
,  // measure 55
0100
0000
0100
0000
,  // measure 56
0001
0000
0001
0000
,  // measure 57
0100
0000
0100
0000
,  // measure 58
0010
0000
0010
0000
,  // measure 59
0110
0000
0000
0000
;

//---------------dance-single - ----------------
#NOTEDATA:;
#CHARTNAME:;
#STEPSTYPE:dance-single;
#DESCRIPTION:;
#CHARTSTYLE:;
#DIFFICULTY:Easy;
#METER:4;
#RADARVALUES:0.213964,0.323621,0.097256,0.116708,0.000000,154.000000,144.000000,10.000000,12.000000,0.000000,0.000000,0.000000,0.000000,0.000000,0.213964,0.323621,0.097256,0.116708,0.000000,154.000000,144.000000,10.000000,12.000000,0.000000,0.000000,0.000000,0.000000,0.000000;
#CREDIT:;
#NOTES:
0000
0000
0000
0000
,
0000
0000
0000
0000
,
0000
0000
0000
0000
,
0010
0000
0010
0000
,
0100
0000
0100
0000
,
1010
1000
1000
1000
,
1100
0100
0100
0100
,
0001
0001
1000
1000
,
0100
0100
0010
0010
,
2000
0000
0000
0000
,
0000
0000
3000
0000
,
1000
0000
1000
0000
,
1000
0100
1000
0100
,
0100
0000
0010
0000
,
0001
0100
0001
0010
,
0010
0000
0010
0000
,
0100
0000
0001
1000
,
0001
0010
0010
0000
,
1000
0100
0010
0000
,
0100
0001
0100
0000
,
0100
1000
0100
0000
,
0010
0010
0001
0000
,
1000
1000
0001
0000
,
0001
0000
1000
0000
,
1001
0000
0000
0000
,
2000
0000
0200
0000
,
3300
0000
0010
0010
,
0010
0000
1000
0100
,
1000
0000
0001
0001
,
0010
0010
0010
0000
,
1000
1000
1000
0000
,
0100
0010
0100
0000
,
0001
0100
0101
0000
,
0001
1000
0001
1000
,
0001
1000
0001
0000
,
2002
0000
0000
0000
,
0000
0000
3003
0000
,
0000
0000
0000
0000
,
0000
0000
0000
0000
,
0020
0000
0000
0030
,
0002
0000
0000
0003
,
0200
0000
0000
0300
,
2000
3000
0020
0030
,
1001
0000
0001
0010
,
0001
0000
1000
0100
,
0001
0001
0001
0000
,
0100
0100
0100
0000
,
0010
0100
0010
0000
,
1000
0010
1010
0000
,
0001
0001
0010
0010
,
1000
0001
1000
0100
,
0100
0000
0010
0000
,
0001
0000
0001
0001
,
1000
1000
1000
0000
,
0100
0100
0100
0000
,
0010
0000
0110
0000
,
0001
0000
1001
0000
,
0010
0010
0010
0100
,
0100
0001
1000
0001
,
2002
0000
0000
0000
,
0000
0000
3003
0000
;

//---------------dance-single - ----------------
#NOTEDATA:;
#CHARTNAME:;
#STEPSTYPE:dance-single;
#DESCRIPTION:;
#CHARTSTYLE:;
#DIFFICULTY:Medium;
#METER:6;
#RADARVALUES:0.270929,0.380880,0.175062,0.243141,0.000000,195.000000,177.000000,18.000000,25.000000,0.000000,0.000000,0.000000,0.000000,0.000000,0.270929,0.380880,0.175062,0.243141,0.000000,195.000000,177.000000,18.000000,25.000000,0.000000,0.000000,0.000000,0.000000,0.000000;
#CREDIT:;
#NOTES:
0000
0000
0000
0000
,
0000
0000
0000
0000
,
0000
0000
0000
0000
,
0010
1000
0010
0000
,
0100
0001
0100
0000
,
2000
0000
0010
3000
,
0200
0000
0001
0300
,
0020
0000
1000
1030
,
0002
0100
0100
0003
,
2002
0000
0000
0000
,
0000
0000
0000
0000
0000
3003
0000
0000
,
0010
0010
0100
1000
,
1000
0000
0001
1000
,
0001
0010
0100
0100
,
0100
0000
0100
0001
,
0100
0000
1000
0100
,
1000
0000
1100
0101
,
0010
0000
0100
0001
,
0010
0000
0000
0100
0100
0000
0000
0000
,
0200
0000
0320
0000
,
1030
0000
0000
0100
0010
0000
0000
0000
,
0002
0000
0000
0000
0203
0000
0000
0300
,
0001
0000
0000
0100
0100
0000
0000
0000
,
1000
0100
1000
0010
,
1000
0100
0010
0001
,
0002
0000
0000
1000
2000
0000
0000
0000
,
3003
0000
0000
0000
0100
0000
1000
0010
,
1000
0000
0000
0000
0001
0000
0001
0100
,
0001
0000
0100
1000
,
0100
1000
0010
0000
,
0100
0001
0100
0000
,
1000
1000
0100
0010
,
0010
0010
0001
0001
,
1100
1000
1001
0100
,
0002
0003
2000
3000
,
0102
0000
0100
0000
,
0000
1000
1003
0000
,
0010
0000
0010
0000
,
1000
0100
0010
0000
,
1001
0000
0010
0100
,
0110
0000
0100
0001
,
0101
0000
0100
0001
,
0200
0000
0002
0303
,
0101
0000
0000
0000
0001
0000
0001
0010
,
0100
0000
2000
3001
,
0200
0010
0000
0301
,
0002
0010
1000
0003
,
1000
1000
0010
0010
,
0100
0100
0001
0001
,
1100
0101
1001
0010
,
0010
0100
0100
0000
,
1001
0000
0000
0000
0100
0000
0010
0100
,
0010
0000
0020
0130
,
0002
0010
1000
0003
,
0200
1000
1000
0300
,
0001
0001
0010
0010
,
0100
0100
1000
1000
,
0011
0011
1100
1100
,
0002
0000
0200
0303
,
0001
0001
0000
0100
0100
0000
0010
0010
,
0000
1000
1000
0000
0000
0000
0000
0000
;

//---------------dance-single - ----------------
#NOTEDATA:;
#CHARTNAME:;
#STEPSTYPE:dance-single;
#DESCRIPTION:;
#CHARTSTYLE:;
#DIFFICULTY:Hard;
#METER:8;
#RADARVALUES:0.454326,0.498074,0.350123,0.106982,0.136159,327.000000,291.000000,36.000000,11.000000,0.000000,0.000000,0.000000,0.000000,0.000000,0.454326,0.498074,0.350123,0.106982,0.136159,327.000000,291.000000,36.000000,11.000000,0.000000,0.000000,0.000000,0.000000,0.000000;
#CREDIT:;
#NOTES:
0000
0000
0000
0000
,
0000
0000
0000
0000
,
0000
0000
0000
0000
,
0200
0000
0001
0300
,
0020
0100
1000
0030
,
0102
0000
1000
0003
,
2100
0001
0001
3000
,
0002
0010
1000
0013
,
0102
0100
1000
0103
,
0220
0000
0000
0000
,
0000
0000
0000
0000
0000
0330
0000
0000
,
1000
0100
1000
0010
0010
0000
0001
0100
,
0001
0010
0011
1010
,
0010
0100
0010
1000
1000
0000
0010
1000
,
0010
1000
1100
0101
,
0010
0000
1000
0000
1000
0000
0001
0000
0000
0000
0010
0001
0010
0000
0100
0000
,
0001
0100
0101
1100
,
0001
0010
0001
0100
0100
1000
0100
1000
,
0010
0000
0000
1000
1001
0000
0000
0000
,
1000
0000
0000
0100
0000
0000
0010
0000
0001
0000
0000
0010
0000
0000
0001
0000
,
1000
0000
0000
0010
0000
0000
0100
0000
0001
0000
0000
0000
0000
0000
0000
0000
,
0001
0000
0000
0010
0000
0000
0001
0000
1000
0000
0000
0100
0000
0000
0001
0000
,
0010
0000
0000
0001
0000
0000
0010
0000
0100
0000
0000
0000
0000
0000
0000
0000
,
1000
0100
0010
0001
1000
0010
0100
0001
,
1000
0000
0000
0001
0000
0000
0000
0000
0010
0000
0000
0010
0000
0000
0100
0000
,
0001
0000
0000
0100
0000
0000
0010
0000
2000
0000
0000
0000
0000
0000
3000
0000
,
1001
0000
0000
1000
0100
1000
0100
0010
,
0011
0000
0000
0001
0010
0001
0010
0100
,
1100
0000
0101
1100
,
0001
0100
0000
0100
0010
0000
0000
0000
0010
0000
1000
0000
0010
0000
1000
0000
,
0001
0010
0100
0000
1100
0000
1001
0000
,
1000
0000
0100
0000
0100
0010
0001
0000
,
0001
0000
0010
0000
0010
0100
1000
0000
,
0001
0010
0100
1000
0001
0100
0010
1000
,
0010
0100
0010
0100
0010
0000
0100
0000
,
0110
0000
1001
0000
,
1000
0000
0000
0010
0000
0000
1000
0000
1010
0000
0000
0000
0000
0000
0000
0000
,
1001
0000
0000
0100
0101
0000
0000
0000
,
0001
0000
0000
0100
0000
0000
0001
0000
0101
0000
0000
0000
0000
0000
0000
0000
,
0001
0000
0000
0100
0000
0000
0010
0000
1000
0000
0000
0010
0000
0000
0001
0000
,
0010
0000
0000
0100
0000
0000
0100
0000
0001
0000
0000
0100
0000
0000
1000
0000
,
1000
0000
0000
0001
0000
0000
0010
0000
0100
0000
0000
1000
0000
0000
0100
0000
,
0020
0000
0000
1000
2000
0000
3030
0000
,
1100
0000
0000
0001
0100
0001
1000
0010
,
1010
0000
0101
1100
,
0001
0010
0000
0010
0100
0000
0000
0000
0100
0000
1000
0000
0100
0000
0001
0000
,
0010
0100
1000
0000
1010
0000
0011
0000
,
0100
0000
0001
0000
0001
0100
0100
0000
,
0001
0000
0100
0000
0001
0010
0100
0000
,
0010
0001
0010
0001
0010
0100
1000
1000
,
0100
0001
0100
0010
0001
0000
1000
0000
,
1100
0000
0000
0001
0100
0001
0010
0100
,
1100
0000
0011
1100
,
0010
0100
0000
0100
1000
0000
0000
0000
0010
0000
0001
0000
0010
0000
1000
0000
,
0010
0001
0010
0000
0101
0000
1001
0000
,
0010
0000
0100
0000
1000
0100
0010
0000
,
1000
0000
0010
0000
0100
0010
0100
0000
,
1000
0100
1000
0100
0010
0001
0010
0001
,
0100
1000
0100
0010
0100
0000
0001
0000
,
0001
0010
0001
0000
0000
0000
0100
0010
0100
0000
0000
0000
1000
0100
1000
0000
,
0000
0000
0100
0010
0100
0000
0000
0000
0000
0000
0000
0000
0000
0000
0000
0000
;

//---------------dance-single - ----------------
#NOTEDATA:;
#CHARTNAME:;
#STEPSTYPE:dance-single;
#DESCRIPTION:;
#CHARTSTYLE:;
#DIFFICULTY:Challenge;
#METER:9;
#RADARVALUES:0.482114,0.615268,0.330672,0.097256,0.282044,347.000000,313.000000,34.000000,10.000000,0.000000,0.000000,0.000000,0.000000,0.000000,0.482114,0.615268,0.330672,0.097256,0.282044,347.000000,313.000000,34.000000,10.000000,0.000000,0.000000,0.000000,0.000000,0.000000;
#CREDIT:;
#NOTES:
0000
0000
0000
0000
,
0000
0000
0000
0000
,
0000
0000
0000
0000
,
2000
0100
0001
3000
,
0200
0010
0001
0300
,
0102
0000
1000
0003
,
2100
0001
0001
3000
,
0002
0010
1000
0013
,
0120
0100
1000
0130
,
0220
0000
0000
0000
,
0000
0000
0000
0000
0000
0330
0000
0000
,
1000
0100
0000
0100
1000
0000
0001
0000
0001
0000
0000
0000
1000
0000
0100
0000
,
1000
0010
0101
1010
,
0001
0100
0001
0100
0100
0010
0010
1000
,
0010
1000
1100
0101
,
0010
0000
1000
0000
1000
0000
0001
0000
0001
0000
0010
0100
0010
0000
0100
0000
,
0001
0100
0101
1010
,
1000
0010
0100
0001
0100
1000
0100
1000
,
0010
0000
0000
1000
1010
0000
0000
0000
,
0001
0000
0000
0010
0000
0000
0100
0000
1000
0000
0000
0010
0000
0000
0100
0000
,
0010
0000
0000
1000
0000
0000
0100
0000
0001
0000
0000
0000
1001
0000
0000
0000
,
0001
0000
0000
0010
0000
0000
0001
0000
1000
0000
0000
0100
0000
0000
0001
0000
,
0010
0000
0000
0001
0000
0000
0010
0000
0100
0000
0000
0000
0110
0000
0000
0000
,
1000
0000
0000
0100
0000
0000
0010
0000
0001
0000
0000
0100
0000
0000
0001
0000
,
0100
0000
0000
0100
0000
0000
0000
0000
0001
0000
0000
0001
0000
0000
0100
0000
,
0010
0000
0000
1000
0000
0000
1000
0000
2000
0000
0000
0000
0000
0000
3000
0000
,
1100
0000
0000
0000
0000
0000
1000
0000
0100
1000
0100
1000
0100
0000
0010
0000
,
0001
0000
0000
0010
0100
0001
0010
0100
,
0101
0000
0100
0000
0001
0001
0010
0100
,
0001
0000
0000
0001
0000
0000
0010
0000
0000
0010
0000
1000
0000
0000
1000
0000
,
0001
0000
0000
0010
0000
0000
0010
0000
0100
0000
0000
0000
1001
0000
0000
0000
,
1000
0000
0000
0100
0000
0000
0100
0000
0100
0000
0001
0000
0000
0000
0001
0000
,
0001
0000
0000
0001
0000
0000
0010
0000
0100
0000
0000
0100
0000
0000
0001
0000
,
0001
0010
0100
1000
0001
0100
0010
1000
,
0001
0010
0001
0010
0001
0010
0001
0010
0001
0000
0100
0000
0100
0000
0000
0000
,
0110
0000
0110
0000
,
0100
0000
0000
0010
0000
0000
1000
0000
0110
0000
0000
0000
0000
0000
0000
0000
,
1001
0000
0000
1000
0101
0000
0000
0000
,
0001
0000
0000
0100
0000
0000
0001
0000
0110
0000
0000
0000
0000
0000
0000
0000
,
0001
0000
0000
0100
0000
0000
0010
0000
1000
0000
0000
1000
0000
0000
0010
0000
,
0100
0000
0000
0010
0000
0000
0001
0000
0010
0000
0000
0100
0000
0000
1000
0000
,
1000
0000
0000
0001
0000
0000
0010
0000
0100
0000
0000
1000
0000
0000
0100
0000
,
0010
0000
0010
1000
2000
0000
3000
0000
,
1010
0000
0000
0001
0010
0100
1000
0100
,
1100
0000
0110
1001
,
0001
0000
0010
0000
0000
0010
0000
0000
0100
0000
0000
1000
0000
0000
0001
0000
,
0000
0010
0000
0000
0100
0000
1000
0000
1100
0000
0000
0000
0011
0000
0000
0000
,
0100
0000
0000
0100
0000
0000
0001
0000
0001
0000
0000
0001
0000
0000
0010
0000
,
0100
0000
0000
0100
0000
0000
1000
0000
0001
0000
0010
0000
0100
0000
0000
0000
,
0001
0010
0100
1000
0010
0100
1000
1000
,
0001
0100
0001
0100
0001
0100
0001
0000
0010
0000
0000
0000
1000
0000
0000
0000
,
1010
0000
0000
0001
0010
0001
0010
0100
,
1100
0000
0101
1010
,
0010
0000
0000
0010
0000
0000
1000
0000
0000
1000
0000
0000
0010
0000
1000
0000
,
0010
0000
0000
0001
0000
0000
0010
0000
0101
0000
0000
0000
1010
0000
0000
0000
,
0010
0000
0000
0010
0000
0000
0010
0000
1000
0000
0000
1000
0000
0000
0100
0000
,
0010
0000
0000
0000
0001
0000
0100
0000
0100
0000
0010
0000
0000
0100
0000
0000
,
0001
0010
0100
1000
0001
0010
0100
1000
,
0100
1000
0100
1000
0100
1000
0100
1000
0100
0000
0000
0000
0001
0000
0000
0000
,
1000
0010
1000
0000
0000
0000
0001
0100
0001
0000
0000
0000
0010
0100
0010
0000
,
0000
0000
0001
0010
0001
0000
0000
0000
0000
0000
0000
0000
0000
0000
0000
0000
;
