#TITLE:escape;
#SUBTITLE:;
#ARTIST:U1 & Krystal B;
#TITLETRANSLIT:;
#SUBTITLETRANSLIT:;
#ARTISTTRANSLIT:;
#GENRE:;
#CREDIT:;
#BANNER:banner.png;
#BACKGROUND:background.jpg;
#LYRICSPATH:;
#CDTITLE:Cdtitle.png;
#MUSIC:escape.mp3;
#OFFSET:2.052000;
#SAMPLESTART:49.145000;
#SAMPLELENGTH:15.580000;
#LASTBEATHINT:2.464835;
#SELECTABLE:YES;
#BPMS:0.000000=140.000000
;
#STOPS:
;
#BGCHANGES:;
#KEYSOUNDS:;
#ATTACKS:;

//---------------dance-single - ----------------
#NOTES:
     dance-single:
     :
     Beginner:
     3:
     0.190999,0.251853,0.062186,0.000000,0.000000,129.000000,123.000000,6.000000,0.000000,0.000000,0.000000,0.190999,0.251853,0.062186,0.000000,0.000000,129.000000,123.000000,6.000000,0.000000,0.000000,0.000000:
// measure 0
0000
0000
0000
0000
,  // measure 1
0000
0000
0000
0000
,  // measure 2
0000
0000
0000
0000
,  // measure 3
0000
0000
0000
0000
,  // measure 4
0000
0000
0000
0000
,  // measure 5
0100
0000
0100
0000
,  // measure 6
0010
0000
0010
0000
,  // measure 7
0001
0000
0010
0000
,  // measure 8
1000
0000
0100
0000
,  // measure 9
1000
0000
1000
0000
,  // measure 10
0100
0000
0100
0000
,  // measure 11
0010
0000
1000
0000
,  // measure 12
0000
0000
0000
0000
,  // measure 13
0100
0000
0001
0000
,  // measure 14
0001
0010
0100
0000
,  // measure 15
0001
0000
0100
0000
,  // measure 16
0100
0010
0001
0000
,  // measure 17
0100
0000
0010
0000
,  // measure 18
0010
0100
1000
1000
,  // measure 19
0000
1100
0000
0101
,  // measure 20
0000
1000
1000
0000
,  // measure 21
0010
0000
1000
0000
,  // measure 22
0010
0100
0010
0100
,  // measure 23
0001
0000
1000
0000
,  // measure 24
0001
0000
0010
0001
,  // measure 25
0001
0000
1000
0000
,  // measure 26
1000
0010
1000
0000
,  // measure 27
0001
0001
0001
0010
,  // measure 28
0010
0010
0010
0000
,  // measure 29
0000
0000
0000
0000
,  // measure 30
0100
0000
0100
0000
,  // measure 31
0010
0000
0010
0000
,  // measure 32
0100
0100
0100
0000
,  // measure 33
0010
0010
0010
0000
,  // measure 34
0001
0000
0001
0000
,  // measure 35
1000
0000
1000
0000
,  // measure 36
0001
0001
0001
0000
,  // measure 37
1000
1000
1000
0001
,  // measure 38
0100
0100
0000
0010
,  // measure 39
0010
1000
0000
0001
,  // measure 40
0010
0100
1000
0000
,  // measure 41
1000
0100
0010
0000
,  // measure 42
1000
0000
1100
0000
,  // measure 43
0100
0000
0101
0000
,  // measure 44
0010
0000
0011
0000
,  // measure 45
0100
0010
0100
0001
,  // measure 46
0001
0000
0100
0000
,  // measure 47
0001
0000
0001
0000
,  // measure 48
0100
0000
0100
0000
,  // measure 49
0010
0000
1000
0100
,  // measure 50
0100
0010
0010
0000
,  // measure 51
0001
0010
0100
0000
,  // measure 52
0100
0100
0001
0000
,  // measure 53
0010
1000
0010
0100
,  // measure 54
1001
0000
0000
0000
;

//---------------dance-single - ----------------
#NOTES:
     dance-single:
     :
     Easy:
     5:
     0.263549,0.307820,0.062186,0.031093,0.000000,178.000000,172.000000,6.000000,3.000000,0.000000,0.000000,0.263549,0.307820,0.062186,0.031093,0.000000,178.000000,172.000000,6.000000,3.000000,0.000000,0.000000:
0000
0000
0000
0000
,
0000
0000
0000
0000
,
0000
0000
0000
0000
,
0000
0002
0000
0103
,
0100
0020
0000
1030
,
1000
0010
1000
0000
,
0001
0001
0001
0000
,
0001
0010
0001
1000
,
0100
1000
0010
0100
,
0001
0010
0001
0000
,
0100
0100
0100
0000
,
0010
1000
0010
1000
,
0000
0000
0010
0010
,
0010
0001
0100
0001
,
1000
0010
0010
0100
,
0100
0001
0100
0001
,
0001
0000
1000
0001
,
0001
0000
1000
1000
,
1001
0000
0010
0000
,
0010
1000
0010
0100
,
0010
0010
0010
0000
,
0001
0010
1000
1000
,
0010
0100
0100
0010
,
0010
1000
0001
1000
,
1000
0100
0001
0100
,
1000
0100
0001
0100
,
1001
0000
0000
0000
,
0010
1000
0100
0001
,
0001
1000
2000
0000
,
0000
0000
0000
3000
,
1000
0010
1000
0000
,
1000
0010
0100
0001
,
1000
0100
0001
0100
,
1000
0100
0001
0100
,
0001
0010
0001
0000
,
1000
0100
0010
1001
,
0001
0010
1000
0100
,
0001
0010
1000
0100
,
0000
0001
0000
0100
,
0000
1000
0000
0010
,
0000
0001
0000
0001
,
0000
0001
0000
0001
,
0010
0001
0010
1000
,
0100
1000
0100
1000
,
0010
0100
0010
0100
,
0010
0110
1001
0000
,
0100
0100
0010
0010
,
1000
0001
1000
0001
,
0100
1000
0100
1000
,
0100
0001
0100
0010
,
0010
0010
0100
0100
,
0001
1000
0001
1000
,
0100
0010
0100
1000
,
0100
0010
0100
1000
,
1001
0000
0000
0000
;

//---------------dance-single - ----------------
#NOTES:
     dance-single:
     :
     Medium:
     7:
     0.383479,0.425584,0.352386,0.062186,0.010364,259.000000,225.000000,34.000000,6.000000,0.000000,0.000000,0.383479,0.425584,0.352386,0.062186,0.010364,259.000000,225.000000,34.000000,6.000000,0.000000,0.000000:
0000
0000
0000
0000
,
0000
0000
0000
0000
,
0000
0000
0000
0000
,
0000
0020
0000
0030
,
0000
0200
0000
0300
,
0010
0000
0100
0000
0010
1000
0010
0000
,
1000
0000
0010
0000
0100
0001
0100
0000
,
1000
0000
0100
0000
0001
0010
0100
0000
,
1000
0000
0010
0100
0010
0000
1000
0000
,
0001
0000
0010
0000
0001
1000
0100
0000
,
0001
0000
0100
0000
0010
0100
0001
0000
,
0001
0100
1000
0100
,
0002
0000
0100
0103
,
1000
0010
0100
1001
,
1000
0100
0010
0000
0010
0100
1000
0100
,
1000
0100
1000
1001
,
0010
0100
1000
0000
0100
0001
0100
0000
,
1000
1010
0010
0100
,
1100
1000
1001
0100
,
0000
0100
0000
0010
0000
1000
0000
0001
,
0100
0000
0000
0010
0000
0000
0010
0000
1000
0000
0000
0000
0000
0000
0000
0000
,
0010
0100
1000
0000
0100
0000
0101
0000
,
0001
0100
0001
0000
1000
0100
1000
0000
,
0100
0010
0100
1001
,
0100
1000
0100
0000
0001
0100
0001
0000
,
0100
0110
0001
1000
,
1001
0010
1001
0100
,
0000
0100
0000
0001
0000
0010
0000
1000
,
0010
0000
0000
0100
0000
0000
0001
0000
0002
0000
0000
0000
0000
0000
0000
0000
,
0000
0000
1000
1003
,
1000
0000
0010
0000
1000
0100
1000
0000
,
0101
1100
0011
1001
,
2000
0010
0001
3001
,
1000
0000
0001
0010
0100
0000
1000
0000
,
0010
0000
0100
0000
0001
0010
0100
0000
,
0101
1100
1010
0110
,
1001
0100
1000
0100
,
0001
0000
0100
0100
0001
0000
0100
0000
,
0000
1000
0000
0100
0000
1000
0000
0010
,
0000
1100
0000
0101
0000
0110
0000
1001
,
0000
1000
0000
0100
0000
0010
0000
0100
,
0000
0010
0000
0001
0000
1000
0000
0001
,
0010
0000
1000
0000
0100
0000
0001
0010
,
0100
0000
0001
0000
0010
0000
1000
0100
,
1000
0000
0010
0000
0100
0000
0001
0100
,
0001
1001
0110
1001
,
1000
0000
0110
0000
0001
0010
0100
0001
,
0100
0010
1010
0100
,
1000
1100
0100
0010
,
0010
0100
0110
1001
,
0001
0000
1100
0000
1000
0000
0100
1000
,
0010
1000
0100
0000
0101
0000
1000
0000
,
0001
0011
0010
0100
,
0100
0000
0001
0000
0001
0010
0100
1000
,
2000
0000
0000
3000
;

//---------------dance-single - ----------------
#NOTES:
     dance-single:
     :
     Hard:
     10:
     0.494525,0.510701,0.456029,0.062186,0.010364,334.000000,290.000000,44.000000,6.000000,0.000000,0.000000,0.494525,0.510701,0.456029,0.062186,0.010364,334.000000,290.000000,44.000000,6.000000,0.000000,0.000000:
0000
0000
0000
0000
,
0000
0000
0000
0000
,
0000
0000
0000
0000
,
0000
0000
2000
0010
0010
0000
3001
0000
,
0001
0000
0002
0010
0010
0000
1003
0000
,
0001
0100
0001
0000
0010
0000
1001
0000
,
0100
0000
0001
0010
0100
0010
0001
0000
,
0101
0000
0100
0000
1000
0100
0010
0000
,
1001
0110
1001
0110
,
0001
0010
0100
0000
0010
0000
0011
0000
,
0001
0000
1000
0100
0010
0001
0010
0000
,
0101
0000
0100
0000
0001
0100
0010
0000
,
2000
0000
0000
3100
,
1000
0100
1000
0000
0001
0010
0100
0000
,
0001
0100
0101
0000
0100
0010
1010
0000
,
0001
0010
0001
0000
0001
0010
0100
0000
,
0110
0000
1001
0000
0010
1000
0100
0000
,
0010
0001
0010
0001
0100
0000
1100
0000
,
1000
0010
0001
0010
1000
0000
1100
0000
,
0001
1100
0000
0101
0000
0011
0000
1010
,
1000
0000
0000
1000
0000
0000
0100
0000
0101
0000
0001
0000
0100
0000
0000
0000
,
1000
0100
0010
0001
0100
0010
1000
0000
,
0010
0100
0110
0000
0001
0010
0110
0000
,
0001
0100
0001
0100
1000
0100
1000
0000
,
1001
0000
1000
0000
0010
0100
0001
0010
,
0100
0010
1000
0100
,
0001
0010
0100
1000
0001
0000
0101
0000
,
0010
0011
0000
1010
0000
1100
0000
0101
,
0001
0000
0000
0001
0000
0000
1000
0000
2000
0000
0000
0000
0000
0000
0000
0000
,
0000
0010
0001
3001
,
0001
0010
0001
0000
0010
0000
1010
0000
,
1000
0100
0010
0000
0100
0010
0001
0010
,
0110
0000
0100
0000
1000
0100
1000
0100
,
0001
0000
0010
0000
1000
0001
0010
0100
,
0010
0100
1000
0000
0100
0000
1001
0000
,
0010
0000
0010
0100
1000
0010
0100
0000
,
1010
0000
0100
0000
0001
0100
0001
0100
,
0010
0000
0010
0000
0001
0010
0100
1000
,
0100
1000
0100
1000
0000
1000
0100
0010
,
0000
0001
0010
0001
0000
0100
0010
0001
,
0000
0011
0000
0100
0000
0001
0010
0100
,
1000
0100
0000
0010
0000
1000
0000
0100
,
1000
0010
0100
0001
1000
0001
0100
0001
,
1000
0100
0010
0001
1000
0001
0100
0010
,
0001
0010
0100
1000
0100
0001
0100
0001
,
0011
0101
1100
1001
,
0001
0010
0100
1000
0100
0100
1100
0000
,
1001
0000
0100
0001
1000
0100
0010
0001
,
0101
0000
0100
0000
0001
0010
0100
0010
,
0001
0011
0001
0100
,
0100
0001
0100
0001
0010
0100
1100
0000
,
0101
0000
1000
0100
0010
0100
0010
0001
,
0011
0000
0100
0000
1000
0100
0001
0010
,
1000
0000
0010
0100
1000
0100
0010
0000
,
2002
0000
0000
3003
;
