#TITLE:We're so Happy;
#SUBTITLE:;
#ARTIST:Ryu☆;
#TITLETRANSLIT:;
#SUBTITLETRANSLIT:;
#ARTISTTRANSLIT:Ryu*;
#GENRE:;
#CREDIT:;
#BANNER:banner.png;
#BACKGROUND:background.png;
#LYRICSPATH:;
#CDTITLE:cdtitle.png;
#MUSIC:We're so Happy.mp3;
#OFFSET:-1.495000;
#SAMPLESTART:101.319000;
#SAMPLELENGTH:14.840000;
#SELECTABLE:YES;
#BPMS:0.000000=185.000000
;
#STOPS:32.000000=0.973000,
161.000000=0.973000
;
#BGCHANGES:;
#KEYSOUNDS:;
#ATTACKS:;

//---------------dance-single - ----------------
#NOTES:
     dance-single:
     :
     Challenge:
     14:
     0.701795,1.171518,0.265544,0.148392,0.394411,629.000000,595.000000,34.000000,19.000000,0.000000,1.000000,0.701795,1.171518,0.265544,0.148392,0.394411,629.000000,595.000000,34.000000,19.000000,0.000000,1.000000:
// measure 0
0000
0000
0000
0000
,  // measure 1
0000
0000
0000
0000
,  // measure 2
0000
0000
0000
0000
,  // measure 3
0000
0000
0000
0000
,  // measure 4
0200
0000
0000
0000
0000
0001
0000
0000
,  // measure 5
0320
0000
0000
0100
0000
0100
0000
0000
,  // measure 6
2030
0000
0000
0000
0000
0001
0000
0000
,  // measure 7
3020
0000
0000
0100
0000
0200
0000
0000
,  // measure 8
0330
0000
0001
0010
0001
0100
0000
0100
,  // measure 9
1000
0010
1000
0100
1000
0001
0000
1000
,  // measure 10
0100
0010
0001
0010
0001
0100
0000
0100
,  // measure 11
1000
0100
0001
0010
0100
1000
0000
1000
,  // measure 12
0100
0010
0001
0100
0001
0100
0000
0010
,  // measure 13
0100
0001
0010
0100
0010
1000
0000
0010
,  // measure 14
0001
0100
0010
1000
0010
0100
0000
0001
,  // measure 15
0010
0100
1000
0000
0100
0001
0100
0000
,  // measure 16
0001
0100
1000
0100
0010
0002
0000
0010
,  // measure 17
0000
1003
1000
0010
0100
0020
0000
0100
,  // measure 18
0000
1030
0001
2000
0000
0100
0000
0010
,  // measure 19
0000
3001
0001
0200
0000
0000
0000
0001
,  // measure 20
0300
0002
0000
0100
0000
1000
0000
0010
,  // measure 21
0000
2003
0000
0100
0000
0100
0000
0001
,  // measure 22
0000
3001
0000
0100
0000
0010
0010
0010
,  // measure 23
0001
1000
2002
0000
0000
0000
0000
0000
,  // measure 24
3003
0000
1000
0010
0100
0001
0000
0010
,  // measure 25
0000
0100
0000
1000
0000
0100
0000
0001
,  // measure 26
1000
0000
1000
0100
0010
0001
0000
0100
,  // measure 27
0000
0010
0000
1000
0000
0010
0000
0100
,  // measure 28
1000
0000
0001
0010
0001
0100
0000
0010
,  // measure 29
0000
1000
0000
0100
0000
0001
0000
0010
,  // measure 30
0100
0000
0001
0010
0100
1000
0000
0010
,  // measure 31
0000
1000
0000
0100
0000
1000
0000
0001
,  // measure 32
0100
0000
0000
0000
0010
0000
0100
0000
0010
1000
0000
0010
0000
1000
0010
0000
,  // measure 33
0100
0000
0000
0000
0010
0000
1000
0000
0010
1000
0000
0010
0000
0010
0100
0000
,  // measure 34
0001
0000
0000
0000
0010
0000
0100
0000
0001
0100
0000
0001
0000
0100
0001
0000
,  // measure 35
0010
0000
0100
0000
1000
0000
0100
0000
0001
0100
0000
0100
0000
0001
0100
0000
,  // measure 36
0010
0001
0010
0100
1000
0001
0010
0100
,  // measure 37
1000
0001
0010
0100
1000
0100
0010
0001
,  // measure 38
0010
0000
0100
0000
0001
0100
0001
0100
0001
0100
0001
0100
0001
0010
0100
1000
,  // measure 39
0100
1000
0100
1000
0001
1000
0001
1000
0001
1000
0001
1000
0100
0001
0100
0001
,  // measure 40
1000
0100
0010
0001
0000
0000
0000
0010
0001
0010
0000
0000
0011
0000
0000
0000
,  // measure 41
1010
0000
1001
0000
1000
0100
0010
0001
,  // measure 42
0001
0100
0001
0001
0100
0001
0100
0001
,  // measure 43
0100
0010
0100
0001
0010
0100
1000
0001
,  // measure 44
0010
1000
0010
1000
1000
0010
0100
0001
,  // measure 45
0100
0010
0001
0010
0100
1000
0010
0001
,  // measure 46
0010
0001
0100
0010
1000
0010
0100
0001
,  // measure 47
0010
0001
1000
0001
0002
0010
0000
0100
,  // measure 48
0000
1000
0000
0103
0010
0000
0001
0000
,  // measure 49
1100
0000
0101
0000
0001
0010
0100
1000
,  // measure 50
0001
1000
0010
1000
0001
0010
1000
0010
,  // measure 51
0001
0010
0100
0010
0001
0100
0010
1000
,  // measure 52
0010
0100
0010
0001
0010
0100
0001
0010
,  // measure 53
0100
0010
0001
1000
0010
0100
0001
0010
,  // measure 54
0001
1000
0010
0100
0001
0010
1010
0000
,  // measure 55
1100
0000
0101
0000
0100
0010
1000
0100
,  // measure 56
0010
0000
0001
0000
0100
0000
0001
0100
0001
0000
0000
0000
0110
0000
0000
0000
,  // measure 57
1001
0000
0000
0000
0110
0000
0000
0000
1000
0000
0001
0010
0000
0010
0000
0001
,  // measure 58
0000
0000
0001
0000
1000
0000
0010
0000
0100
0000
0001
0100
0000
0001
0000
0010
,  // measure 59
0000
0100
0000
0010
0100
0000
0010
0000
0001
0000
0010
0100
0000
0100
0000
0001
,  // measure 60
0000
0000
0100
0000
0010
0000
0100
0000
0001
0000
1000
0100
0000
0100
0000
1000
,  // measure 61
0000
0001
0000
0010
0100
0000
0000
0000
0001
0100
0000
0100
0001
0000
0010
0000
,  // measure 62
0100
0000
1000
0000
0100
0000
0010
0000
0010
0001
0000
0001
0010
0000
0100
0000
,  // measure 63
1000
0100
1000
0000
0100
0000
0100
0000
0110
0000
0110
0000
0000
0000
0000
0000
,  // measure 64
1001
0000
1001
0000
0000
0000
0000
0000
1000
0010
1000
0100
1000
0010
1000
0100
,  // measure 65
1000
0110
0022
0000
,  // measure 66
0000
0000
0000
0000
,  // measure 67
0000
0000
0230
0000
,  // measure 68
0000
0000
0303
0000
,  // measure 69
0000
0000
0000
0000
0000
0000
0000
0000
1000
0000
0010
0000
1000
0100
0000
0100
,  // measure 70
0000
1000
0100
0000
1100
0000
0000
0000
0001
0000
0100
0000
0001
0100
0000
0100
,  // measure 71
0000
0001
0010
0000
0100
0000
0101
0000
0001
0000
0010
0000
0100
0000
1000
0000
,  // measure 72
0001
0000
0100
0000
0010
0000
1000
0000
0100
0001
0100
0001
0100
0001
1000
0010
,  // measure 73
1000
0010
1000
0000
0100
0000
0001
0000
1001
0000
1001
0000
0000
0000
0000
0000
,  // measure 74
0010
0100
0010
0000
0000
0000
0000
0000
0100
0001
0100
0001
0100
0001
0100
0001
,  // measure 75
0100
0100
0110
0000
0001
0010
0001
1000
,  // measure 76
0100
0000
1000
0000
0100
0000
0001
0000
0010
0000
0001
0010
0000
0100
0000
0010
,  // measure 77
0000
0001
0000
0100
0010
0000
0100
0000
1000
0000
0100
0000
0000
0000
0001
0000
,  // measure 78
0000
0000
0100
0000
0000
0000
0010
0000
0100
0000
1000
0100
0000
0010
0000
0001
,  // measure 79
0000
0100
0000
0010
0001
0000
0000
0000
0001
0000
1000
0000
0010
0000
0100
0000
,  // measure 80
0001
0000
0100
0000
0010
0000
0001
0000
1000
0000
0100
0010
0000
0001
0000
0010
,  // measure 81
0000
0001
0000
0100
0010
0000
0100
0000
0001
0000
0010
0100
0000
0010
0000
0001
,  // measure 82
0000
1000
0010
0100
0110
0000
0110
0000
,  // measure 83
1001
0000
1001
0000
1000
0010
0100
0001
,  // measure 84
1000
0100
0010
0100
0010
0001
0001
0100
,  // measure 85
0010
1000
0001
0010
0100
1000
0001
0100
,  // measure 86
1000
0001
0010
1000
0001
0010
0001
0100
,  // measure 87
0010
0001
0100
0100
1000
0100
0010
0001
,  // measure 88
0001
0100
0001
0100
0001
0010
0001
0010
0100
0000
0100
0000
1000
0000
1000
0000
,  // measure 89
0001
0010
0001
0100
0001
0010
0001
0100
0110
0000
0110
0000
0000
0000
0000
0000
,  // measure 90
1001
0000
1001
0000
0000
0000
0000
0000
1000
0010
1000
0010
0100
0001
0100
0000
,  // measure 91
1001
0110
2002
0000
,  // measure 92
0000
0000
0000
0000
,  // measure 93
0000
0000
0000
3003
;

//---------------dance-single - ----------------
#NOTES:
     dance-single:
     :
     Medium:
     9:
     0.409473,0.571701,0.226493,0.265544,0.000000,367.000000,338.000000,29.000000,34.000000,0.000000,0.000000,0.409473,0.571701,0.226493,0.265544,0.000000,367.000000,338.000000,29.000000,34.000000,0.000000,0.000000:
0000
0000
0000
0000
,
0000
0000
0000
0000
,
0000
0000
0000
0000
,
0000
0000
0000
0000
,
2000
0000
0000
0000
,
3200
0000
0000
0000
,
0320
0000
0000
0000
,
0032
0000
0000
0000
,
0003
0001
0100
0001
,
0100
0010
0100
0010
,
0001
0100
0010
0100
,
0001
1000
0001
0010
,
0010
0100
0100
0001
,
1000
0001
0001
1000
,
1000
0001
0100
0001
,
1000
0001
0110
0101
,
1010
0001
0100
0001
,
1000
0010
0001
0010
,
0100
0001
0010
0100
,
1000
0010
0100
0010
,
0100
0001
0100
0010
,
1000
0001
1000
0010
,
0100
0000
0001
0000
0001
0000
1000
1000
,
1000
2020
0000
3030
,
0000
0002
0000
0100
,
0000
0023
0000
0100
,
0000
0230
0000
1000
,
0000
2300
0000
0001
,
0000
3002
0000
0010
,
0000
0203
0000
1000
,
0000
0320
0000
0100
,
0000
2030
0000
0100
,
0000
3001
0001
0001
,
0101
1000
1000
1000
,
1100
0100
0010
0100
,
0110
0010
0001
1000
,
1001
0000
0100
0010
0100
0000
0001
0100
,
0001
0000
1000
0010
1000
0000
0001
0100
,
0001
0000
0100
0100
0100
0100
1000
1000
,
1000
1000
0001
1000
0001
1000
0001
1000
,
0001
1000
0000
0000
1000
0000
1001
0000
,
0110
1001
0002
0010
,
0100
1003
0100
0010
,
0001
0000
1000
0010
0002
0000
0010
0000
,
1000
0013
0001
0100
,
0001
0001
2000
0010
,
0001
3100
0010
0001
,
0020
0100
0032
0100
,
1000
1003
0001
0010
,
0010
1000
2000
0010
,
0100
3001
0010
1000
,
0100
0001
0002
0100
,
0010
1003
0001
0010
,
0100
1000
0002
0010
,
1000
0103
0020
0100
,
0001
0130
0002
1000
,
0200
0000
0303
1100
,
0101
1100
0010
0010
,
0001
0100
0001
0000
0100
0000
0100
0000
,
1000
0100
1000
0000
0010
0000
0010
0000
,
0010
1000
0010
0000
0010
0000
0100
0000
,
0001
0100
0001
0000
0010
0000
0100
0010
,
0100
0010
0100
0000
0001
0000
1000
0010
,
1000
0010
0010
0000
0001
0001
0000
0000
,
0010
0010
0000
0000
1000
0001
1000
0001
,
1000
0001
0100
0000
0220
0000
0000
0000
,
0000
0000
0000
0000
,
0000
0000
0330
0000
,
0000
0000
0000
0000
,
0000
0000
0000
0000
1000
0010
1000
0000
,
0010
0000
1010
0000
0001
0010
0001
0000
,
0010
0000
0011
0000
0010
1000
0010
0000
,
0100
0001
0100
0000
0001
0010
0100
1000
,
0001
0010
0100
1000
0000
0000
0101
0000
,
0000
1010
1000
1000
,
0110
1001
0002
0010
,
1000
0103
1000
0010
,
0100
0000
0001
0010
0002
0000
1000
0000
,
0100
0013
0001
0010
,
0100
1000
0100
1000
,
0001
0100
0020
0000
,
2000
0030
3002
1000
,
0100
1003
0001
1100
,
0101
1001
2000
0100
,
0001
3010
0100
0010
,
0100
0000
0001
0010
0200
0000
0010
0000
,
0001
1300
1000
0100
,
0010
0000
0001
0000
0010
0001
0010
0001
,
1000
0001
1000
0000
0001
0100
0001
0100
,
0001
0010
0100
0000
0100
0100
0000
0000
,
0010
0010
0000
0000
0101
0000
1100
0000
,
1001
0110
1001
0000
;

//---------------dance-single - ----------------
#NOTES:
     dance-single:
     :
     Easy:
     7:
     0.311289,0.428776,0.156202,0.140582,0.000000,279.000000,259.000000,20.000000,18.000000,0.000000,0.000000,0.311289,0.428776,0.156202,0.140582,0.000000,279.000000,259.000000,20.000000,18.000000,0.000000,0.000000:
0000
0000
0000
0000
,
0000
0000
0000
0000
,
0000
0000
0000
0000
,
0000
0000
0000
0000
,
1000
0000
0000
0000
,
0010
0000
0000
0000
,
0100
0000
0000
0000
,
0001
0000
0000
0000
,
1001
0000
0001
0000
,
0001
0000
0010
0000
,
0010
0000
0100
0000
,
0100
0000
1000
0000
,
1000
0000
0100
0000
,
0100
0000
0010
0000
,
0010
0000
0001
0000
,
0001
0000
1000
1000
,
1000
0100
0010
0001
,
0000
0001
0100
0010
,
0100
1000
0100
1000
,
0100
1000
0010
0100
,
0000
0001
1000
0100
,
0010
0001
0100
0100
,
0010
0010
0100
0001
,
1000
2002
0000
3003
,
0000
0020
0000
0030
,
0000
0100
0000
0100
,
0000
0002
0000
0003
,
0000
0001
0000
0001
,
0000
0020
0000
0030
,
0000
0010
0000
0010
,
0000
0200
0000
0300
,
0000
0010
0000
1000
,
0000
0100
0010
0100
,
0110
1000
0001
1000
,
1001
0100
0010
0001
,
0101
0001
0010
0100
,
1010
0001
1000
0001
,
1000
0100
0100
0010
,
0010
0001
0001
1000
,
1000
0001
0010
0100
,
1000
1001
0000
0100
,
0010
0110
0001
0010
,
0001
1000
0010
0010
,
0010
0000
0100
0010
,
0001
1000
0100
0100
,
0100
0000
0010
0100
,
0010
1000
0200
0000
,
0320
0000
0032
0000
,
0000
0003
0000
0100
,
0100
0100
0001
0100
,
0001
0010
1000
0001
,
1000
0100
1000
0100
,
1000
0001
0010
0100
,
0010
0001
0001
0001
,
0100
0010
1000
1000
,
1000
0100
0020
0000
,
2030
0000
3100
1000
,
0001
1001
0001
0100
,
0010
0100
0001
1000
,
0100
0100
1000
0010
,
1000
0001
0100
0001
,
1000
1000
0001
1001
,
0000
0100
0000
1001
,
0000
0000
0010
0000
0100
0100
0000
0000
,
0001
0001
0000
0000
0010
0000
0100
0000
,
0010
0110
2002
0000
,
0000
0000
3003
0000
,
0000
0000
0000
0000
,
0000
0000
0000
0000
,
0000
0000
0010
0010
,
0010
0110
0100
0100
,
0100
0101
0001
0001
,
0001
0001
0010
0100
,
1000
1000
0000
0010
,
0000
0100
0010
0010
,
0110
1001
0001
0100
,
0001
0010
0100
1000
,
0100
1000
1000
0010
,
1000
0100
0010
0001
,
0001
0100
0010
1000
,
0001
0100
0020
0000
,
0230
0000
0020
0000
,
0000
0330
0010
0010
,
1000
1001
0001
0100
,
0010
1000
0010
0100
,
0001
0001
1000
0100
,
0010
0001
1000
0010
,
0100
0100
0001
0010
,
1000
0000
1000
0100
,
0001
0000
0200
0000
,
0320
0000
1030
1000
,
0001
0110
1001
0000
;

//---------------dance-single - ----------------
#NOTES:
     dance-single:
     :
     Beginner:
     3:
     0.157318,0.250119,0.039051,0.085911,0.000000,141.000000,136.000000,5.000000,11.000000,0.000000,0.000000,0.157318,0.250119,0.039051,0.085911,0.000000,141.000000,136.000000,5.000000,11.000000,0.000000,0.000000:
0000
0000
0000
0000
,
0000
0000
0000
0000
,
0000
0000
0000
0000
,
0000
0000
0000
0000
,
0100
0000
0000
0000
,
0000
0000
0000
0000
,
0010
0000
0000
0000
,
0000
0000
0000
0000
,
0000
0000
0000
0000
,
0000
0010
0000
0010
,
0000
0010
0000
0000
,
0000
0100
0000
0100
,
0000
0100
0000
0000
,
0000
0001
0000
0001
,
0000
0001
0000
1000
,
0000
0000
0010
0010
,
0010
0010
0000
0100
,
0100
0010
0000
0010
,
0000
0010
0000
0000
,
0000
0100
0000
0100
,
0000
0100
0000
0000
,
0000
0100
0000
0000
,
0000
0010
0000
0000
,
0000
0001
0000
0000
,
0000
2000
3000
0000
,
0000
0000
1000
0000
,
1000
0002
0003
0000
,
0000
0000
0001
0000
,
0001
2000
3000
0000
,
0000
0010
0000
0010
,
0000
0200
0300
0000
,
0010
0000
0010
0000
,
0000
0110
0000
0010
,
0000
0010
0000
0010
,
0000
0110
0000
0100
,
0000
0100
0000
0100
,
0000
0001
0000
0001
,
0000
1000
0000
1000
,
0000
0001
0000
1000
,
0000
0001
0000
1000
,
0000
0000
0000
0000
,
0000
0000
0010
0000
,
0010
0000
0020
0030
,
0000
0000
1000
0000
,
1000
0000
2000
3000
,
0000
0000
0001
0000
,
0001
0000
0002
0003
,
0000
0000
0100
0000
,
0100
0000
0100
0000
,
0100
0000
0001
0000
,
0001
0000
0002
0003
,
0000
0000
1000
0000
,
1000
0000
2000
3000
,
0000
0000
0100
0000
,
0100
0000
0200
0300
,
0000
0000
0010
0000
,
0010
0000
0010
0000
,
0010
0000
0001
0000
,
1000
0000
0001
0000
,
0000
0000
1000
0000
,
0001
0000
1000
0000
,
0000
0000
0010
0000
,
0100
0000
0010
0000
,
0000
0000
0100
0000
,
0010
0000
0100
0000
,
0100
0000
0200
0000
,
0300
0000
0000
0000
,
0000
0000
0000
0000
,
0000
0000
0000
0000
,
0000
0000
0101
0000
,
0000
0000
0100
0000
,
0000
0000
1100
0000
,
0000
0000
1000
0000
,
0000
0000
0001
0000
,
1000
0000
0010
0010
,
0010
0100
0100
0000
,
0010
0000
0100
0000
,
0000
0000
0100
0000
,
0001
0000
0010
0000
,
0000
0000
0100
0000
,
0010
0000
0001
0000
,
1000
0000
0001
0000
,
0000
0000
0010
0000
,
0100
0000
0001
0000
,
0010
0000
0100
0000
,
0001
0000
0010
0000
,
0100
0000
1000
0000
,
0001
0000
0010
0010
,
0000
0000
0100
0100
,
0000
0000
0100
0000
,
0100
0000
1000
0001
,
1000
0000
1001
0000
;

//---------------dance-single - ----------------
#NOTES:
     dance-single:
     :
     Hard:
     11:
     0.547824,0.643163,0.265544,0.195253,0.000000,491.000000,457.000000,34.000000,25.000000,0.000000,0.000000,0.547824,0.643163,0.265544,0.195253,0.000000,491.000000,457.000000,34.000000,25.000000,0.000000,0.000000:
0000
0000
0000
0000
,
0000
0000
0000
0000
,
0000
0000
0000
0000
,
0000
0000
0000
0000
,
0002
0000
0000
0000
,
0023
0000
0000
0000
,
0230
0000
0000
0000
,
2300
0000
0000
0000
,
3000
0000
0001
0010
0100
0010
1000
0000
,
0001
0100
0010
0100
0001
0000
1000
0100
,
0010
0000
0100
0100
0010
0001
0100
0000
,
0001
0001
1000
0100
0001
0100
0000
0001
,
0010
0100
0010
0001
0100
0000
0001
0100
,
0000
0100
0001
0000
0100
0100
0001
0000
,
0010
0001
0100
0001
0000
0000
0010
0100
,
1000
0100
0001
0000
1000
0000
1000
0000
,
0001
0000
1010
1000
0010
0000
0001
0100
,
0001
0100
1000
0000
0001
0000
0010
0000
,
0100
0000
0001
0100
0010
0001
0100
0001
,
0100
0000
0001
0000
1000
0100
0010
0100
,
0100
0010
0001
0100
0010
0000
0100
0000
,
0010
0001
1000
0010
,
0100
0010
0000
0010
0000
1000
0010
0010
,
0010
0220
0000
0330
,
0000
0000
0001
0100
0001
0100
0000
0100
,
0000
0001
0000
0100
0000
0001
0000
0010
,
0100
0000
0001
0010
0100
1000
0000
0010
,
0000
1000
0000
0010
0000
0100
0000
0010
,
0001
0000
0001
0010
0100
0001
0000
0100
,
0000
0010
0000
1000
0000
0010
0000
0100
,
0010
0001
0010
0100
0010
0100
0000
0001
,
0000
0100
0000
0010
0000
1000
0000
1000
,
0100
0000
0001
0100
0001
0100
0001
0100
,
0101
0000
1000
0010
1000
0010
1000
0010
,
1010
0000
0001
1000
0001
1000
0001
1000
,
1001
0000
0010
0100
0010
0100
0010
0100
,
0110
0000
0010
0010
1000
1000
0001
0001
,
0100
0100
0001
0001
0001
1000
1000
1000
,
0010
0010
0010
1000
0100
0010
0001
0100
,
0001
0000
0001
0100
0010
1000
0001
0010
,
0100
1000
0000
0000
1000
0000
1001
0000
,
0110
0000
1001
0000
0001
0100
0010
1000
,
0100
0100
0002
0000
,
0100
0000
1003
0000
0100
0010
0001
0010
,
0100
0100
0010
0100
0002
0000
0100
0000
,
1000
0000
1003
0000
1000
0100
0010
0100
,
0010
0000
0100
0100
0002
0000
0000
0000
,
0203
0000
0320
0100
,
1000
1000
1030
0000
1100
0000
0101
0000
,
0110
0000
1001
0000
0001
0010
0100
0010
,
0100
0100
0001
0100
2000
0000
0010
0000
,
0100
0000
3001
0000
0001
0100
0100
0001
,
0010
0100
1000
0000
0002
0000
0010
0000
,
0103
0010
1000
0100
0020
0000
1000
0000
,
1000
1030
1100
0101
,
1100
1010
0012
1000
,
1000
2000
3003
1100
,
0101
0000
1100
0000
0001
0100
0010
1000
,
1000
0100
1000
0000
0010
0001
0100
0001
,
0100
0100
0100
0000
1000
0010
0100
0001
,
0001
0100
0100
0000
0010
0001
0100
0001
,
0100
1000
1000
0000
0001
0010
0100
0001
,
1000
0001
0100
0000
0001
0100
0010
1000
,
0100
0010
0001
0000
0100
0101
0000
0000
,
0010
1010
0000
0000
0001
0100
0001
1000
,
0001
1000
0001
0000
0202
0000
0000
0000
,
0000
0000
0000
0000
,
0000
0000
0303
0000
,
0000
0000
0000
0000
,
0000
0000
0000
0000
0010
0100
0010
0100
,
0010
0100
1001
0000
1000
0010
1000
0010
,
1000
0010
1100
0000
0001
1000
0001
0000
,
0001
0100
0001
0000
0001
0100
0001
0100
,
1000
0100
1000
0100
0000
0000
0011
0000
,
0010
1010
0100
0100
,
1100
1000
1001
0000
0100
0010
0001
0010
,
0100
0001
0010
0100
2000
0000
0010
0000
,
0100
0000
3001
0000
0100
0010
0001
0010
,
0100
0100
0100
0000
0002
0000
0010
0000
,
0100
0000
1003
0000
0100
0010
1000
0100
,
1000
0010
0100
0001
0020
0000
0100
0000
,
2030
0010
3002
1000
,
0100
1003
0001
0100
,
0010
0000
1000
0000
0001
1000
0100
0010
,
0001
0100
0010
0010
2000
0000
0100
0000
,
0001
3001
0200
0001
,
0010
0000
1300
0000
0100
0000
0001
0100
,
0010
0100
0001
0000
1000
0001
1000
0001
,
1000
0001
1000
0000
0001
0100
0001
0100
,
0001
0100
0001
0000
1000
1100
0000
0000
,
0001
0101
0000
0000
0100
0010
0100
0010
,
0100
0110
1001
0000
;
