#TITLE:The Way U Move;
#SUBTITLE:;
#ARTIST:Bill Hamel & Derek James feat. Breana Skiles;
#TITLETRANSLIT:;
#SUBTITLETRANSLIT:;
#ARTISTTRANSLIT:;
#GENRE:;
#CREDIT:;
#BANNER:banner.png;
#BACKGROUND:background.png;
#LYRICSPATH:;
#CDTITLE:Cdtitle.png;
#MUSIC:The Way U Move.mp3;
#OFFSET:1.732000;
#SAMPLESTART:4.700000;
#SAMPLELENGTH:15.000000;
#LASTBEATHINT:1.656806;
#SELECTABLE:YES;
#BPMS:0.000000=135.000000
;
#STOPS:
;
#BGCHANGES:4.000=The Way U Move.avi=1.000=1=0=0=StretchNoLoop==CrossFade==,
99999=-nosongbg-=1.000=0=0=0 // don't automatically add -songbackground-
;
#KEYSOUNDS:;
#ATTACKS:;

//---------------dance-single - ----------------
#NOTES:
     dance-single:
     :
     Beginner:
     4:
     0.185587,0.214786,0.043304,0.000000,0.000000,150.000000,145.000000,5.000000,0.000000,0.000000,0.000000,0.185587,0.214786,0.043304,0.000000,0.000000,150.000000,145.000000,5.000000,0.000000,0.000000,0.000000:
// measure 0
0000
0000
0000
0000
,  // measure 1
0000
0000
0000
0000
,  // measure 2
0000
0000
0000
0000
,  // measure 3
0000
0000
0000
0000
,  // measure 4
0100
0000
0100
0000
,  // measure 5
0001
0000
0001
0000
,  // measure 6
0010
0000
0010
1000
,  // measure 7
1000
0000
1000
0000
,  // measure 8
0001
0000
0001
0000
,  // measure 9
0100
0000
0100
0000
,  // measure 10
0010
0000
0010
0000
,  // measure 11
0001
0001
0001
1000
,  // measure 12
1000
0000
1000
0000
,  // measure 13
0001
0000
0010
0000
,  // measure 14
1000
1000
1000
0000
,  // measure 15
0001
0001
0001
0000
,  // measure 16
0001
0000
0001
0000
,  // measure 17
0100
0000
0000
0000
,  // measure 18
0010
0000
0010
0000
,  // measure 19
0001
0001
0001
0000
,  // measure 20
1000
0000
1000
0000
,  // measure 21
0100
0100
0100
0000
,  // measure 22
0001
0000
0001
0000
,  // measure 23
0100
0100
0100
0100
,  // measure 24
1000
0000
1000
0000
,  // measure 25
0001
0001
0001
0000
,  // measure 26
0010
0000
0010
0000
,  // measure 27
0100
0100
0100
0100
,  // measure 28
1000
0000
1000
0000
,  // measure 29
0001
0001
0001
0000
,  // measure 30
1000
0000
1000
0000
,  // measure 31
0001
0001
0001
0001
,  // measure 32
0010
0000
0010
0000
,  // measure 33
1000
1000
1000
0000
,  // measure 34
0100
0000
0100
0000
,  // measure 35
0001
0001
0001
0001
,  // measure 36
0010
0000
0010
0000
,  // measure 37
1001
0000
1001
0000
,  // measure 38
0010
0000
0010
0000
,  // measure 39
0100
0000
0100
0000
,  // measure 40
1100
0000
1000
0000
,  // measure 41
0101
0000
0001
0000
,  // measure 42
0010
0000
1000
1000
,  // measure 43
1000
1000
1000
0000
,  // measure 44
1000
0000
0100
0100
,  // measure 45
0100
0000
0001
1000
,  // measure 46
0010
0000
0010
0000
,  // measure 47
0001
0000
0001
0000
,  // measure 48
1000
1000
0000
0000
,  // measure 49
0100
0000
0000
0000
,  // measure 50
0010
0000
0010
0000
,  // measure 51
0001
0000
0000
0000
,  // measure 52
0100
0100
0100
0100
,  // measure 53
0100
0100
0100
0000
,  // measure 54
0010
0000
0010
0000
,  // measure 55
0001
0001
0001
0000
,  // measure 56
1000
0000
1000
0000
,  // measure 57
0100
0100
0100
0100
,  // measure 58
0010
0000
0010
0000
,  // measure 59
0001
0001
0001
0000
,  // measure 60
0100
0000
0100
0000
,  // measure 61
1000
1000
1000
1000
,  // measure 62
1001
0000
0000
0000
;

//---------------dance-single - ----------------
#NOTES:
     dance-single:
     :
     Easy:
     6:
     0.267245,0.326076,0.069286,0.476339,0.000000,216.000000,208.000000,8.000000,55.000000,0.000000,0.000000,0.267245,0.326076,0.069286,0.476339,0.000000,216.000000,208.000000,8.000000,55.000000,0.000000,0.000000:
0000
0000
0000
0000
,
0000
0000
0000
0000
,
0000
0000
0000
0000
,
0000
0000
0000
0000
,
0010
0000
1000
0000
,
0100
0100
0001
0000
,
0100
0000
1000
0000
,
0010
0010
0100
0000
,
1000
0000
0100
1000
,
0001
0010
0100
0000
,
0010
0010
1000
1000
,
0100
0100
0001
0001
,
0002
0103
0200
1300
,
2000
3100
0001
0100
,
0002
0103
0200
0310
,
0020
1030
0100
0100
,
2000
3100
0200
0301
,
0002
0103
1000
0100
,
2000
3010
0002
0013
,
2000
3000
0010
0010
,
0002
0003
0010
0100
,
2000
3000
0100
0001
,
0020
0030
0001
1000
,
0200
0310
1000
0100
,
0020
0031
2000
3100
,
0010
0001
0010
0001
,
0200
0300
0010
1000
,
0200
0310
0100
1001
,
0010
0010
1000
0100
,
1000
1000
0100
0010
,
0001
0001
0010
0100
,
1000
1000
0100
0100
,
0010
0010
0001
0001
,
0100
0001
0100
1000
,
0100
0100
1000
0010
,
1000
1000
0001
0101
,
0010
0010
0100
0100
,
1000
1001
0100
0101
,
2020
3030
0202
0303
,
0001
0001
0100
0100
,
0202
0303
2020
3030
,
0100
0100
0001
0001
,
0020
0030
0100
0001
,
1000
0100
1000
1000
,
0200
0310
0002
0013
,
0200
0000
0300
0000
,
0002
0103
0020
0130
,
2000
3001
0100
0010
,
0200
0310
0002
0103
,
2000
3010
0001
0001
,
0020
0130
0200
0310
,
2000
3100
0001
0100
,
0002
0013
0200
0310
,
2000
3100
0002
0103
,
0020
0030
0100
0100
,
0002
0003
0010
1000
,
0200
0300
0001
0010
,
0002
0013
1000
0001
,
0020
0130
0200
1300
,
2000
3001
0001
0100
,
0002
0003
1000
0010
,
2000
3010
0001
1000
,
0200
0000
0000
0300
;

//---------------dance-single - ----------------
#NOTES:
     dance-single:
     :
     Medium:
     8:
     0.310548,0.407595,0.034643,0.398393,0.000000,251.000000,247.000000,4.000000,46.000000,0.000000,0.000000,0.310548,0.407595,0.034643,0.398393,0.000000,251.000000,247.000000,4.000000,46.000000,0.000000,0.000000:
0000
0000
0000
0000
,
0000
0000
0000
0000
,
0000
0000
0000
0000
,
0000
0000
0000
0000
,
0010
0100
0001
1000
,
0100
1000
0100
0010
,
1000
0100
0001
0100
,
0001
0000
0010
0000
0001
0100
0100
0000
,
1000
0000
0010
0000
1000
0100
0010
0000
,
0001
0010
0001
0000
0010
0000
1000
0000
,
0010
1000
0010
0000
1000
0100
1000
0000
,
0001
0010
0100
0001
0010
0100
1000
0100
,
2000
3000
0200
0300
,
0020
0000
0030
0000
0100
0000
1000
0100
,
0002
0003
0200
0300
,
0020
0000
0030
0000
0001
0001
0001
0000
,
0200
0300
0020
0030
,
0002
0003
0000
0000
,
0001
0000
0010
0001
1000
0000
1000
0100
,
0010
0002
0003
0000
,
2000
0000
3010
0001
0010
0000
1000
0000
,
0200
0000
1300
0001
1000
0000
0100
0000
,
2000
0000
3010
0001
0010
0000
1000
0000
,
0100
0000
0001
0000
0010
0000
0001
0010
,
0100
0000
0001
0000
0100
0000
1000
0001
,
0100
0000
0001
0000
0010
0000
0001
1000
,
0100
0000
1000
0000
0010
0000
1000
0001
,
0100
0000
0001
0000
0010
0000
0001
0100
,
0020
0000
0030
0100
2000
0000
3000
0100
,
0200
0000
0300
1000
2000
0000
3000
0100
,
0020
0000
0030
0001
0002
0000
0003
0000
,
0010
0000
0100
0000
0001
0000
0100
0001
,
0020
0000
0030
0100
0200
0000
0300
1000
,
0200
0000
0300
1000
2000
0000
3000
0100
,
0020
0000
0030
0001
0002
0000
0003
0000
,
1000
0010
0001
0010
,
0000
0000
0000
0000
,
1100
1100
1001
1001
,
0002
0000
0203
0000
0302
0000
0103
0100
,
0010
0000
0100
0000
1000
0100
1000
0000
,
0200
0000
0320
0000
2030
0000
3010
0010
,
0100
0000
0001
0000
1000
0100
0010
1000
,
0001
0000
0100
0000
0010
1000
0010
0000
,
1000
1000
0100
0000
0001
0001
0100
0000
,
1000
0100
1000
0000
0100
0010
0001
0000
,
0100
0000
0010
0000
0100
0000
0001
0100
,
0002
0003
0200
0300
,
0020
0000
0030
0000
0100
0000
1000
0100
,
0002
0003
0200
0300
,
0020
0000
0030
0000
0100
0000
0010
0100
,
0020
0030
2000
3000
,
0020
0030
0000
0100
,
0001
0000
0010
0001
0010
0000
0100
1000
,
0100
0002
1003
1000
,
0200
0000
0310
0001
0010
0000
1000
0000
,
0002
0000
1003
0010
1000
0000
0100
0000
,
2000
0000
3100
0001
0100
0000
1000
0000
,
0100
0000
0001
0000
0010
0000
0010
0100
,
0001
0000
1000
0000
0010
0000
1000
0010
,
0100
0000
0001
0000
0010
0000
0001
1000
,
0001
0000
1000
0000
1000
0000
0100
0001
,
2000
0000
0010
3010
,
0002
0000
0000
0003
;

//---------------dance-single - ----------------
#NOTES:
     dance-single:
     :
     Hard:
     9:
     0.450357,0.461941,0.086607,0.337768,0.000000,364.000000,354.000000,10.000000,39.000000,0.000000,0.000000,0.450357,0.461941,0.086607,0.337768,0.000000,364.000000,354.000000,10.000000,39.000000,0.000000,0.000000:
0000
0000
0000
0000
,
0000
0000
0000
0000
,
0000
0000
0000
0000
,
0000
0000
0000
0000
,
0100
0000
0010
0100
0100
0000
0010
0001
,
0100
0000
1000
0000
0100
0010
0100
0000
,
0010
0000
0100
1000
0001
0000
0100
0010
,
0010
0000
0001
0000
0100
1000
0100
1000
,
0001
0000
0100
1000
0010
0000
0001
0010
,
0100
0000
1000
0000
0010
0001
0100
0000
,
1000
0000
0010
0001
0100
0001
0010
0001
,
0202
0000
0303
0000
1000
0100
0010
0001
,
0012
0103
2100
0000
,
0020
0000
3030
0000
0010
0100
1000
0000
,
0010
1000
0010
0000
1000
0100
0010
0001
,
1000
0000
0010
0000
0100
0100
1000
0000
,
0012
0000
2000
3003
,
0202
0000
0303
0000
0010
0000
0100
1000
,
0001
0000
0010
0100
1000
0000
0100
0010
,
0100
0010
0001
0010
0100
1000
1000
0010
,
0100
0001
0010
0001
1000
0010
1000
0010
,
1000
0100
0010
1000
0100
0010
0001
1000
,
0100
1000
0001
0010
0100
0010
0100
1000
,
2000
3020
0230
0302
,
0103
0001
0010
0001
1000
0100
0010
0001
,
0100
0010
0001
0010
0100
0001
0010
0100
,
1000
0010
0001
0010
0100
0001
0010
0000
,
0002
0203
0320
2030
,
3010
0001
1000
0001
0010
0100
1000
0100
,
1000
0100
0010
0001
0100
0010
1000
0001
,
0010
0100
0001
0010
1000
0001
0010
0100
,
2000
3200
0320
0032
,
1003
0010
0100
0010
1000
0001
0010
0100
,
1000
0001
0010
0001
0100
0010
1000
0100
,
0010
0001
0100
0001
1000
0100
0010
1000
,
0002
2003
3200
0300
,
2002
0000
3003
0010
0100
0000
0001
0000
,
0002
0000
0003
0100
1000
0000
0100
0001
,
1000
0000
0010
1000
0010
0000
1000
0100
,
0010
0000
0001
0000
1000
0000
0010
0001
,
0100
0001
0010
0100
1000
0000
0100
1000
,
0010
0000
1000
0000
0010
0010
0100
0000
,
0001
0010
0100
0000
0100
0001
0100
0010
,
0100
0000
0010
0001
0100
0000
0001
0100
,
0001
0000
0100
0001
0100
0010
0100
1000
,
1000
0000
0001
0000
0100
0001
1000
0100
,
2000
3002
0203
0300
,
0022
0000
0033
0001
0010
0000
0010
0001
,
0100
0001
0100
0000
0010
0000
0100
0001
,
1000
0000
0010
0000
0001
0001
0100
0000
,
0002
0203
0320
0030
,
2002
0000
3003
0000
1010
0000
0100
0001
,
0010
0000
1000
0100
0010
0000
0100
1000
,
0100
0000
0100
0001
0100
0010
0100
1000
,
0001
0100
0010
0001
0100
0010
1000
0001
,
0010
0001
1000
0010
0100
1000
0001
0100
,
0010
0001
0010
0001
0010
0100
1000
0100
,
0100
0001
1000
0010
0100
1000
0001
0100
,
0010
1000
0001
0010
0100
0001
1000
0100
,
0010
0001
0100
0010
0001
1000
0001
1000
,
0001
1000
0100
0001
0001
0100
1000
0100
,
0010
0000
0001
0000
0010
0010
0100
0000
,
0220
0000
0000
0330
;
