#TITLE:The Carpal Tunnel of Love;
#SUBTITLE:;
#ARTIST:Fall Out Boy;
#TITLETRANSLIT:;
#SUBTITLETRANSLIT:;
#ARTISTTRANSLIT:;
#CREDIT:;
#BANNER:banner.png;
#BACKGROUND:background.png;
#LYRICSPATH:;
#CDTITLE:Cdtitle.png;
#MUSIC:The Carpal Tunnel of Love.mp3;
#OFFSET:0.040;
#SAMPLESTART:105.800;
#SAMPLELENGTH:15.520;
#SELECTABLE:YES;
#BPMS:0.000=141.000;
#STOPS:;
#BGCHANGES:0.000=The Carpal Tunnel of Love.avi=1.000=1=0=0,
99999=-nosongbg-=1.000=0=0=0 // don't automatically add -songbackground-
;

//---------------dance-single - ----------------
#NOTES:
     dance-single:
     :
     Beginner:
     1:
     0.081,0.108,0.033,0.007,0.000:
0000
0000
0000
0000
,
0000
0000
0000
0000
,
0000
0000
0000
0000
,
0000
0000
0000
0000
,
0000
0010
0000
0000
,
0000
0010
0000
0000
,
0000
1000
0000
0000
,
1000
0000
0000
0000
,
0000
0001
0000
0000
,
0000
0001
0000
0000
,
0000
0100
0000
0000
,
0100
0000
0000
0000
,
0000
0010
0000
0000
,
0000
0010
0000
0000
,
0000
1000
0000
0000
,
0000
0100
0000
0010
,
0000
0001
0001
0000
,
0000
1000
1000
0000
,
0000
0010
0010
0000
,
0100
0100
0000
0000
,
0000
0001
0000
0000
,
0000
0001
0000
0000
,
0000
0010
0000
0000
,
0010
0000
0100
0000
,
0000
0100
0000
0000
,
0000
1000
0000
0000
,
1000
0000
0000
0000
,
0010
0000
0000
0000
,
0000
0010
0000
0000
,
0000
0000
0000
0100
,
0000
0000
0000
0000
,
1000
0000
0000
0000
,
0000
0001
0000
0000
,
0000
0100
0000
0000
,
0000
0100
0000
0000
,
0000
0000
0000
0000
,
0000
1001
0000
0000
,
0000
0000
0000
0000
,
0000
1001
0000
0000
,
0000
0000
0000
0000
,
0000
1001
0000
0000
,
0000
0010
0000
0000
,
0000
0010
0000
0000
,
0000
0100
0000
0000
,
0000
0100
0000
0000
,
0001
0000
0000
0000
,
0000
0001
0000
0000
,
0000
0000
1000
0000
,
0000
1000
0000
0000
,
0000
0010
0000
0000
,
0000
0100
0000
0000
,
0000
0100
0000
0000
,
0000
0010
0000
0000
,
0000
0001
0000
0000
,
0000
1000
1000
0000
,
0000
0010
0010
0000
,
0000
0100
0100
0000
,
0000
0001
0001
0000
,
0000
0010
0000
0000
,
0000
0100
0000
0000
,
0000
0010
0000
0000
,
0000
0000
0000
0000
,
0000
1000
0000
0000
,
0000
0010
0000
0000
,
0000
0100
0000
0000
,
0000
0001
0000
0000
,
0000
0010
0000
0000
,
0000
0100
0000
0000
,
0000
1000
0000
0000
,
0000
0010
0000
0000
,
0000
1001
0000
0000
,
0000
1001
0000
0000
,
0000
0010
0000
0000
,
0000
0100
0000
0000
,
0000
0010
0000
0000
,
0000
1000
0000
0000
,
0000
0010
0000
0000
,
0000
0000
0000
0000
,
0000
0020
0000
0000
,
0000
0000
0000
0000
,
0000
0000
0030
0000
;

//---------------dance-single - ----------------
#NOTES:
     dance-single:
     :
     Easy:
     4:
     0.246,0.296,0.047,0.187,0.000: // measure 1
0000
0000
0000
0000
,  // measure 2
0000
0000
0000
0000
,  // measure 3
0000
0000
0000
0000
,  // measure 4
0000
0000
0000
0000
,  // measure 5
0000
0010
1000
0010
,  // measure 6
0000
0001
0100
0001
,  // measure 7
0100
0100
0000
1000
,  // measure 8
0001
0010
0100
0000
,  // measure 9
0000
0001
0001
0001
,  // measure 10
0100
0001
0000
1000
,  // measure 11
0001
2000
3100
0002
,  // measure 12
0010
1000
0010
0013
,  // measure 13
0000
2000
0100
0010
,  // measure 14
3100
0020
1000
0100
,  // measure 15
1030
1000
0010
0000
,  // measure 16
0100
0001
0000
0010
,  // measure 17
0000
0001
0010
0001
,  // measure 18
0010
1000
0100
1000
,  // measure 19
0000
0100
0010
0000
,  // measure 20
0001
0100
0000
1000
,  // measure 21
1000
0001
0000
0100
,  // measure 22
0000
0010
0000
0100
,  // measure 23
0000
0000
1001
0000
,  // measure 24
1001
0000
0100
0000
,  // measure 25
0100
0000
0100
0000
,  // measure 26
0001
0100
0000
0010
,  // measure 27
1000
0000
0110
0000
,  // measure 28
0110
0000
0002
1000
,  // measure 29
0000
0023
0100
0000
,  // measure 30
0130
2000
0001
0000
,  // measure 31
3001
0020
1000
0000
,  // measure 32
1030
0000
0100
0000
,  // measure 33
0100
0002
1000
0000
,  // measure 34
1003
0200
0010
0000
,  // measure 35
0310
0002
1000
0000
,  // measure 36
1003
0010
0100
0010
,  // measure 37
0100
0110
0000
0000
,  // measure 38
0100
0000
0000
0010
,  // measure 39
0000
1001
0000
0100
,  // measure 40
0000
0010
0010
0010
,  // measure 41
0000
0001
0100
1000
,  // measure 42
0001
0100
0100
0000
,  // measure 43
0010
0010
0000
1000
,  // measure 44
0000
0100
0010
0001
,  // measure 45
0000
0100
0001
1000
,  // measure 46
0001
0000
0100
0000
,  // measure 47
0000
0001
0000
1000
,  // measure 48
1000
0000
0001
0000
,  // measure 49
0010
1000
0000
0000
,  // measure 50
0100
0010
0000
0001
,  // measure 51
0100
0200
0010
0001
,  // measure 52
0310
0002
0010
1000
,  // measure 53
0013
0100
0100
0000
,  // measure 54
0001
0001
0100
0010
,  // measure 55
0000
0001
1000
0010
,  // measure 56
0100
0010
0010
0000
,  // measure 57
0000
0200
1000
0001
,  // measure 58
1300
0020
0001
1000
,  // measure 59
0031
0010
0000
0100
,  // measure 60
0000
0100
0001
0000
,  // measure 61
1000
0020
0000
0000
,  // measure 62
0000
0000
0000
0030
,  // measure 63
0000
2000
0010
0001
,  // measure 64
0010
3001
0200
0001
,  // measure 65
1000
0001
1300
0002
,  // measure 66
0010
1000
0010
1003
,  // measure 67
0000
0020
1000
0100
,  // measure 68
1000
0130
0001
0001
,  // measure 69
0100
2000
0010
0100
,  // measure 70
3010
0020
0100
0001
,  // measure 71
0130
2002
0000
0000
,  // measure 72
3003
0010
0100
1000
,  // measure 73
0100
0020
1000
0001
,  // measure 74
1030
0002
0010
1000
,  // measure 75
0013
2000
0010
0000
,  // measure 76
3010
1000
1000
0001
,  // measure 77
0100
0010
0010
0010
,  // measure 78
1000
1000
1000
0001
,  // measure 79
0001
0200
0000
0000
,  // measure 80
0000
0000
0000
0000
,  // measure 81
0000
0000
0300
0000
;

//---------------dance-single - ----------------
#NOTES:
     dance-single:
     :
     Medium:
     7:
     0.345,0.377,0.147,0.134,0.000:
0000
0000
0000
0000
,
0000
0000
0000
0000
,
0000
0000
0000
0000
,
0000
0000
0000
0000
,
0000
1000
0001
0010
,
0100
0000
0001
1000
0100
0000
0001
0000
,
0100
0001
0010
1000
,
0001
0000
0010
0001
0100
0000
1000
0010
,
1000
1001
1001
1001
,
0100
0001
0100
0010
,
1000
0001
0100
0001
,
0010
0000
1000
0001
0010
0000
0100
0010
,
0001
0010
2000
0000
3100
0000
0020
0000
,
0130
0200
0301
0001
,
1001
1000
0010
0000
,
0100
0000
0001
0000
1000
0000
0100
0001
,
0100
0001
0001
0001
,
1000
0000
1000
0000
1000
0000
1000
0001
,
1000
0010
0100
0000
0010
0000
0000
0000
,
1000
0100
0000
0010
,
0001
0000
0100
0000
0000
0010
0100
0000
,
0000
0000
0010
0000
0000
1000
0100
0000
,
0010
0000
0100
0010
0010
0000
0000
0100
,
0100
0000
0000
1000
1000
0000
0000
0001
,
0001
1000
0100
0010
,
0001
1000
0010
0100
,
0001
0000
0000
0100
0010
0000
0000
0010
,
0001
0000
0100
1000
0010
0000
1000
0000
,
0010
1002
0010
0000
,
0013
0000
1000
0000
0010
0000
0001
0100
,
0001
0012
0100
0000
,
0103
0000
0001
0001
0100
0000
0010
0010
,
1000
2100
0001
0000
,
3001
0000
0001
0000
0100
0000
0010
1000
,
0010
0012
0100
0000
,
0103
0000
0110
0110
,
0110
1001
0001
1000
,
0100
0000
0000
0010
,
0010
0000
0010
0100
1000
0000
0100
0010
,
1000
0100
0100
0100
,
0001
0010
0100
0000
0001
0100
0001
0000
,
0001
1100
1100
0000
,
0011
0011
0001
1000
,
0001
1000
0100
0001
0010
0000
0100
0000
,
0000
0010
0100
1000
,
0001
0100
0100
1000
,
1000
0000
0001
0000
0010
1000
0010
0000
,
0100
0000
0000
0000
0001
0010
0100
0000
,
0001
1000
0010
1000
,
0100
0000
0010
0001
0100
0001
0010
0100
,
0001
2000
3010
0002
,
0013
0200
0310
0020
,
1030
0200
0301
0001
,
1000
0100
0010
1000
,
0100
0000
0001
0010
1000
0000
0010
0000
,
0100
0000
0010
0000
0100
0000
0001
1000
,
0001
0000
0000
0010
0100
0000
0000
0001
,
1000
0000
0001
1000
0000
0000
0010
0100
,
0000
0000
0001
0000
0010
1000
0010
0000
,
0001
0100
0001
1000
,
1000
0001
1000
0100
0020
0000
0000
0000
,
0000
0000
0030
0000
,
0000
2100
0001
0100
,
0001
0000
3100
0000
0100
0000
0001
0100
,
0001
0100
1000
0100
,
0010
0000
1000
0001
0010
0000
0100
0001
,
1000
2001
0100
0001
,
3100
0000
0100
0001
0010
0000
0001
0010
,
0100
2010
0010
0100
,
3010
0000
0001
0010
0100
0000
0001
1000
,
0100
0000
0001
0100
0100
0100
0000
0000
,
0000
0000
0001
0000
0100
0000
1000
0100
,
0010
0021
1000
0001
,
1030
1002
0010
1000
,
0013
2100
0010
0000
,
3010
0000
1000
0000
0010
0000
0010
1000
,
0100
0010
0010
0010
,
1000
0000
1000
0100
1000
0100
0001
0100
,
0001
0020
0000
0000
,
0000
0000
0000
0000
,
0000
0000
0030
0000
;

//---------------dance-single - ----------------
#NOTES:
     dance-single:
     :
     Hard:
     8:
     0.444,0.512,0.141,0.067,0.000:
0000
0000
0000
0000
,
0000
0000
0000
0000
,
0000
0000
0000
0000
,
0000
0000
0000
0000
,
0000
0100
1000
0001
,
0100
0000
0001
1000
0100
0000
0010
0100
,
0001
0000
0100
0000
0010
0001
1000
0000
,
0100
0000
1000
0010
0001
0000
0001
0100
,
0010
1000
0001
1000
,
0100
0000
0001
0010
0100
0000
0010
0000
,
2000
3001
0100
0001
,
0010
0000
1000
0001
0010
0000
0001
0100
,
0001
0100
0001
0010
0001
0100
0020
0000
,
0130
0000
0100
0001
0100
0010
0002
0000
,
1003
0000
1000
0001
0010
0000
0100
0001
,
0000
0000
0001
0010
0100
1000
0010
0001
,
0010
1000
1000
0100
0001
0000
0001
0000
,
0010
0000
0100
0000
1000
0100
1000
0000
,
0100
0010
0001
0100
0020
0000
0031
0010
,
0001
0010
0200
0000
0300
0000
0010
0000
,
0001
0000
0101
0000
0000
0010
0100
0001
,
0000
0000
0010
0000
0010
0001
0100
0001
,
0010
0001
0100
0110
0110
0000
0000
1100
,
1100
0000
0000
1010
1010
0000
0000
1001
,
1001
0000
0010
0001
0100
0000
1000
0000
,
0001
0000
0100
0001
0010
0001
0100
1000
,
0010
0001
0000
0011
0011
0000
0000
0110
,
0110
0000
0100
1000
0010
1000
0010
1000
,
0010
0000
0001
1000
0010
0000
0100
0000
,
0010
0000
1000
0001
0010
0100
0010
0100
,
1000
0000
0001
0010
0100
1000
0100
0010
,
0001
0000
0001
0100
0101
0000
0010
1000
,
1100
0000
0100
0010
0001
0000
0100
0000
,
0001
0000
0001
0001
0010
1000
0010
1000
,
0010
0000
1000
0100
0010
0001
0010
0100
,
1000
0100
0010
0100
1010
0000
1010
0000
,
1010
1001
0001
1000
,
0100
0001
1000
0010
,
0010
0000
0100
0001
1000
0000
0100
0010
,
0001
0000
0010
0001
0010
0000
0100
0000
,
0001
0010
0100
0000
0001
0100
0001
0000
,
0001
1000
0001
0100
,
0001
0000
0001
0100
0000
0100
0010
0000
,
0001
0100
1000
0001
0010
0000
0100
0000
,
0001
1000
0010
0000
0001
0000
0100
0000
,
0100
0000
0010
0000
0010
0000
1000
0010
,
1000
0100
0001
0100
0010
1000
0020
0000
,
0130
0000
0001
0000
0001
0100
0020
0000
,
1030
0000
1000
0100
1000
0001
1000
0100
,
1000
0010
1000
0001
0100
0001
0010
0100
,
0001
1000
0010
1000
,
0010
0100
0010
0001
,
1000
0001
1000
0100
0001
0000
0100
0000
,
1000
0100
0010
0000
0100
0001
1000
0000
,
0100
0000
0001
0010
1000
0000
0001
0100
,
0001
0000
0010
1000
0100
0010
0001
0010
,
0010
1000
0100
0000
0100
0001
0100
0001
,
1000
0000
0010
0000
0010
1000
0010
1000
,
0001
0000
0100
0000
0010
1000
0001
0100
,
0001
0000
0100
0000
0010
0000
0100
0010
,
0100
0001
1000
0100
0020
0000
0000
0000
,
1030
0100
0001
0100
0001
0010
1000
0001
,
0100
0000
1000
0010
0100
0000
0001
0000
,
1000
0000
0010
0000
0010
1000
0001
0100
,
0001
0000
0100
0010
0001
0010
0100
1000
,
0100
0010
1000
0010
0010
0000
0100
0001
,
1000
0000
1000
0100
0010
0000
0001
0000
,
0100
0000
0100
0001
0100
0001
1000
0010
,
0100
0000
0001
0000
1000
0100
0010
0001
,
0010
0100
1000
0001
0100
0000
0001
1000
,
0100
0000
0001
0100
0010
0010
0000
0000
,
1001
0000
0010
0001
0100
0000
0001
0010
,
0100
0000
0001
0010
0100
1000
0100
0010
,
0001
1000
0010
0100
0001
0010
1000
0000
,
0010
0001
0010
1000
0010
0000
0100
0000
,
0001
0000
0100
0001
1000
0001
0010
0001
,
0100
0000
0100
0001
0100
0001
0100
0001
,
1000
0010
1000
0010
1000
0100
0001
0100
,
0001
0100
0220
0000
0000
0000
0000
0000
,
0000
0000
0000
0000
,
0000
0000
0330
0000
;
