#TITLE:Stella-rium;
#SUBTITLE:;
#ARTIST:鹿乃;
#TITLETRANSLIT:;
#SUBTITLETRANSLIT:;
#ARTISTTRANSLIT:Kano;
#CREDIT:;
#BANNER:banner.png;
#BACKGROUND:background.png;
#LYRICSPATH:;
#CDTITLE:Cdtitle.png;
#MUSIC:Stella-rium.mp3;
#OFFSET:-0.020;
#SAMPLESTART:51.900;
#SAMPLELENGTH:20.980;
#SELECTABLE:YES;
#BPMS:0.000=177.000;
#STOPS:;
#BGCHANGES:1.000=Stella-rium.avi=1.000=1=0=0,
99999=-nosongbg-=1.000=0=0=0 // don't automatically add -songbackground-
;

//---------------dance-single - ----------------
#NOTES:
     dance-single:
     :
     Beginner:
     1:
     0.079,0.072,0.011,0.022,0.000:
0000
0000
0000
0000
,
0000
0000
0000
0000
,
0000
0000
0000
0000
,
0000
0000
0000
0000
,
0000
0000
0010
0000
,
0000
0000
0000
0000
,
0000
0000
1000
0000
,
0000
0000
0000
0000
,
0000
0000
0001
0000
,
0000
0000
1000
0000
,
0000
0000
0010
0000
,
0000
0000
0100
0000
,
0000
0000
0010
0000
,
0000
0000
0000
0000
,
0000
0000
1000
0000
,
0000
0000
0000
0000
,
0000
0000
0001
0000
,
0000
0000
0000
0000
,
0000
0000
0100
0000
,
0000
0000
0010
0000
,
0000
0000
0000
1000
,
0000
0000
0000
0000
,
0001
0000
0000
0000
,
0000
0000
0010
0000
,
0000
0000
1000
0000
,
0000
0000
0100
0000
,
0000
0000
0010
0000
,
0000
0000
0000
0000
,
0000
0000
0100
0000
,
0000
0000
0100
0000
,
0000
0000
0001
0000
,
0000
0000
0001
0000
,
0000
0000
0010
0000
,
0000
0000
0010
0000
,
0000
0000
1000
0000
,
0000
0000
1000
0000
,
0000
0000
0010
0000
,
0000
0000
0000
0000
,
0000
0000
1001
0000
,
0000
0000
0000
0000
,
0000
0000
0100
0000
,
0000
0000
0010
0000
,
0000
0000
1000
0000
,
0000
0000
1000
0000
,
0000
0000
0001
0000
,
0000
0000
0001
0000
,
0000
0000
0010
0000
,
0000
0000
0100
0000
,
0000
0000
0100
0000
,
0000
0000
0010
0000
,
0000
0000
0100
0000
,
0000
0000
0010
0000
,
0000
0000
2000
0000
,
0000
0000
0000
3000
,
0000
0000
0001
0000
,
0000
0000
1000
0000
,
0000
0000
0100
0000
,
0000
0000
0010
0000
,
0000
0000
1000
0000
,
0000
0000
0000
0000
,
0000
0000
0010
0000
,
0000
0000
0000
0000
,
0000
0000
0020
0000
,
0000
0000
0000
0000
,
0000
0000
0030
0000
;

//---------------dance-single - ----------------
#NOTES:
     dance-single:
     :
     Easy:
     8:
     0.301,0.536,0.144,0.211,0.000:
0000
0000
0000
0000
,
0000
0000
0000
0000
,
0000
0000
0000
0000
,
0000
0000
0000
0000
,
0000
0000
0200
0000
,
0301
0000
0010
1000
,
0001
0100
0020
0000
,
1030
0000
0001
1000
,
0010
0100
0002
0000
,
1003
0010
1000
0100
,
0010
0001
0010
0100
,
0010
1000
0010
1000
,
0100
0010
0020
0000
,
0000
0000
0000
0000
,
0000
0030
0200
0000
,
0000
0000
0000
0000
,
0300
0000
2000
0000
,
0000
0000
0000
3000
,
0000
0000
0002
0000
,
0000
0000
0000
0000
0003
0100
0000
1000
,
0000
1001
0000
0000
0001
0000
1000
0000
,
0100
0010
0001
0100
,
0010
1000
0001
0010
,
0100
0100
0100
0000
,
0000
0001
0100
0001
,
0100
0010
0100
0010
,
1000
0100
0010
0001
,
0100
0100
0100
0100
,
0000
0010
2000
0000
,
0000
3001
0200
0000
,
0000
0310
0020
0000
,
0000
0031
2000
0000
,
3000
0001
0010
0001
,
0000
1000
0100
1000
,
0000
0010
0010
0010
,
0100
0100
0100
0001
,
1000
0100
0020
0000
,
0000
0000
0000
0000
,
0030
0000
1010
1000
,
0001
1000
0001
0100
,
0010
0000
0101
0001
,
0100
0001
1000
0010
,
0000
0000
0100
0100
,
0100
0100
1000
1000
,
1000
1000
0010
0010
,
0010
0001
0002
0000
,
0003
0000
0001
0001
,
0001
0000
1000
1000
,
1000
0000
0010
0010
,
0010
0000
0100
0100
,
0100
0000
0110
1001
,
1001
1001
1100
0101
,
0011
1010
2002
0000
,
0000
0000
0000
3003
,
0000
0000
0002
0000
,
0013
0000
0010
0100
,
0001
1000
0200
0000
,
0301
0000
0100
1000
,
0001
1000
0010
0000
,
0001
0000
0100
0000
,
0010
0000
0100
0100
,
0100
0010
0010
0010
,
0100
1000
2002
0000
,
0000
0000
0000
0000
,
0000
0000
3003
0000
;

//---------------dance-single - ----------------
#NOTES:
     dance-single:
     :
     Medium:
     9:
     0.445,0.501,0.111,0.432,0.000:
0000
0000
0000
0000
,
0000
0000
0000
0000
,
0000
0000
0000
0000
,
0000
0000
0000
0000
,
0000
0000
0000
0000
0020
0000
0000
1000
,
1030
0000
0100
0001
,
1000
0100
1000
0000
0002
0000
0000
0010
,
0013
0000
1000
0010
,
0001
0100
0001
0000
0020
0000
0000
0100
,
0130
0010
1000
0010
,
1000
0100
0001
0100
,
0001
0000
1000
0000
0010
0001
0010
0000
,
1000
0010
1000
0000
0010
1000
0000
0000
,
0001
0100
0010
0010
,
1000
0000
0001
0000
0100
0000
0010
0100
,
1000
0010
0100
0001
,
0000
0000
0000
0010
0100
0000
0001
0000
,
0010
0100
1000
0010
,
0100
0001
1000
0001
,
0010
0000
0010
0000
0100
0100
0000
0010
,
0000
0110
0000
0010
1000
0000
0100
0000
,
1000
0100
0010
0001
,
0010
0000
1000
0000
0001
0000
0010
1000
,
0010
0001
0001
0000
,
0000
0001
0010
0001
,
0100
0000
0010
0000
0001
0010
0100
0000
,
1000
0200
0310
0001
,
0100
0010
0100
0010
,
0000
0000
0100
0000
2100
0000
0000
3001
,
0000
0000
0010
0000
0021
0000
0000
0031
,
0000
0000
0001
0000
1002
0000
0000
1003
,
0000
0100
0220
0000
,
0330
1000
0100
0010
,
0001
0000
1000
0000
0100
0010
1000
0010
,
0000
1000
0100
0010
,
0001
0000
0100
0000
0010
0000
0001
0100
,
0001
0100
2002
0000
,
0000
0000
3003
0000
0100
0100
0010
0010
,
0000
0000
0000
0010
1000
0000
0010
0000
,
0001
0010
0100
0100
0100
0000
0001
0000
,
0010
0000
0000
0001
0011
0000
1000
0000
,
0001
0100
0001
0000
1000
0000
0010
0000
,
0100
0000
2000
3200
,
0320
0032
0203
0320
,
2030
3020
0230
0302
,
0023
0230
0302
0000
,
0003
0000
0000
0010
0002
0000
2003
0000
,
3001
0000
0100
1000
0001
1000
0001
0001
,
0000
0000
0100
0000
0001
0100
0001
0100
,
0010
0000
0001
0000
0100
0100
0100
0000
,
0001
0000
0002
0023
,
0230
2300
3002
0203
,
0320
1030
2002
0000
,
0000
0000
0000
3003
,
0000
0000
0000
0000
0200
0000
0000
0010
,
0310
0100
1000
0010
,
0001
0010
0100
0000
2000
0000
0000
0100
,
3100
0000
0010
0001
,
0010
1000
0010
0000
0010
0000
0000
1000
,
0000
0001
0000
0100
0000
0100
0000
0001
,
0000
0001
0000
1000
0001
1000
0001
1000
,
0001
0000
0010
0000
0010
0010
0010
0100
,
0000
0010
0000
0220
0000
0000
0000
0000
,
0000
0000
0000
0000
,
0000
0330
1001
0000
;

//---------------dance-single - ----------------
#NOTES:
     dance-single:
     :
     Hard:
     10:
     0.509,0.608,0.399,0.122,0.000: // measure 1
0000
0000
0000
0000
,  // measure 2
0000
0000
0000
0000
,  // measure 3
0000
0000
0000
0000
,  // measure 4
0000
0000
0000
0000
,  // measure 5
0000
0000
0000
0000
1001
0000
0000
0001
,  // measure 6
0001
0000
0000
0010
0100
0000
0010
0000
,  // measure 7
0001
0100
0001
0000
0101
0000
0000
0100
,  // measure 8
0100
0000
0000
0010
1000
0010
1000
0001
,  // measure 9
0100
0001
0100
0000
0101
0000
0100
0000
,  // measure 10
1100
1000
1001
0001
,  // measure 11
0011
0010
0110
0100
,  // measure 12
0101
0000
1000
0000
1000
0100
0010
0001
,  // measure 13
0100
0010
1000
0001
0100
0000
0010
0010
,  // measure 14
0000
0100
0000
0001
0000
0000
0100
0000
,  // measure 15
1000
0000
0001
0000
1000
0000
0010
0100
,  // measure 16
0000
0010
0000
0100
0000
0001
0000
0000
,  // measure 17
0000
0010
0000
0000
0100
0010
0001
0000
,  // measure 18
0010
0100
1000
0010
,  // measure 19
0100
0001
1000
0001
,  // measure 20
0100
1000
0010
0000
0100
0100
0000
0010
,  // measure 21
0000
0010
1000
0010
1000
0000
0100
0000
,  // measure 22
1000
0100
0010
0001
,  // measure 23
0010
0000
1000
0000
0001
0000
0010
1000
,  // measure 24
0010
0001
0001
0100
,  // measure 25
1000
0001
0010
0001
,  // measure 26
0100
0000
0010
0000
0001
0010
0100
0000
,  // measure 27
1000
0010
0200
0000
0310
0000
0001
0000
,  // measure 28
0100
0000
0010
0000
0100
0000
0010
0001
,  // measure 29
0100
0010
0100
0000
1000
0000
0000
1100
,  // measure 30
0000
0000
0100
0000
0001
0000
0000
0101
,  // measure 31
0000
0000
0100
0000
0010
0000
0000
0110
,  // measure 32
0000
1000
2020
0000
,  // measure 33
3030
1000
0100
0010
,  // measure 34
0001
0000
1000
0000
0100
0010
1000
0010
,  // measure 35
0000
1000
0100
0010
,  // measure 36
0001
0000
0100
0000
0010
0100
0001
0100
,  // measure 37
0001
0100
2002
0000
,  // measure 38
0000
0000
3003
0000
1000
0010
0100
0001
,  // measure 39
0000
0000
0000
0010
1000
0100
0010
0000
,  // measure 40
0001
0010
0100
0001
0100
1000
0010
0100
,  // measure 41
0010
0000
0000
0001
0010
0100
1000
0100
,  // measure 42
0010
0100
0001
0000
1000
0100
0010
0000
,  // measure 43
0100
0010
0001
0000
1100
0000
0101
0000
,  // measure 44
1100
0101
1100
0101
,  // measure 45
1010
0000
0011
0000
1000
0010
1000
0000
,  // measure 46
0100
0001
0100
0000
2002
0000
0000
0000
,  // measure 47
3003
0000
0000
0010
1000
0000
0001
0000
,  // measure 48
0001
0010
0001
0100
0100
1000
0010
1000
,  // measure 49
0000
0000
0100
0000
0001
0100
0001
0100
,  // measure 50
0010
0001
0000
0001
1000
0100
1000
0100
,  // measure 51
0001
0100
0011
1100
,  // measure 52
0011
1100
0101
1010
,  // measure 53
0010
0100
0220
0000
,  // measure 54
0000
0000
0000
0330
0001
0100
0001
1000
,  // measure 55
0100
0010
0001
0100
0101
0000
0000
0100
,  // measure 56
0100
0000
0000
0010
1000
0001
1000
0010
,  // measure 57
0001
0010
0100
0000
1100
0000
0000
1000
,  // measure 58
1000
0000
0000
0001
0010
0001
0100
0000
,  // measure 59
0010
1000
0010
0000
0010
0000
0000
1010
,  // measure 60
0000
0100
0000
0101
0000
1000
0000
1001
,  // measure 61
0000
0001
0000
1000
0100
0010
0001
1000
,  // measure 62
0100
0010
0001
0000
0001
0010
0001
1000
,  // measure 63
0000
0010
0000
2020
0000
0000
0000
0000
,  // measure 64
0000
0000
0000
0000
,  // measure 65
0000
3030
1100
0000
;
