#TITLE:Soak Up the Sun;
#SUBTITLE:;
#ARTIST:Sheryl Crow;
#TITLETRANSLIT:;
#SUBTITLETRANSLIT:;
#ARTISTTRANSLIT:;
#CREDIT:;
#BANNER:banner.png;
#BACKGROUND:background.png;
#LYRICSPATH:;
#CDTITLE:Cdtitle.png;
#MUSIC:Soak Up the Sun.mp3;
#OFFSET:-0.040;
#SAMPLESTART:44.020;
#SAMPLELENGTH:22.080;
#SELECTABLE:YES;
#BPMS:0.000=120.000,234.000=113.780,235.000=112.360,236.000=111.460,237.000=109.640,238.000=107.640,239.000=105.620,240.000=102.960,241.000=100.000;
#STOPS:;
#BGCHANGES:8.000=Soak Up the Sun.avi=1.000=1=0=0,
99999=-nosongbg-=1.000=0=0=0 // don't automatically add -songbackground-
;

//---------------dance-single - ----------------
#NOTES:
     dance-single:
     :
     Beginner:
     2:
     0.089,0.119,0.000,0.123,0.000:
0000
0000
0000
0000
,
0000
0000
0000
0000
,
0000
0000
0000
0000
,
0000
0000
0000
0000
,
0000
0000
0010
0000
,
0000
0000
0000
0000
,
0100
0000
0000
0000
,
0001
0000
0000
0000
,
0001
0000
0100
0000
,
0100
0000
0100
0000
,
0000
0010
0000
0010
,
0000
0010
0000
0000
,
1000
0000
0000
0000
,
0001
0000
0000
0000
,
0100
0000
0000
0000
,
0100
0000
0000
0000
,
0010
0000
0010
0000
,
0010
0000
0010
0000
,
0000
1000
0000
1000
,
0000
0000
1000
0000
,
0000
0001
0000
0000
,
0010
0000
0000
0000
,
0020
0000
0000
0000
,
0030
0000
0000
0000
,
0200
0000
0000
0000
,
0300
0000
0000
0000
,
0010
0000
0010
0000
,
0010
0000
0100
0000
,
0200
0000
0000
0000
,
0300
0000
1000
0000
,
2000
0000
0000
3000
,
0000
0000
0010
0000
,
0020
0000
0000
0000
,
0030
0000
0100
0000
,
0100
0000
1000
0000
,
1000
0000
0001
0000
,
0002
0000
0000
0003
,
0000
0000
0010
0000
,
0200
0000
0000
0000
,
0300
0000
0000
0000
,
0020
0000
0000
0000
,
0030
0000
1000
0000
,
1000
0000
0010
0000
,
0010
0000
0010
0000
,
0200
0000
0000
0000
,
0300
0000
0001
0000
,
2000
0000
0000
0000
,
3000
0000
0000
0000
,
0002
0000
0000
0000
,
0003
0000
0010
0000
,
0100
0000
0100
0000
,
0100
0000
1000
0000
,
2000
0000
0000
0000
,
0000
3000
0000
0000
,
0020
0000
0000
0000
,
0030
0000
0000
0000
,
0200
0000
0000
0000
,
0300
0000
0001
0000
,
1000
0000
0010
0000
,
0200
0000
0000
0300
,
0000
0020
0000
0000
,
0000
0000
0000
0000
,
0030
0000
0000
0000
;

//---------------dance-single - ----------------
#NOTES:
     dance-single:
     :
     Easy:
     3:
     0.215,0.238,0.023,0.269,0.004:
0000
0000
0000
0000
,
0000
0000
0000
0000
,
0000
0000
0000
0000
,
0000
0000
0000
0000
,
0000
0000
0010
0000
,
1000
1000
0001
0000
,
0100
0010
0010
1000
,
0001
0010
0100
0000
,
0001
0010
0100
0001
,
0100
0001
0100
0000
,
0000
0010
1000
0010
,
1000
0010
0100
0100
,
1000
0010
0100
0000
,
0001
0001
0010
0000
,
0100
0100
0010
0000
,
0100
1000
0010
0000
,
0010
0100
0010
0100
,
0100
0001
0100
0000
,
0000
1000
1000
1000
,
0100
0100
0010
0110
,
0000
0001
0001
0001
,
0010
0010
0100
1001
,
0002
1000
0000
1000
,
0000
1003
0010
0010
,
0020
0100
0000
0100
,
0000
0130
0010
0001
,
0020
0030
2000
3000
,
0200
0300
0020
0030
,
0002
1000
1000
1000
,
1003
0000
0001
0010
,
0200
0001
0000
0001
,
0000
0301
0010
0100
,
2000
0010
0000
0010
,
3000
0001
1000
0001
,
2000
3000
0020
0030
,
0020
0030
0200
0300
,
0002
0100
0000
0100
,
0000
0013
0100
0001
,
0020
0100
0000
0100
,
0000
0130
0001
0100
,
0002
1000
0000
1000
,
0000
1003
1000
0010
,
0200
0300
0002
0003
,
0002
0003
0020
0030
,
0200
0001
0000
0001
,
0000
0301
0001
0100
,
2000
0010
0000
0010
,
0000
3010
0100
0010
,
0200
0001
0000
0001
,
0000
0301
0100
0001
,
2000
3000
0200
0300
,
2000
3000
0020
0030
,
2002
0000
0000
0000
,
0000
3003
0100
0100
,
0002
0000
0000
0000
,
0003
1000
0010
1000
,
0020
0000
0000
0000
,
0030
0100
0100
0001
,
0200
0300
0020
0030
,
0200
0000
0000
0000
0000
0000
0000
0000
0000
0000
0300
0000
0001
0000
0000
1000
,
0000
0200
0000
0000
,
0000
0000
0000
0000
,
0300
0000
0000
0000
;

//---------------dance-single - ----------------
#NOTES:
     dance-single:
     :
     Medium:
     5:
     0.279,0.334,0.023,0.323,0.004:
0000
0000
0000
0000
,
0000
0000
0000
0000
,
0000
0000
0000
0000
,
0000
0000
0000
0000
,
0000
1000
0010
1000
,
0100
0001
0002
0003
,
0100
0001
0100
0010
,
1000
1000
2000
3000
,
1000
0100
1000
0100
,
0010
0100
0020
0030
,
0001
0010
0100
0001
,
0010
0100
0200
0300
,
1000
0010
0100
1000
,
0100
0010
0002
0103
,
0100
0100
0010
0001
,
0010
0100
2000
3000
,
0010
0100
0010
1000
,
1000
0100
1000
2000
,
3000
0001
0100
0010
,
1000
0010
1000
1010
,
0000
0010
0100
0010
,
1000
0100
0010
0000
1000
0100
1000
0000
,
0002
0010
0000
1003
,
0000
0000
1000
0000
1000
0100
0010
0100
,
2000
0100
0000
3001
,
0000
0000
0100
0000
0010
0000
0001
0100
,
0002
0103
0200
1300
,
2000
3010
0200
0301
,
2002
0000
3003
0000
,
0001
0000
1000
0000
0100
0010
0100
0000
,
2000
0100
0000
3010
,
0001
0000
1000
0100
1000
0010
0100
0000
,
0200
0010
0000
0301
,
0000
0000
0001
0100
0001
0100
0010
0000
,
0200
0310
2000
3100
,
0020
0031
0002
0103
,
0020
1000
0000
1030
,
0000
0100
0010
0000
0001
0000
0001
1000
,
0002
0010
0000
1003
,
0000
0000
0010
0000
0001
0010
0100
0010
,
0002
0100
0000
0013
,
0000
0000
0010
0000
0001
0100
0010
0000
,
0200
0301
0020
1030
,
2000
3001
0002
0103
,
0020
1000
0000
0031
,
0001
0000
0100
0000
0001
0010
0100
0000
,
2000
0010
0000
3001
,
0000
0000
0001
0000
1000
0100
0010
0001
,
0020
0100
0000
0031
,
0000
0000
0001
0000
0001
1000
0001
0000
,
0200
0310
0002
0103
,
0020
0130
2000
3100
,
2001
0001
0000
0001
,
3000
0000
0001
0000
0010
0100
0010
0100
,
0002
0000
0000
0000
,
0003
0000
0001
0100
0010
1000
0010
0100
,
0200
0000
0000
0000
,
0300
0000
0100
0000
0100
0100
0001
0000
,
0020
0000
0230
0000
,
0302
0000
0000
0000
0003
0000
0001
1000
,
0010
0000
0000
2000
0000
0000
0000
0000
0000
0000
0000
0000
0000
0000
0000
0000
,
0000
0000
0000
0000
,
3000
0000
0000
0000
;

//---------------dance-single - ----------------
#NOTES:
     dance-single:
     :
     Hard:
     6:
     0.332,0.381,0.208,0.108,0.004: // measure 1
0000
0000
0000
0000
,  // measure 2
0000
0000
0000
0000
,  // measure 3
0000
0000
0000
0000
,  // measure 4
0000
0000
0000
0000
,  // measure 5
0000
0000
0001
0000
1000
0000
0100
0001
,  // measure 6
0000
0001
0100
0000
0001
0000
0010
0000
,  // measure 7
0001
0000
0001
0000
0100
0001
0000
0001
,  // measure 8
0100
0000
0010
0010
0000
0010
0000
0000
,  // measure 9
0001
0000
1000
0000
0010
0100
0000
0100
,  // measure 10
0010
1000
0000
0010
0000
0000
1000
0000
,  // measure 11
0001
0000
0010
1000
0100
0000
0001
0010
,  // measure 12
0001
0100
0010
0001
,  // measure 13
0001
0100
0010
0100
0000
0001
0000
0010
,  // measure 14
0100
0000
1000
0100
0001
0000
0010
0000
,  // measure 15
0100
0000
0100
0000
0001
0010
0000
0010
,  // measure 16
1000
0010
1000
0001
,  // measure 17
0010
0000
0100
0000
0010
0100
0000
0100
,  // measure 18
0001
0000
0100
0001
1000
0000
0010
0000
,  // measure 19
0100
0000
0001
0000
0100
0010
0001
0000
,  // measure 20
0001
0100
0001
0000
0100
0000
0001
0000
,  // measure 21
0100
0000
0010
0000
0100
0010
0000
0100
,  // measure 22
0001
0100
0001
0010
0100
1000
0100
0000
,  // measure 23
1002
0100
0000
0013
,  // measure 24
0001
0000
0001
0010
0100
1000
0100
0010
,  // measure 25
0012
0100
0000
1003
,  // measure 26
0000
0001
0100
0010
1000
0100
0001
0100
,  // measure 27
0001
0101
0001
1001
,  // measure 28
1000
1010
0010
0110
,  // measure 29
0100
0000
1001
0000
0001
0100
0010
0000
,  // measure 30
0001
1000
1000
0010
0100
0001
0100
0010
,  // measure 31
2010
0100
0000
3001
,  // measure 32
0001
0000
1000
0100
0010
0001
0010
0100
,  // measure 33
2100
0010
0000
3001
,  // measure 34
0100
0000
0001
0100
0100
0010
1000
0000
,  // measure 35
1100
0100
0110
0100
,  // measure 36
0101
0001
1001
1000
,  // measure 37
1010
0000
1000
0000
0001
0010
0100
0000
,  // measure 38
0001
0100
0010
0000
0001
0100
0010
0100
,  // measure 39
0210
0010
0000
0301
,  // measure 40
0000
0000
0100
0010
0001
1000
0100
0010
,  // measure 41
0020
0100
0000
1030
,  // measure 42
0000
0001
0010
0100
0001
0100
0001
0000
,  // measure 43
0001
0011
0010
0110
,  // measure 44
0100
1100
1000
1001
,  // measure 45
0001
0101
0100
1100
,  // measure 46
0010
0000
0001
0100
0001
1000
0010
0000
,  // measure 47
2010
0100
0000
3001
,  // measure 48
0100
0000
0100
1000
0001
0010
0100
1000
,  // measure 49
2100
0100
0000
3010
,  // measure 50
0100
0000
0010
0000
0010
1000
0010
0000
,  // measure 51
0010
1010
1000
1100
,  // measure 52
0100
0101
0100
0110
,  // measure 53
1000
0000
0001
0000
0100
0001
0100
0000
,  // measure 54
0010
0100
0001
0000
0001
0100
0010
0100
,  // measure 55
2000
0000
0000
0000
,  // measure 56
3000
0000
0001
0010
0100
1000
1000
0020
,  // measure 57
0000
0000
0000
0000
,  // measure 58
0030
0000
0001
0001
0010
0100
0010
0000
,  // measure 59
0002
0000
0203
0000
,  // measure 60
0320
0000
0000
0000
0030
0000
1000
0010
,  // measure 61
0100
0000
0000
0002
0000
0000
0000
0000
0000
0000
0000
0000
0000
0000
0000
0000
,  // measure 62
0000
0000
0000
0000
,  // measure 63
0003
0000
0000
0000
;
