#TITLE:SHUT UP + DANCE;
#SUBTITLE:;
#ARTIST:WALK THE MOON;
#TITLETRANSLIT:;
#SUBTITLETRANSLIT:;
#ARTISTTRANSLIT:;
#CREDIT:;
#BANNER:banner.png;
#BACKGROUND:background.png;
#LYRICSPATH:;
#CDTITLE:Cdtitle.png;
#MUSIC:Shut Up and Dance.mp3;
#OFFSET:-0.040;
#SAMPLESTART:89.680;
#SAMPLELENGTH:16.000;
#SELECTABLE:YES;
#BPMS:0.000=128.000;
#STOPS:191.000=0.200
;
#BGCHANGES:0.000=Shut Up and Dance.avi=1.000=1=0=0,
99999=-nosongbg-=1.000=0=0=0 // don't automatically add -songbackground-
;

//---------------dance-single - ----------------
#NOTES:
     dance-single:
     :
     Beginner:
     2:
     0.104,0.157,0.095,0.008,0.000:
0000
0000
0000
0000
,
0000
0000
0000
0000
,
0010
0000
0000
0000
,
0000
0000
0000
0000
,
0100
0000
0000
0000
,
0100
0000
0000
0000
,
0010
0000
0000
0000
,
1000
0000
0000
0000
,
0001
0000
0000
0000
,
1001
0000
0000
0000
,
0010
0000
0000
0000
,
0100
0000
0000
0000
,
0010
0000
0010
0000
,
0000
0001
0000
0000
,
1000
0000
1000
0000
,
1000
0000
0010
0000
,
0010
0000
0100
0000
,
0100
0000
0001
0000
,
0001
0000
1000
0000
,
1000
0000
1000
0000
,
0010
0000
0010
0000
,
0010
0000
0100
0000
,
0100
0000
0100
0000
,
0000
0010
0000
0010
,
0000
0000
0010
0000
,
0000
0000
0000
0000
,
1001
0000
0000
0000
,
0010
0000
0000
0000
,
1001
0000
0000
0000
,
0100
0000
0000
0000
,
0100
0000
0000
0000
,
0110
0000
0000
0000
,
0010
0000
0000
0000
,
0110
0000
0000
0000
,
0100
0000
0000
0000
,
0100
0000
0000
0000
,
0001
0000
0000
0000
,
0001
0000
1000
0000
,
0000
1000
0000
0000
,
0010
0000
0010
0000
,
0100
0000
0100
0000
,
0100
0000
0000
0000
,
1001
0000
0000
0000
,
1001
0000
0000
0000
,
0000
0000
0010
0000
,
0000
0000
0000
0100
,
0000
0000
0000
0000
,
0000
0000
0010
0000
,
0000
0000
0000
0000
,
1000
0000
0000
0000
,
0010
0000
0000
0000
,
0110
0000
0000
0000
,
1000
0000
1000
0000
,
0010
0000
0010
0000
,
0100
0000
0100
0000
,
1001
0000
0000
0000
,
1001
0000
0000
0000
,
0010
0000
0000
0100
,
0000
0000
0010
0000
,
0110
0000
0000
0000
,
0100
0000
0000
0000
,
0010
0000
0000
0000
,
0100
0000
0000
0000
,
1001
0000
0000
0000
,
0010
0000
0000
0100
,
0000
0000
0000
2000
,
0000
3000
0000
0000
;

//---------------dance-single - ----------------
#NOTES:
     dance-single:
     :
     Easy:
     3:
     0.291,0.367,0.308,0.071,0.000:
0000
0000
0000
0000
,
0000
0000
0000
0000
,
1000
1000
1000
1000
,
1000
1000
1000
1010
,
0010
0010
0010
0010
,
0010
0010
0010
0110
,
0100
0100
0100
0100
,
0100
0100
0100
0101
,
0001
0001
0001
0001
,
1001
1001
1001
1001
,
1001
0000
0001
0100
,
0100
0000
0001
0000
,
0100
1000
0100
0000
,
0000
0001
0100
0001
,
1000
0000
1000
0010
,
0010
0000
0100
0100
,
0001
0000
0010
0010
,
0100
0000
0010
1000
,
0010
0100
1000
0010
,
0100
0000
1000
0000
,
0110
0010
0010
0000
,
1001
1000
1000
0000
,
0100
0010
0001
1000
,
0000
0001
0010
0100
,
0100
0000
0010
0100
,
1000
1000
1000
0100
,
0101
0001
0100
0000
,
0001
1000
0001
0000
,
0001
0010
0100
0000
,
0110
1001
0110
1001
,
0000
0010
1000
0010
,
0000
1000
0100
0010
,
0002
0000
2000
3003
,
1001
0110
1001
0110
,
0100
0001
1000
0010
,
0100
0001
0000
0010
,
0100
1000
0001
0001
,
0001
0000
0010
0100
,
0100
0010
0001
0001
,
0010
0000
0100
1000
,
0100
0000
1000
0010
,
1000
0000
0010
0010
,
1010
1000
1000
0000
,
0101
0100
0100
0000
,
0000
0100
0010
0100
,
0000
1000
0010
0100
,
0000
0001
1000
0001
,
0100
0100
0010
0000
,
1001
1000
1000
0000
,
0110
0010
0010
0000
,
1000
0100
1000
0000
,
1100
0101
1100
0101
,
0000
0001
1000
0001
,
0000
0010
0100
1000
,
0002
0000
0200
0303
,
0011
1010
0011
1010
,
0001
0010
0100
0000
,
1000
0001
1000
0000
,
0002
0000
0020
0033
,
1100
0011
1100
0011
,
0100
1000
0001
0000
,
0001
0010
0100
0000
,
0002
0000
2000
3003
,
0101
1010
0101
1010
,
0001
0001
0000
1000
1000
0000
0001
0001
,
0000
0000
0100
0000
1000
0000
0010
0020
,
0000
0030
0000
0000
;

//---------------dance-single - ----------------
#NOTES:
     dance-single:
     :
     Medium:
     7:
     0.374,0.419,0.087,0.285,0.000:
0000
0000
0000
0000
,
0000
0000
0000
0000
,
0100
0100
0100
0100
,
0010
0010
0010
1001
,
1000
1000
1000
1000
,
0001
0001
0001
0011
,
0100
0100
0100
0100
,
1000
1000
1000
1100
,
0010
0010
0010
0010
0100
0100
0100
0000
,
0200
0000
0320
0000
2030
0000
3001
1000
,
0001
0100
0010
1000
,
1000
0000
0010
0100
0010
0100
0010
0000
,
0100
1000
0100
0010
,
0100
0000
0001
0100
0001
0100
0010
0000
,
0100
0000
0000
0000
0100
0000
0001
0010
,
0000
0000
0000
0001
0100
0100
0100
0000
,
1000
0010
0010
0000
0010
0000
0010
0000
,
0011
0000
0010
1000
,
0001
0000
0100
0000
0010
0000
0100
0001
,
0000
0010
1000
0000
,
1010
0000
0100
0001
0100
0000
0000
0000
,
0101
0000
1000
0100
1000
0000
0000
0000
,
0001
0010
0100
1100
,
0000
0000
0100
0000
0010
1000
0010
0010
,
0000
0001
0100
0010
,
1000
0000
0010
1000
1000
0000
0100
0001
,
0100
0010
0100
0000
,
1000
0000
0100
0010
0001
0000
0100
0000
,
0001
0000
0100
0001
0100
0000
0100
0000
,
0002
0203
0320
2030
,
3001
0000
0010
0000
0001
0100
0010
0000
,
0001
0010
1000
0000
0100
0010
0010
0000
,
0020
0000
0000
0100
0200
0000
0330
0000
,
2000
3200
0320
0032
,
0103
0001
0001
1000
,
1000
0001
0100
0010
,
0001
0000
1000
0000
0010
0100
0010
0000
,
1000
0000
0000
0001
0010
0001
0010
0000
,
0100
1000
0100
0000
0000
0100
0100
0000
,
0101
0000
0010
1000
,
0010
0100
1000
0000
0010
0000
0100
0100
,
0000
0000
0001
0001
0000
0000
0010
0000
,
1001
0000
0010
0100
1000
0000
0000
0000
,
1100
0000
0010
0001
0010
0000
0100
0000
,
0000
0100
0001
0100
0010
0000
1000
0000
,
0000
0000
1000
0000
0001
0010
0100
0100
,
0000
0100
0100
0001
,
0100
0100
0100
0010
0010
0010
0000
0000
,
0110
0010
0010
0000
,
1000
0000
0100
0001
0010
0000
0001
0000
,
1000
0100
0001
0000
0100
0010
0001
0000
,
2000
3002
2003
3200
,
0301
0000
0001
0000
0010
0100
1000
0000
,
0001
0100
0010
1000
,
2000
0000
0000
0010
0020
0000
3030
0000
,
0020
0230
0320
0230
,
0301
0001
0010
0000
0100
0010
0001
0000
,
0100
0001
0100
0010
,
0002
0000
0000
0100
0200
0000
0303
0000
,
2000
3002
0203
0320
,
1030
1000
0010
0000
1000
0100
0010
0000
,
0100
0010
0100
0001
,
0200
0000
0000
0010
0020
0000
0330
0000
,
0200
0302
0203
2300
,
3010
0100
0000
0100
1000
0000
0100
0001
,
0000
0010
0100
0010
0100
0010
0100
0200
,
0000
0300
0000
0000
;

//---------------dance-single - ----------------
#NOTES:
     dance-single:
     :
     Hard:
     8:
     0.454,0.445,0.364,0.071,0.016: // measure 1
0000
0000
0000
0000
,  // measure 2
0000
0000
0000
0000
,  // measure 3
1000
0100
0010
0001
,  // measure 4
0100
0010
0001
0101
,  // measure 5
0001
0010
0100
1000
,  // measure 6
0010
0100
1000
1100
,  // measure 7
0100
0010
0001
0100
,  // measure 8
0010
0100
1000
1001
,  // measure 9
0010
0001
0010
0001
0010
0100
0010
0100
,  // measure 10
1100
0000
0101
0000
1001
0000
0010
0100
,  // measure 11
0100
0000
0100
0000
0010
0010
1000
0000
,  // measure 12
0001
0000
0100
1000
0100
1000
0010
0000
,  // measure 13
0100
0100
0000
0000
0001
0001
0010
0000
,  // measure 14
0100
0000
1000
0010
1000
0010
0100
0000
,  // measure 15
1000
0000
0010
0000
0010
0000
0001
0010
,  // measure 16
0000
0000
0010
0001
1000
0100
1000
0000
,  // measure 17
1000
0000
0010
0000
0010
0000
0000
0000
0010
0000
0000
0001
0000
0000
0100
0000
,  // measure 18
0000
0000
0001
0010
0100
0010
1000
0001
,  // measure 19
0001
0000
1000
0100
0010
0000
0001
0100
,  // measure 20
0000
0001
0000
0100
0000
0001
0001
0000
,  // measure 21
0110
0001
0100
0001
0100
0100
0000
0000
,  // measure 22
0101
0000
1000
0010
1000
0010
0100
0010
,  // measure 23
0100
0001
0010
0100
0010
0000
1010
0000
,  // measure 24
0000
0001
0100
0001
0100
0010
0001
0001
,  // measure 25
0000
0010
0001
0100
0010
0000
0100
0000
,  // measure 26
1000
0001
0001
0001
0010
0010
0010
0001
,  // measure 27
0100
0010
1000
1000
0000
0100
0010
0001
,  // measure 28
0100
0000
0001
0010
0000
0010
0100
0010
,  // measure 29
1000
0001
0010
0001
0000
0100
0100
0010
,  // measure 30
0011
1010
1100
1001
,  // measure 31
0001
0000
1000
0100
0010
0100
1000
0000
,  // measure 32
0001
0000
0000
0100
0000
0000
0010
0000
1000
0000
0010
0000
0010
0000
0000
0000
,  // measure 33
0012
0000
0100
0200
0000
0000
0303
1000
,  // measure 34
1100
0101
0011
1010
,  // measure 35
1001
0100
0100
0010
,  // measure 36
0010
0001
0100
0010
,  // measure 37
0001
0000
1000
0100
0010
0000
1000
0001
,  // measure 38
0100
0000
0100
1000
0001
0010
0001
0000
,  // measure 39
0010
0000
1000
0000
0010
0000
0000
0000
0100
0000
0000
0010
0000
0000
0010
0000
,  // measure 40
0000
0000
0000
0100
0010
0001
0010
0001
,  // measure 41
0100
0000
0001
0100
0010
0000
0100
0010
,  // measure 42
0000
0000
1000
0100
0000
0001
0010
0001
,  // measure 43
0011
0000
0100
1000
0100
1000
0000
0000
,  // measure 44
1001
0000
1000
0010
1000
0010
0100
0001
,  // measure 45
0100
0000
0001
0010
0100
0000
1001
0000
,  // measure 46
0000
0000
0100
0010
0001
1000
0100
0100
,  // measure 47
0000
0001
0100
0010
1000
1000
0001
0000
,  // measure 48
0010
1000
0010
0100
0001
0100
0110
0000
,  // measure 49
1000
0000
0010
0010
0000
0100
0010
0001
,  // measure 50
0010
0000
0010
0100
0000
0010
0010
1000
,  // measure 51
0100
1000
0001
0010
0000
0010
0001
1000
,  // measure 52
1010
0101
1100
0110
,  // measure 53
1001
0000
0100
0001
0010
0001
1000
0000
,  // measure 54
0010
0000
0000
0100
0000
0000
0100
0000
0000
0000
0010
0000
0010
0000
0000
0000
,  // measure 55
2100
0000
0001
0002
0000
0000
3003
0001
,  // measure 56
0011
1100
0101
1010
,  // measure 57
1001
0000
0010
0000
0100
0010
0001
0000
,  // measure 58
0010
0100
1000
0001
0010
0100
1000
0000
,  // measure 59
1002
0000
0010
0020
0000
0000
0033
0010
,  // measure 60
1010
1100
0101
0011
,  // measure 61
1001
0000
0010
0000
1000
0100
1000
0000
,  // measure 62
0100
0010
0001
0100
0010
0001
0001
0000
,  // measure 63
0210
0000
0001
0002
0000
0000
0303
0001
,  // measure 64
0101
0011
1010
1100
,  // measure 65
1001
1000
0000
0100
0001
0000
0001
0010
,  // measure 66
0000
0001
0100
0010
1000
0010
0100
0200
,  // measure 67
0000
0300
0000
0000
;
