#TITLE:Shake It Off;
#SUBTITLE:;
#ARTIST:Taylor Swift;
#TITLETRANSLIT:;
#SUBTITLETRANSLIT:;
#ARTISTTRANSLIT:;
#CREDIT:;
#BANNER:banner.png;
#BACKGROUND:background.png;
#LYRICSPATH:;
#CDTITLE:Cdtitle.png;
#MUSIC:Shake It Off.mp3;
#OFFSET:-0.060;
#SAMPLESTART:101.580;
#SAMPLELENGTH:14.380;
#SELECTABLE:YES;
#BPMS:0.000=160.000;
#STOPS:;
#BGCHANGES:0.000=Shake It Off.avi=1.000=1=0=0,
99999=-nosongbg-=1.000=0=0=0 // don't automatically add -songbackground-
;

//---------------dance-single - ----------------
#NOTES:
     dance-single:
     :
     Beginner:
     3:
     0.128,0.165,0.000,0.013,0.000:
0000
0000
0000
0000
,
0000
0000
0000
0000
,
0010
0000
0000
0000
,
0000
0000
0100
0100
,
0100
0000
0000
0000
,
0000
0000
0001
0001
,
0001
0000
0000
0000
,
0010
0000
0100
0000
,
0100
0000
0000
0100
,
0100
0000
1000
0000
,
1000
0000
1000
0000
,
0001
0000
0001
0000
,
0001
0000
0001
0000
,
0010
0000
0010
0000
,
0010
0000
0000
0100
,
0100
0000
1000
0000
,
1000
0000
0000
1000
,
1000
0000
0100
0000
,
0100
0000
0100
0000
,
0010
0000
0010
0000
,
0010
0000
0010
0000
,
0001
0000
0001
0000
,
0001
0000
0001
0000
,
1000
1000
0000
0000
,
0010
0010
0000
0000
,
0000
0100
0100
0000
,
0001
0000
0001
0000
,
0001
0000
0000
0000
,
0010
0010
0010
0000
,
0000
0000
0000
0000
,
1000
1000
1000
0000
,
0000
0000
0000
0000
,
0000
0001
0000
0000
,
1000
0000
0000
0000
,
0010
0010
0010
0000
,
0000
0000
0000
0000
,
1000
1000
1000
0000
,
0000
0000
0000
0000
,
0100
0100
0100
0100
,
0000
0000
0000
0000
,
0000
0010
0000
0000
,
0100
0000
0000
0000
,
0000
0100
0000
0000
,
0010
0000
0000
0000
,
0000
0010
0000
0000
,
0010
0000
0000
0000
,
0000
1000
0000
0000
,
1000
0000
0000
0000
,
0000
0001
0000
0000
,
0001
0000
0000
0000
,
0010
0000
0000
0000
,
0000
0000
0000
0000
,
0010
0000
0000
0000
,
0000
0000
0000
0000
,
1000
0000
0000
0000
,
0000
0000
0000
0000
,
0000
0001
0000
0000
,
0000
0000
0000
0000
,
0010
0000
0000
0000
,
0010
0000
0000
0000
,
0010
0000
0000
0000
,
0100
0000
0000
0000
,
1000
0000
0000
0000
,
0000
0000
1000
0000
,
0001
0000
0000
0000
,
0000
0000
0000
0000
,
0020
0000
0000
0000
,
0000
0000
0030
0000
,
0100
0100
0100
0000
,
0000
0000
0000
0000
,
1000
1000
1000
0000
,
0000
0000
0000
0000
,
0001
0001
0001
0000
,
0000
0000
0000
0000
,
0010
0010
0000
0100
,
0100
0000
0000
0000
,
0100
0100
0100
0000
,
0000
0000
0000
0000
,
0010
0010
0010
0000
,
0000
0000
0000
0000
,
1000
1000
1000
0000
,
0000
0000
0000
0000
,
0001
0001
0000
1000
,
1000
0000
0000
0000
,
0000
0010
0000
0000
,
0010
0000
0000
0000
,
0000
0100
0000
0000
,
0100
0000
0000
0000
,
0000
1000
0000
0000
,
0000
0000
0000
0000
,
0000
0010
0000
0000
,
0010
0000
0000
0000
,
0000
0100
0000
0100
,
0100
0000
0000
0000
,
1000
1000
0000
0001
,
0001
0000
0000
0000
,
0010
0010
0000
0100
,
0200
0000
0000
0000
,
0000
0000
0300
0000
;

//---------------dance-single - ----------------
#NOTES:
     dance-single:
     :
     Easy:
     5:
     0.282,0.330,0.161,0.047,0.000:
0000
0000
0000
0000
,
0000
0000
0000
0000
,
0001
0000
0100
0000
,
0100
0000
0100
0000
,
0020
0000
0000
0030
,
0000
0000
0001
0001
,
0002
0000
0003
0100
,
0100
0001
0100
0000
,
0100
0000
0000
0100
,
0100
0000
1000
0000
,
1000
0000
1000
0000
,
0001
0000
0001
0000
,
0001
0000
0001
0000
,
0010
0000
0010
0000
,
0010
0000
0000
0100
,
0100
0000
1000
0000
,
1000
0000
0000
1000
,
1000
0000
0100
0000
,
0100
0000
0100
0000
,
0010
0000
0010
0000
,
0010
0000
0010
0000
,
0001
0000
0001
0000
,
0001
0000
0001
0000
,
1000
1000
0000
0000
,
0010
0010
0000
0000
,
0000
0100
0100
0000
,
0001
1000
0001
1000
,
0001
1000
0001
1000
,
0010
0010
0010
0010
,
0100
0100
0100
0100
,
1000
0010
1000
0010
,
1000
0010
1000
0010
,
1000
0001
0000
0001
,
1000
0000
0000
0000
,
0010
0100
0010
0100
,
0010
0100
0010
0100
,
1000
1000
1000
1000
,
0001
0001
0001
0001
,
1000
0001
1000
0001
,
1000
0001
1000
0001
,
1000
0010
0000
0010
,
0100
0000
0000
0000
,
0100
1100
0000
0010
,
0011
0000
0100
0100
,
0010
1010
0000
0001
,
0101
0000
0010
0010
,
0100
0101
0000
0001
,
1001
0000
1000
1000
,
0001
0011
0000
0100
,
0220
0000
0000
0330
,
0100
0000
0100
0000
,
0100
0000
0100
0000
,
0001
0000
0001
0000
,
0001
0000
0001
0000
,
1000
0000
1000
0000
,
1000
0000
1000
0010
,
0000
0010
0000
0010
,
0000
0010
0000
0000
,
0001
0001
0001
0000
,
0010
0010
0010
0000
,
1000
1000
1000
0000
,
0100
0100
0100
0000
,
1000
1000
1000
0000
,
0001
0001
0001
0000
,
0100
0100
0100
0100
,
0110
0000
0000
0110
0000
0000
0220
0000
,
0000
0000
0000
0000
,
0000
0000
0330
0000
,
0100
0001
0100
0001
,
0100
0001
0100
0001
,
0100
0100
0100
0100
,
1000
1000
1000
1000
,
0001
1000
0001
1000
,
0001
1000
0001
1000
,
0010
0100
0000
0100
,
0010
0000
0000
0000
,
0010
0001
0010
0001
,
0010
0001
0010
0001
,
0010
0010
0010
0010
,
0100
0100
0100
0100
,
0010
0100
0010
0100
,
0010
0100
0010
0100
,
0001
0010
0000
0010
,
0001
0000
0000
0000
,
0010
1010
0000
0010
,
0011
0100
0100
0100
,
1000
1100
0000
0100
,
0110
0000
0010
0010
,
0100
0110
0000
0001
,
1001
0000
1000
1000
,
0010
1010
0000
0100
,
0101
0000
0010
0010
,
0010
0110
0000
1000
,
1001
0000
0001
0001
,
1000
1100
0000
0100
,
0110
0000
0001
1000
,
0010
0011
0000
0001
,
0020
0000
0000
0000
,
0000
0000
0030
0000
;

//---------------dance-single - ----------------
#NOTES:
     dance-single:
     :
     Medium:
     8:
     0.435,0.594,0.502,0.228,0.000:
0000
0000
0000
0000
,
0000
0000
0000
0000
,
0010
0000
1000
0000
,
1000
0000
0000
0000
1000
0000
0010
0010
,
1000
0001
0010
1000
,
0000
0000
0100
0000
0001
1000
0001
0000
,
0100
1000
0001
1000
,
0001
0000
0010
0000
0100
0000
0001
0100
,
0001
1000
0001
0100
,
0100
0000
1000
0000
0001
0000
0010
0010
,
1000
0001
1000
0100
,
0010
0000
0100
0000
1000
0001
0100
0010
,
0001
1000
0001
1000
,
0010
0000
0100
0000
0010
1000
0010
1000
,
0010
0100
0001
0000
1000
0000
0010
0000
,
0010
0000
0001
0000
1000
1000
0001
0001
,
1000
0010
0100
0001
,
0001
1000
0001
1000
,
0100
0000
0110
0000
,
1000
0000
1010
0000
,
0010
0000
0011
0000
,
0001
0000
0101
0000
,
0001
0000
1001
0000
,
0001
0000
1000
0000
0001
0100
0010
0000
,
1000
0010
1000
0010
,
1000
0110
0110
0110
,
1001
1100
0101
1100
,
0101
1010
0011
1010
,
0001
0001
0001
0001
,
1000
1000
1000
1000
,
1010
0011
1010
0011
,
1100
0101
1100
0101
,
2000
3001
0000
0002
,
1003
0100
0100
0100
,
0110
0011
0110
1100
,
0110
0011
0110
1100
,
0010
0010
0010
0010
,
0100
0100
0100
0100
,
1001
0011
1001
1010
,
1001
0011
1001
1010
,
0200
0310
0000
0020
,
0130
0001
0001
0001
,
2000
3100
0000
0020
,
0031
0000
0001
0001
,
2000
3001
0000
0020
,
1030
0000
0010
0010
,
0200
0301
0000
0002
,
0103
0010
0010
0010
,
0002
0013
0000
0100
,
2002
0000
3003
0000
,
1000
0000
0000
1000
1000
0000
0000
1000
,
0000
0000
0010
0010
0000
0000
0010
0000
,
0000
0000
0100
0000
0000
0100
0100
0000
,
0000
0100
0000
0001
0001
0000
0000
0001
,
0000
0000
1000
1000
0000
0000
1000
0000
,
0000
0100
0100
0000
0000
0100
0000
0000
,
0002
1000
0000
1000
,
0000
2000
0000
3003
,
0010
0000
0010
0000
0010
0000
1000
1000
,
0100
0000
0100
0000
0100
0000
0001
0001
,
1000
0000
1000
0000
1000
0000
0000
0010
,
0001
0000
0001
0000
0001
0000
0010
0100
,
0100
0000
0100
0000
0100
0000
0100
1000
,
0001
0001
0001
0001
,
1000
0001
1000
0001
,
1000
0000
0001
1001
,
0000
0000
0000
0010
,
0010
0010
0010
0010
,
1100
0101
1100
0101
,
1010
0011
1010
0011
,
1100
0011
1100
0011
,
1010
0011
1010
0011
,
0001
0100
0001
0100
,
0001
0100
0001
0100
,
0002
0103
0000
0200
,
0310
1000
1000
1000
,
0011
1100
0011
1100
,
0011
1100
0011
1100
,
1001
0110
1001
0110
,
1001
0110
1001
0110
,
1001
0001
0100
0001
,
0100
0001
0100
0001
,
0200
0310
0000
0020
,
1030
0001
0001
0001
,
0020
1030
0000
0200
,
0301
0100
0100
0100
,
2000
3001
0000
0200
,
0310
0000
1000
1000
,
0002
0013
0000
0200
,
0301
0000
0001
0001
,
0200
1300
0000
0020
,
0031
0000
0100
0010
,
0200
0310
0000
2000
,
3100
0000
0010
0010
,
0200
0301
0000
0002
,
1003
0000
0002
1003
,
0200
0301
0000
0001
,
0020
0000
0000
0000
,
0000
0000
0030
0000
;

//---------------dance-single - ----------------
#NOTES:
     dance-single:
     :
     Hard:
     10:
     0.576,0.562,0.375,0.241,0.000:
0000
0000
0000
0000
,
0000
0000
0000
0000
,
0001
0000
0000
0000
0100
0001
0000
0001
,
0100
0000
0010
0000
0001
1000
0001
0100
,
0010
0100
0000
0000
0010
0000
1000
0100
,
0001
1000
0100
0000
0001
0100
0010
1000
,
0100
0000
0001
0000
0001
1000
1000
0000
,
0001
0000
0010
0000
0100
0001
0100
0100
,
0001
0010
1000
0100
,
0100
0000
1000
0100
0001
0100
0010
1000
,
0001
0100
0001
0000
1000
0000
0010
0001
,
0100
0000
0001
0100
0010
1000
0100
0010
,
0001
0000
1000
0000
0001
0000
0100
0001
,
1000
0000
0100
0000
0010
1000
0001
0001
,
1000
0100
0001
0000
1000
0000
0010
0000
,
0010
0000
0001
0000
1000
0100
1000
0010
,
0001
0010
1000
0000
0100
0000
0001
0000
,
1000
1000
0001
1000
,
0210
0000
0301
0000
,
1000
0001
0100
0010
,
2100
0000
3001
0000
,
0010
0100
0001
0100
,
0012
0000
1003
0000
,
0010
0000
1000
0000
0100
0000
0010
1000
,
0010
0010
1000
0010
,
1000
0100
0010
0100
,
0100
1000
0100
1000
0100
1000
0100
1000
,
0100
0001
0010
0001
0010
0001
0010
0001
,
0001
1000
0001
1000
0001
1000
0001
1000
,
0001
0100
0001
0100
0001
0100
0001
0001
,
1000
0100
0010
0001
1001
0000
0110
0000
,
1001
0110
1001
0110
,
1000
0100
0020
0000
0030
0000
0001
0010
,
0200
0300
0100
0100
,
0100
0001
0100
0001
0100
0001
0100
0001
,
0100
0001
0100
0001
0100
0001
0100
0001
,
0010
1000
0010
1000
0010
1000
0010
0001
,
1000
0001
1000
0001
1000
0001
1000
1000
,
0010
0100
0010
0100
1010
0000
0011
0000
,
1010
0011
1010
0011
,
1000
0100
2000
0000
3100
0000
0001
0010
,
0002
0103
0001
0001
,
0100
0010
2000
0000
3001
0000
0100
0010
,
0002
1003
0110
0110
,
0001
0010
2000
0000
3100
0000
0001
0100
,
0002
1003
0011
0011
,
0100
0001
2000
0000
3010
0000
0010
0001
,
0020
0130
1001
1001
,
0001
0100
0020
0000
1030
0000
0001
1000
,
1002
1000
1003
0000
,
1000
0000
0001
0001
0000
0000
0101
0000
,
1000
0000
0010
0010
0000
0000
1010
0000
,
0001
0000
1000
1000
0000
0000
1001
0000
,
0010
0000
0100
0100
0000
0000
0110
0000
,
0001
0000
0100
0100
0000
0000
1100
0000
,
0000
0000
1000
1000
0000
0000
1000
0000
,
0000
0001
0011
0010
,
0110
1000
0001
1000
,
0001
0000
0010
0000
0100
0000
1000
0100
,
1000
0000
0010
0000
0100
0000
0010
0010
,
1010
0000
1010
0000
1010
0000
0100
0010
,
0001
0100
0001
0010
0001
0100
0001
1000
,
0100
1000
0001
0001
1000
0000
0100
1000
,
0010
0100
0010
0000
1000
0000
1000
0000
,
1000
0100
0010
0000
0001
0010
0100
0000
,
0000
1000
0000
1000
0000
1000
2002
0000
,
0000
0000
0000
3003
0000
0000
0100
0000
,
0010
0001
0001
0001
,
1000
0001
1000
0001
1000
0001
1000
0001
,
0100
0010
0100
0010
0100
0010
1000
1000
,
0010
1000
0010
1000
0010
1000
0010
1000
,
0001
0100
0001
0100
0001
0100
0001
0100
,
0001
0001
1000
0100
1100
0000
0101
0000
,
1100
0101
1100
0100
,
0010
0001
0200
0000
0300
0000
0001
0100
,
0020
1030
0001
1000
,
0010
0001
0010
0001
0010
0001
0010
0001
,
0010
0001
1000
0010
1000
0010
1000
0100
,
0100
0001
0010
0100
0010
0100
0010
0100
,
0010
0100
0010
0100
1000
0001
1000
0001
,
0010
0010
1000
0010
0011
0000
1010
0000
,
0011
1010
0011
1010
,
1000
0100
0020
0000
1030
0000
0001
0010
,
0002
0103
0001
0001
,
0001
0010
0200
0000
0301
0000
1000
0100
,
0002
1003
1010
1010
,
1000
0010
2000
0000
3001
0000
1000
0010
,
0002
0103
0110
0110
,
0100
0001
2000
0000
3010
0000
0010
0100
,
0002
0103
1001
1001
,
0001
0100
0002
0000
0103
0000
0010
0100
,
2000
3001
0011
0011
,
0001
1000
0002
0000
0013
0000
1000
0100
,
0020
0031
1100
1100
,
0100
0010
0002
0000
1003
0000
0100
0010
,
0200
0301
0101
0101
,
0100
0001
0200
0000
0310
0000
0001
1000
,
0020
0100
0100
0100
,
0200
0000
0000
0330
;

//---------------dance-single - ----------------
#NOTES:
     dance-single:
     :
     Challenge:
     11:
     0.646,0.628,0.455,0.154,0.315: // measure 1
0000
0000
0000
0000
,  // measure 2
0000
0000
0000
0000
,  // measure 3
0010
0000
1000
0000
0100
0000
0010
1000
,  // measure 4
0100
0000
1000
0000
0001
0010
0100
1000
,  // measure 5
0010
0100
0001
0000
0010
0000
1000
0001
,  // measure 6
0100
0000
0010
0000
0001
0100
0010
1000
,  // measure 7
0200
0300
0001
1001
,  // measure 8
1001
0000
0010
0000
0001
0100
0010
1000
,  // measure 9
1000
0020
0030
0110
,  // measure 10
0110
0000
1000
0100
1000
0100
0010
0100
,  // measure 11
0001
0100
0001
0000
1000
0000
0100
1000
,  // measure 12
0001
0000
0100
0000
0010
1000
0100
0010
,  // measure 13
0001
0000
1000
0000
0001
0000
0010
0001
,  // measure 14
0100
0000
1000
0000
0010
1000
0010
0010
,  // measure 15
1000
0100
0002
0000
0003
0000
1010
0000
,  // measure 16
1010
0000
0001
0000
0001
0100
0001
0100
,  // measure 17
0010
1000
2000
0000
3000
0000
1001
0000
,  // measure 18
1001
2000
3002
0023
,  // measure 19
0230
0000
0301
0000
,  // measure 20
2000
3002
0023
0230
,  // measure 21
2300
0000
0000
0000
3001
0000
0000
1000
,  // measure 22
0010
0200
0302
0203
,  // measure 23
0302
0000
1003
0000
,  // measure 24
0020
0000
0230
0000
0320
0000
0030
1000
,  // measure 25
0100
0000
0010
0001
1000
0001
0010
0000
,  // measure 26
1000
0000
0101
0000
1100
0000
0001
0100
,  // measure 27
0010
0000
1000
0000
0010
0000
0100
0000
1000
0100
0000
0000
0001
0010
0000
0000
,  // measure 28
0010
0100
0000
0000
0010
0001
0000
0000
1000
0100
0000
0000
0100
0010
0000
0000
,  // measure 29
0001
0000
0001
0000
1000
0000
1000
0000
0001
0100
0000
0000
0001
0010
0000
0000
,  // measure 30
0001
1000
0000
0000
0010
0100
0000
0000
1000
0100
0000
0000
0100
0001
0000
0000
,  // measure 31
0001
0000
0100
0000
0010
0000
1000
0000
1000
0010
0000
0000
1000
0010
0000
0000
,  // measure 32
1000
0010
0000
0000
1000
0100
0000
0000
1000
0100
0000
0000
1000
0000
0000
0001
,  // measure 33
1000
0000
0010
0000
1010
0000
0000
0000
1000
0000
0000
0010
0100
0000
1000
0000
,  // measure 34
1100
0011
0101
0101
,  // measure 35
0100
0000
0001
0000
0010
0000
0100
0000
1000
0100
0000
0000
0100
0010
0000
0000
,  // measure 36
0010
0001
0000
0000
0100
0010
0000
0000
0100
1000
0000
0000
0001
0000
0001
0000
,  // measure 37
0100
0000
1000
0000
0100
0000
1000
0000
0001
0010
0000
0000
0100
0010
0000
0000
,  // measure 38
0010
0100
0000
0000
0001
0100
0000
0000
0100
0010
0000
0000
1000
0000
1000
0000
,  // measure 39
0010
0000
0100
0000
0001
0000
0010
0000
1000
0001
0000
0000
1000
0001
0000
0000
,  // measure 40
1000
0001
0000
0000
1000
0010
0000
0000
1000
0010
0000
0000
1000
0000
0000
0100
,  // measure 41
1000
0000
0100
0000
0110
0000
0000
0000
0100
0000
0000
0010
0001
0000
0100
0000
,  // measure 42
0101
0000
0000
0000
1100
0000
0000
0000
1100
0000
0000
0000
1100
0000
0000
0001
,  // measure 43
0100
0000
0001
0000
1001
0000
0000
0000
0001
0000
0000
0010
0100
0000
0010
0000
,  // measure 44
0110
0000
0000
0000
1000
0000
0010
0000
0000
0000
0010
0000
0000
0000
0100
0010
,  // measure 45
0100
0000
1000
0000
1100
0000
0000
0000
0010
0000
0000
0100
0010
0000
1000
0000
,  // measure 46
1010
0000
0000
0000
1000
0000
0001
0000
0000
0000
0001
0000
0000
0000
0010
0100
,  // measure 47
0010
0000
0001
0000
0101
0000
0000
0000
0010
0000
0000
0000
0010
0100
1000
0000
,  // measure 48
1010
0000
0000
0000
0000
0000
1000
0000
0000
0000
1000
0000
0000
0000
0000
1000
,  // measure 49
0100
0000
0010
0000
0011
0000
0000
0000
1000
0000
0000
0010
0001
0000
1000
0000
,  // measure 50
1001
0001
1000
0001
,  // measure 51
1000
0000
0001
0001
0000
0000
0001
0010
,  // measure 52
0001
0000
0010
0010
0000
1000
0100
0000
,  // measure 53
0001
0000
0001
1000
0001
0000
0100
0000
,  // measure 54
0010
0000
0100
0100
0000
0010
0100
0010
,  // measure 55
0100
0000
0100
0100
0000
0000
0001
0100
,  // measure 56
0001
0000
1000
0001
0000
0000
1000
0000
,  // measure 57
0010
1001
0010
1001
,  // measure 58
0010
1001
0001
1000
,  // measure 59
0010
0000
1000
0000
0001
0000
1000
0100
,  // measure 60
0010
0000
0001
0000
0100
0000
0010
1000
,  // measure 61
1100
0000
0101
0000
1001
0000
0001
0010
,  // measure 62
0001
0100
0001
0010
0100
1000
0100
0001
,  // measure 63
0100
1000
0001
1000
0010
0000
0100
1000
,  // measure 64
0010
0001
0010
0000
1000
0100
1000
0000
0001
0000
0010
0000
0100
0000
0010
0000
,  // measure 65
1000
0100
0010
0010
0001
0010
0100
0000
,  // measure 66
0001
1000
0001
1000
0001
1000
0200
0000
,  // measure 67
0000
0000
0300
0100
,  // measure 68
0010
1001
1001
1001
,  // measure 69
1000
0000
0100
0000
0010
0000
0001
0000
1000
0010
0000
0000
1000
0100
0000
0000
,  // measure 70
0100
0010
0000
0000
0001
0010
0000
0000
0100
0010
0000
0000
0100
0000
0100
0000
,  // measure 71
0001
0000
1000
0000
0010
0000
1000
0000
0010
0100
0000
0000
1000
0100
0000
0000
,  // measure 72
0001
0010
0000
0000
0001
0100
0000
0000
0010
1000
0000
0000
0010
0000
0010
0000
,  // measure 73
1000
0000
0001
0000
1000
0000
0100
0000
1000
0100
0000
0000
1000
0100
0000
0000
,  // measure 74
1000
0100
0000
0000
0001
0010
0000
0000
0001
0010
0000
0000
0001
0000
0000
0100
,  // measure 75
0010
0000
1000
0000
1100
0000
0000
0000
0001
0000
0000
0010
0100
0000
0001
0000
,  // measure 76
0101
1100
1100
1100
,  // measure 77
0001
0000
0010
0000
0100
0000
1000
0000
0010
0001
0000
0000
0010
1000
0000
0000
,  // measure 78
1000
0100
0000
0000
0100
0010
0000
0000
0010
0001
0000
0000
0100
0000
0100
0000
,  // measure 79
0100
0000
1000
0000
0010
0000
0100
0000
0001
0100
0000
0000
0100
0010
0000
0000
,  // measure 80
0100
1000
0000
0000
1000
0100
0000
0000
1000
0001
0000
0000
1000
0000
0001
0000
,  // measure 81
0100
0000
0001
0000
0100
0000
0010
0000
0010
1000
0000
0000
0010
1000
0000
0000
,  // measure 82
0010
1000
0000
0000
1000
0100
0000
0000
1000
0100
0000
0000
1000
0000
0000
0010
,  // measure 83
1000
0000
0001
0000
1001
0000
0000
0000
0010
0000
0000
0100
0001
0000
0100
0000
,  // measure 84
0110
0000
0000
0000
1001
0000
0000
0000
1001
0000
0000
0000
1001
0000
0000
0100
,  // measure 85
1000
0000
0010
0000
1010
0000
0000
0000
0000
0100
0001
0000
1000
0000
0010
0000
,  // measure 86
0011
0000
0000
0000
1000
0000
0010
0000
0000
0000
0010
0000
1000
0000
0000
0100
,  // measure 87
1000
0000
0001
0000
1001
0000
0000
0000
0001
0000
0000
1000
0100
0000
0010
0000
,  // measure 88
0110
0000
0000
0000
0100
0000
0010
0000
0000
0000
0010
0000
0000
0000
0010
0001
,  // measure 89
0100
0000
0001
0000
0101
0000
0000
0000
0010
0000
0000
1000
0100
0000
0001
0000
,  // measure 90
0101
0000
0000
0000
0100
0000
1000
0000
0000
0000
1000
0000
0000
0000
0001
0010
,  // measure 91
0100
0000
1000
0000
1100
0000
0000
0000
0100
0000
0000
0100
0010
0000
0100
0000
,  // measure 92
0110
0000
0000
0000
1001
0000
0000
0000
1001
0000
0000
0000
1001
0000
0000
0010
,  // measure 93
0001
0000
1000
0000
1010
0000
0000
0000
0010
0000
0000
0100
1000
0000
0001
0000
,  // measure 94
0011
0000
0000
0000
0000
0000
0001
0000
0000
0000
0001
0000
1000
0000
0010
0001
,  // measure 95
0100
0000
0001
0000
0101
0000
0000
0000
1000
0000
0000
0001
0100
0000
1000
0000
,  // measure 96
1100
0000
0000
0001
0000
1000
0000
0001
,  // measure 97
0010
0100
1000
0000
1010
0000
0000
0000
0100
0000
0000
0010
0100
0000
0001
0000
,  // measure 98
0101
0110
0110
0110
,  // measure 99
0220
0000
0000
0330
;
