#TITLE:ロミオとシンデレラ;
#SUBTITLE:;
#ARTIST:初音ミク;
#TITLETRANSLIT:Romeo and Cinderella;
#SUBTITLETRANSLIT:;
#ARTISTTRANSLIT:Hatsune Miku;
#CREDIT:;
#BANNER:banner.png;
#BACKGROUND:background.png;
#LYRICSPATH:Romeo and Cinderella.lrc;
#CDTITLE:Cdtitle.png;
#MUSIC:Romeo and Cinderella.mp3;
#OFFSET:-0.060;
#SAMPLESTART:70.000;
#SAMPLELENGTH:16.940;
#SELECTABLE:YES;
#BPMS:0.000=170.000;
#STOPS:;
#BGCHANGES:0.500=Romeo and Cinderella.avi=1.000=1=0=0,
99999=-nosongbg-=1.000=0=0=0 // don't automatically add -songbackground-
;

//---------------dance-single - ----------------
#NOTES:
     dance-single:
     :
     Beginner:
     2:
     0.130,0.168,0.035,0.035,0.000:
0000
0000
0000
0000
,
0000
0000
0000
0000
,
0000
0000
0000
0000
,
0000
0000
0000
0000
,
0000
0000
0000
0000
,
0000
0000
0000
0000
,
0000
0000
0000
0000
,
0000
0000
0000
0000
,
0000
0000
0000
0000
,
0010
0000
0000
0000
,
0100
0000
0000
0000
,
0001
0000
0000
0000
,
0001
0000
0000
0000
,
0010
0000
0000
0000
,
0010
0000
0000
0000
,
0100
0000
0000
0000
,
1000
0000
0000
0000
,
0010
0000
0000
0010
,
0000
0010
0000
0100
,
0000
0100
0000
1000
,
0000
1000
0000
0001
,
0000
0001
0000
0000
,
0010
0000
0010
0000
,
0100
0000
0100
0000
,
1000
0000
1000
0000
,
0010
0000
0000
0100
,
0000
0000
0001
0000
,
0010
0000
0000
0010
,
0000
1000
0000
0100
,
0000
0100
0000
0010
,
0000
0010
0000
0010
,
0000
0001
0000
0001
,
0000
0000
0000
0100
,
0000
0000
0000
0100
,
0000
0000
0000
0010
,
0000
0000
0000
0010
,
0000
0000
0000
0100
,
0000
0000
0000
0100
,
0000
0000
0000
0001
,
0000
0001
0000
0000
,
0000
0000
0000
0010
,
0000
0010
0000
0010
,
0000
0100
0000
0100
,
0000
0100
0000
0100
,
0000
1000
0000
1000
,
0000
1000
0000
0000
,
0001
0000
0001
0000
,
0001
0000
0001
0000
,
0000
0000
0000
2002
,
0000
3003
0000
0010
,
0000
0000
0010
0000
,
0000
0000
0000
0100
,
0000
0000
0000
0100
,
0000
0000
0000
1000
,
0000
0000
0000
1000
,
0000
0000
0000
0001
,
0000
0000
0000
0001
,
0000
0000
0000
0010
,
0000
0010
0000
0010
,
0000
0100
0000
0100
,
0000
0100
0000
1000
,
0000
1000
0000
1000
,
0000
0001
0000
0001
,
0000
0001
0000
0010
,
0000
0100
0000
0110
,
0000
0000
0000
1001
,
0000
0000
0000
0010
,
0000
0010
0000
0200
,
0000
0000
0000
0020
,
0000
0000
0330
0000
,
0000
0001
0000
0000
,
0000
1000
0000
0000
,
0100
0000
0000
0000
,
0010
0000
0000
0000
,
0100
0000
0010
0000
,
1000
0000
0000
0001
,
0000
0000
0000
0000
,
1001
0000
0000
0000
;

//---------------dance-single - ----------------
#NOTES:
     dance-single:
     :
     Easy:
     5:
     0.302,0.370,0.114,0.201,0.000:
0000
0000
0000
0000
,
0000
0000
0000
0000
,
0000
0000
0000
0000
,
0000
0000
0000
0000
,
0000
0000
0000
0000
,
0000
0000
0000
0000
,
0000
0000
0000
0000
,
0000
0000
0000
0000
,
0000
0000
0000
0000
,
0010
1000
1000
0000
,
0010
0001
0001
0000
,
0001
1000
0001
0000
,
0001
0010
0100
0000
,
0010
0100
0001
0000
,
0100
0001
1000
0000
,
0100
0010
0001
0000
,
2002
0000
3003
0000
,
1000
1000
1000
0010
,
0001
0001
0001
0000
,
0010
0010
0010
1000
,
1000
0001
1001
0000
,
1000
0010
0000
0100
,
0010
0000
0010
0001
,
0000
1000
0100
0000
,
1000
0100
1000
0000
,
0100
0100
0100
0001
,
1000
1000
1000
0000
,
0001
0001
0001
0010
,
0100
0100
0110
0000
,
0001
0100
0000
0100
,
1000
0100
0000
0100
,
1000
0010
0001
0000
,
0100
0000
0010
0002
,
0000
1003
1000
0200
,
0000
0310
0010
0002
,
0000
1003
1000
0020
,
0000
0130
0100
1000
,
0100
1000
0000
0100
,
0001
0200
0300
0001
,
0100
0020
0000
0030
,
0000
0000
0000
0010
,
0001
0200
0300
1000
,
0100
0020
0030
0100
,
0010
0002
0003
0010
,
0100
2000
3000
0010
,
0100
0002
0003
0001
,
0001
0001
0010
0010
,
0010
0100
0100
0100
,
1000
0100
1000
2002
,
0000
3003
0000
0100
,
0010
0001
0010
0100
,
1000
1100
0000
0010
,
0001
0010
0001
0100
,
0001
0101
0000
0100
,
0100
0010
0010
0110
,
0000
0001
1000
0001
,
0010
0100
0010
1001
,
0000
0000
0000
0001
,
0001
0001
0010
0011
,
0000
0000
1000
1000
,
1000
0100
0100
1100
,
0000
0000
0010
1000
,
0010
0100
0001
0100
,
0000
0001
0000
0010
,
0001
0100
0010
0220
,
0000
0330
0000
1001
,
1000
0001
0100
0020
,
0230
0302
2003
0020
,
0000
0000
0030
0002
,
0000
0000
3003
0100
,
0100
0001
0000
0001
,
0010
0100
0100
0000
,
0100
0010
0001
0100
,
0010
1000
1000
0000
,
0100
0010
0001
0100
,
0001
0010
0010
0000
,
1000
0100
0010
0100
,
0110
0000
0000
0000
;

//---------------dance-single - ----------------
#NOTES:
     dance-single:
     :
     Medium:
     7:
     0.398,0.437,0.079,0.218,0.004:
0000
0000
0000
0000
,
0000
0000
0000
0000
,
0000
0000
0000
0000
,
0000
0000
0000
0000
,
0000
0000
0000
0000
,
0000
0000
0000
0000
,
0000
0000
0000
0000
,
0000
0000
0000
0000
,
0000
0000
0000
0000
,
0100
0000
0001
0100
0001
0100
0000
0000
,
0100
0000
0010
1000
0010
1000
0000
0000
,
0001
0000
1000
0001
1000
0001
0000
0000
,
0001
0000
0100
0001
0100
0001
0000
0000
,
1000
0000
0100
0010
0100
0010
0000
0000
,
0010
0000
0100
1000
0100
1000
0000
0000
,
0100
0000
0001
0100
0001
0100
0000
0000
,
1000
0000
0000
0000
0001
0000
0000
0100
0000
0000
0010
0000
0000
0000
0000
0000
,
0010
0000
0001
0000
0100
1000
0010
0000
,
0001
0000
0001
0100
0100
0000
0000
0001
,
0100
1000
0010
1000
,
1000
0100
0001
0001
0000
0000
0002
0000
,
0000
0000
0013
0000
0000
0000
0100
0001
,
0100
0010
0100
2000
,
0000
0010
0020
0000
0000
0000
3030
0000
,
1000
0001
0100
0010
1000
0100
0100
0000
,
0010
0000
0100
0001
0000
0001
0100
0000
,
0010
0000
1000
0001
0100
0100
0000
0000
,
0001
0010
0100
0010
,
0100
0001
0000
0100
0010
0010
0000
0000
,
0002
0103
0000
0010
,
0100
0001
0100
0000
0010
0000
0200
0000
,
0000
0010
0020
0000
0000
0000
0330
0000
,
0100
0000
0010
0001
,
0100
2000
0000
0000
3000
0000
0010
0000
,
0100
0020
0000
0000
0030
0000
1000
0000
,
0010
0200
0000
0000
0300
0000
0010
0000
,
0100
2000
0000
0000
3000
0000
1000
0000
,
0100
0010
0000
0001
0000
0001
0100
0000
,
0010
0000
0100
0000
0100
0001
0000
0001
,
0010
0020
0000
0000
0000
0000
0000
0030
,
0000
0100
0100
1000
,
0010
0002
0000
0000
0003
0000
0010
0000
,
1000
0200
0000
0000
0300
0000
0100
0000
,
0001
2000
0000
0000
3000
0000
0010
0000
,
0100
0020
0000
0000
0030
0000
0001
0000
,
0100
0000
0001
0000
1000
0000
0100
0001
,
0010
0000
0001
0000
0100
0000
0010
0100
,
1000
0000
0100
0000
0100
0000
0100
0100
,
0100
0010
0100
0220
,
0000
0330
0000
1000
,
0100
0000
0001
0000
0010
0001
0100
0000
,
0001
0100
0101
0000
0000
0000
0100
0000
,
1000
0000
0100
0000
1000
0100
0010
0000
,
1000
0010
1010
0000
0000
0000
1000
0000
,
1000
0000
0001
0100
0001
0000
0001
0010
,
0000
0010
0100
0000
1000
0000
0001
0000
,
0100
0000
0010
1000
0100
0000
0220
0000
,
0000
0330
0000
1000
,
1000
0000
1000
0100
0010
0000
0010
0100
,
0110
0000
0100
0000
0001
0000
0001
0100
,
0010
0000
1000
0000
0100
1000
1100
0000
,
0010
0100
0001
0100
,
0001
0010
0100
0000
0001
0000
0100
1000
,
0010
0000
0100
0000
0000
0000
0100
0100
,
0001
0100
0010
0220
,
0000
0000
0330
0000
0000
0000
1000
0100
,
1000
0001
0100
0020
,
0031
0002
1003
2020
,
0000
0000
3030
0100
,
0001
0001
0100
0100
,
0100
0000
0001
0100
0001
0100
0000
0000
,
0010
0000
1000
0010
1000
0010
0000
0000
,
0100
0000
0010
0100
0010
0100
0000
0100
,
0001
0000
0001
1000
0001
1000
0000
0000
,
0100
0000
0010
1000
1000
0000
0100
0000
,
0001
0000
0010
0100
0100
0000
0001
0000
,
1000
0001
0001
0000
0100
0000
0001
0000
,
1001
0000
0000
0000
;

//---------------dance-single - ----------------
#NOTES:
     dance-single:
     :
     Hard:
     10:
     0.562,0.572,0.253,0.210,0.017: // measure 1
0000
0000
0000
0000
,  // measure 2
0000
0000
0000
0000
,  // measure 3
0000
0000
0000
0000
,  // measure 4
0000
0000
0000
0000
,  // measure 5
0000
0000
0000
0000
,  // measure 6
0000
0000
0000
0000
,  // measure 7
0000
0000
0000
0000
,  // measure 8
0000
0000
0000
0000
,  // measure 9
0000
0000
0000
0000
,  // measure 10
0100
0000
0010
0100
1000
0100
0000
0010
,  // measure 11
0001
0010
0100
1000
0100
1000
0000
0010
,  // measure 12
0100
0010
0100
1000
0100
0010
0000
0100
,  // measure 13
0001
0100
0010
0001
0010
0100
0000
0001
,  // measure 14
1000
0100
0010
0100
0010
0100
0000
0001
,  // measure 15
0010
0001
1000
0001
1000
0100
0000
0010
,  // measure 16
0001
0000
0010
1000
0010
1000
0000
0000
,  // measure 17
1000
0000
0000
0000
0101
0000
0000
1100
0000
0000
1001
0000
0000
0000
0000
0000
,  // measure 18
0010
0100
0001
0010
0100
1000
0200
0000
,  // measure 19
0301
0100
0010
0010
0011
0000
0000
0010
,  // measure 20
0100
1000
0100
1000
0000
0010
0200
0000
,  // measure 21
0301
0010
0100
0100
0101
0000
0001
0100
,  // measure 22
0010
0000
0100
0000
0001
0000
0100
0001
,  // measure 23
0100
0010
0010
0000
0100
0000
1000
0000
,  // measure 24
0100
0010
0020
0000
0000
0030
0100
0001
,  // measure 25
1000
0010
0100
1000
0100
1000
1000
0000
,  // measure 26
0010
0100
1000
0001
0100
0001
0200
0000
,  // measure 27
0310
0000
1000
0001
0100
0100
1100
0000
,  // measure 28
0001
0100
0010
1000
0100
1000
0200
0000
,  // measure 29
0301
0010
0100
1000
1000
0100
0000
0000
,  // measure 30
0001
0001
0010
0000
0100
0000
1000
0010
,  // measure 31
1000
0100
1000
0000
0010
0000
0100
0000
,  // measure 32
0100
0010
0002
0000
0000
0000
0003
0000
,  // measure 33
0100
0001
0100
0001
0010
0100
1000
0100
,  // measure 34
1000
0020
0000
0100
0130
0001
0001
0010
,  // measure 35
0100
2000
0000
0010
3010
1000
0010
0100
,  // measure 36
0001
0002
0000
0010
1003
0010
0100
0010
,  // measure 37
1000
2000
0000
0000
3001
0000
0001
0100
,  // measure 38
0010
1000
0100
1000
0000
0001
0100
0001
,  // measure 39
0001
0000
0100
0000
0100
0001
0001
0100
,  // measure 40
0010
2000
0000
0000
3000
0000
0001
0010
,  // measure 41
0100
1000
0010
0100
1000
0100
1000
0010
,  // measure 42
0100
0002
0000
0100
1003
0010
1000
0000
,  // measure 43
1000
0200
0000
0000
0301
0010
0100
0000
,  // measure 44
0001
0020
0000
0000
0130
0100
0010
0001
,  // measure 45
0100
2000
0000
0000
3010
0000
0010
0100
,  // measure 46
1000
0000
0100
0000
1000
0000
0010
0001
,  // measure 47
0010
0000
1000
0000
0100
0000
0100
0010
,  // measure 48
0001
0000
0100
0100
0001
0010
0100
1000
,  // measure 49
0100
0001
0100
0010
0010
0000
2002
0000
,  // measure 50
0000
3003
0000
2000
,  // measure 51
3100
0000
0001
0010
0001
0101
0001
0010
,  // measure 52
0100
1000
1100
0000
0010
0000
0200
0000
,  // measure 53
0301
0010
0100
0000
1000
0100
1100
0100
,  // measure 54
0010
0011
0000
0001
0000
0010
0200
0000
,  // measure 55
0310
0000
0001
0100
0001
0000
0110
0010
,  // measure 56
0100
1000
1001
0000
0001
0100
1000
0100
,  // measure 57
0100
0000
0000
0000
0010
0000
0001
0000
0100
0000
0000
0000
0100
0000
0000
0100
,  // measure 58
0000
0110
0000
0001
0010
0001
0010
0100
,  // measure 59
1000
0000
1000
0100
0010
0000
0011
0001
,  // measure 60
0010
0100
1100
0000
0010
0010
0200
0000
,  // measure 61
0310
0000
0001
0010
0000
0010
0011
0100
,  // measure 62
1000
1100
0000
0000
0010
0000
0100
0000
,  // measure 63
0001
0010
0000
0100
0010
0001
0010
0100
,  // measure 64
0100
1000
0000
0000
0001
0010
0100
0100
,  // measure 65
0001
0000
0100
0000
0010
0000
0010
0100
,  // measure 66
0002
0000
0000
0000
0103
0000
0010
0100
,  // measure 67
1000
0000
0010
0100
0010
0000
0011
0000
,  // measure 68
0101
1100
1010
2002
,  // measure 69
0000
0000
0000
0000
0000
0000
0000
0000
3003
0000
0000
0000
0101
0000
0000
1100
,  // measure 70
0000
0000
1010
0000
0011
0000
0000
1001
0000
0000
0000
0000
0000
0000
0010
0000
,  // measure 71
0100
0000
1000
0100
0010
0001
0000
0100
,  // measure 72
0010
0100
1000
0100
1000
0010
0000
0000
,  // measure 73
0100
0000
0010
0100
0010
0100
0000
0100
,  // measure 74
0001
0010
0100
0010
0001
0010
0000
0010
,  // measure 75
0100
0000
0010
1000
0100
1000
0000
0010
,  // measure 76
0001
0100
1000
0100
0010
0001
0001
0000
,  // measure 77
0010
0100
0100
0000
0001
1000
1000
0001
,  // measure 78
1001
0000
0000
0000
;
