#TITLE:ローリンガール;
#SUBTITLE:;
#ARTIST:初音ミク;
#TITLETRANSLIT:Rolling Girl;
#SUBTITLETRANSLIT:;
#ARTISTTRANSLIT:Hatsune Miku;
#CREDIT:;
#BANNER:banner.png;
#BACKGROUND:background.png;
#LYRICSPATH:;
#CDTITLE:Cdtitle.png;
#MUSIC:Rolling Girl.mp3;
#OFFSET:-0.060;
#SAMPLESTART:78.780;
#SAMPLELENGTH:19.760;
#SELECTABLE:YES;
#BPMS:0.000=195.001;
#STOPS:319.000=0.100
;
#BGCHANGES:0.000=Rolling Girl.avi=1.000=1=0=0,
99999=-nosongbg-=1.000=0=0=0 // don't automatically add -songbackground-
;

//---------------dance-single - ----------------
#NOTES:
     dance-single:
     :
     Beginner:
     5:
     0.141,0.318,0.133,0.042,0.000:
0000
0000
0000
0000
,
0000
0000
0000
0000
,
0000
0000
0000
0000
,
0000
0000
0000
0000
,
0000
0000
0000
0000
,
0000
0000
0000
0000
,
0000
0000
0000
0000
,
0000
0000
0000
0000
,
1000
1000
0000
0000
,
0000
0000
0000
0000
,
0010
0010
0000
0000
,
0000
0000
0000
0000
,
0100
0100
0000
0000
,
0000
0000
0000
0000
,
0001
0001
0000
0000
,
0000
0000
0000
0000
,
1000
1000
0000
0000
,
0000
0000
0000
0000
,
0010
0010
0000
0000
,
0000
0000
0000
0000
,
0100
0100
0000
0000
,
0000
0000
0000
0000
,
0001
0001
0000
0000
,
0000
0000
0000
0000
,
0010
0000
0000
0000
,
0000
0000
0000
0000
,
0100
0000
0000
0000
,
1000
0000
0000
0000
,
0010
0000
0000
0000
,
0010
0000
0000
0000
,
0001
0000
0000
0000
,
0001
0000
0000
0000
,
0100
0000
0000
0000
,
0010
0000
0000
0000
,
1000
0000
0000
0000
,
1000
0000
0000
0000
,
1001
0000
0000
0000
,
0000
0000
0000
0000
,
1001
0000
0000
0000
,
0000
0000
0000
0000
,
0010
0010
0000
0000
,
0000
0000
0000
0000
,
0100
0100
0000
0000
,
0000
0000
0000
0000
,
0001
0001
0000
0000
,
0000
0000
0000
0000
,
1000
1000
0000
0000
,
0000
0000
0000
0000
,
0010
0000
0000
0000
,
0100
0000
0000
0000
,
0001
0000
0000
0000
,
1000
0000
0000
0000
,
0010
0000
0010
0000
,
0000
0000
0000
0100
,
0000
0100
0000
0000
,
0000
0000
0000
0000
,
0110
0000
0000
0000
,
0110
0000
0000
0000
,
0001
0000
0001
0000
,
0001
0000
0000
0000
,
0010
0000
1000
0000
,
0100
0000
0010
0000
,
0001
0000
0000
0000
,
0000
0000
0000
0000
,
1001
0000
0000
0000
,
1001
0000
0000
0000
,
0010
0000
0000
0000
,
0100
0000
0000
0000
,
1000
1000
1000
0000
,
0001
0001
0001
0000
,
0010
0000
0000
0000
,
0010
0010
0020
0030
,
1001
0000
0000
0000
,
0110
0000
0000
0000
,
1001
0000
0000
0000
,
0000
0000
0000
0000
,
0020
0000
0000
0000
,
0030
0000
0200
0000
,
0000
0000
0300
0000
,
0002
0000
0000
0003
,
0000
0000
0000
0000
,
0110
0000
0000
0000
,
1001
0000
0000
0000
,
0010
0000
0000
0000
,
1000
1000
1000
0000
,
0010
0010
0010
0000
,
0100
0000
0100
0000
,
0001
0001
0002
0003
,
0110
0000
0000
0000
,
1001
0000
0000
0000
,
0010
0000
0000
0000
,
1000
0000
0000
0000
,
1001
0000
0000
0000
,
0110
0000
0000
0000
,
1001
0000
0000
0000
,
0000
0000
0000
0000
0010
0010
0000
0000
;

//---------------dance-single - ----------------
#NOTES:
     dance-single:
     :
     Easy:
     7:
     0.368,0.437,0.150,0.333,0.000:
0000
0000
0000
0000
,
0000
0000
0000
0000
,
0000
0000
0000
0000
,
0000
0000
0000
0000
,
0000
0000
0000
0000
,
0000
0000
0000
0000
,
0000
0000
0000
0000
,
0000
0000
0000
0000
,
1000
0001
0100
0001
,
0020
0000
1000
1030
,
0010
0010
0100
0001
,
2000
0000
0001
3001
,
0010
0010
1000
0001
,
0200
0000
0001
0301
,
1000
1000
0001
0100
,
0020
0000
0100
0130
,
0001
0001
0100
0001
,
2000
0000
0001
3001
,
0010
0010
1000
0100
,
0002
0000
1000
1003
,
0001
0001
1000
0001
,
0020
0000
0100
0130
,
1000
1000
0001
0100
,
0020
0000
1000
1030
,
0010
1000
0001
0000
,
0200
0000
0000
0300
,
0100
0001
0100
0010
,
2000
0000
0000
3000
,
0010
0000
0100
0000
,
0002
0000
0000
0003
,
0020
0000
0000
0030
,
0200
0000
0000
0300
,
0100
0001
1000
0010
,
0020
0000
0000
0030
,
1000
0100
1000
0010
,
2000
0000
3001
0001
,
0020
0000
0100
0100
,
0130
0000
1000
1000
,
0002
0000
0000
1000
,
2000
0000
0000
3003
,
0100
0100
0001
2000
,
0000
0000
0001
3001
,
0100
0100
0001
2000
,
0000
0000
0010
3010
,
0100
0100
0001
0020
,
0000
0000
1000
1030
,
0001
0001
0100
2000
,
0000
0000
0001
3001
,
0010
0100
0001
0100
,
0020
0000
0000
0030
,
0001
1000
0010
0100
,
0002
0000
0000
0003
,
1000
0000
1000
0010
,
0000
0010
1000
0002
,
0000
0000
0003
1000
,
0000
0010
0000
0000
,
0101
0001
0100
0000
,
1001
1000
0001
0000
,
1000
0000
1000
0000
,
0001
0010
0100
1000
,
1010
0000
1100
0000
,
0101
0000
0110
0000
,
0001
1000
0001
1000
,
0001
0100
0020
0030
,
1001
0100
0010
0000
,
0110
0100
0010
0000
,
1000
0100
0010
0001
,
0100
0010
0001
1001
,
0001
0100
0001
0000
,
0001
0100
0100
0000
,
0100
0001
0100
0010
,
1000
1000
2000
3000
,
0011
0010
0001
0000
,
1010
0010
1000
0000
,
1001
1000
0001
0100
,
0010
0010
0100
0100
,
0002
0000
0023
0000
,
0230
0000
2300
0000
,
3020
0000
0000
0230
,
0000
0000
0000
0300
,
1001
0001
1000
0000
,
0101
0100
0001
0000
,
0011
0001
1000
0100
,
0010
0001
1000
1010
,
0001
1000
0001
0000
,
0100
1000
1000
0000
,
0010
1000
0100
0010
,
0010
0010
0020
0030
,
1010
1000
0010
0000
,
1100
1000
0100
0000
,
0010
0001
0100
0001
,
1000
0010
0100
0100
,
2000
0000
3200
0000
,
0320
0000
0230
0000
,
0302
0000
0000
0203
,
0000
0000
0000
0000
0301
0001
0000
0000
;

//---------------dance-single - ----------------
#NOTES:
     dance-single:
     :
     Medium:
     9:
     0.460,0.477,0.258,0.349,0.000:
0000
0000
0000
0000
,
0000
0000
0000
0000
,
0000
0000
0000
0000
,
0000
0000
0000
0000
,
0000
0000
0000
0000
,
0000
0000
0000
0000
,
0000
0000
0000
0000
,
0000
0000
0000
0000
,
0100
0000
0110
0000
0010
0000
0000
1000
,
0000
0001
0000
1000
0010
1000
1000
0000
,
0010
0011
0100
0001
,
1000
0001
0000
0000
0100
0010
0010
0000
,
0010
0000
0110
0000
0010
0000
0000
0001
,
0000
1000
0000
0100
0010
1000
1000
0000
,
1000
0000
1001
0000
0001
0000
0000
0001
,
0000
0100
0001
0010
0100
0001
0001
0000
,
0001
0000
1001
0000
0100
0000
0000
1000
,
0000
0001
0000
0100
0001
0010
0010
0000
,
0010
0000
1010
0000
1000
0000
0100
0001
,
0000
0100
0000
0010
0100
0001
0001
0000
,
1000
0000
1001
0000
1000
0000
0001
1000
,
0000
0010
0000
0001
1000
0100
0100
0000
,
0010
0000
1010
0000
0001
0000
0100
0001
,
0000
1000
0000
0010
0001
0100
0100
0000
,
0020
0030
0002
0003
,
2000
0000
3000
0001
,
0010
0000
1000
0000
0010
0010
0000
2000
,
0000
0000
0000
3001
,
0001
0000
2000
3000
,
0020
0000
0000
0000
0000
0030
0000
0100
,
0200
0000
0000
0000
0000
0300
0000
0010
,
0002
0000
0000
0003
,
0200
0000
0000
0000
0000
0000
0301
0002
,
0000
0003
0010
0110
,
0100
1100
1000
1001
,
2000
0000
3100
0100
,
0002
0000
0000
0000
0003
0010
0100
0020
,
0000
0000
0000
0030
0100
0000
0100
0000
,
0020
0000
0000
0000
0030
0100
1000
0200
,
0000
0000
0000
0300
,
0010
0000
0011
0000
0001
0000
1000
0001
,
0000
0010
0000
0100
0001
1000
1000
0000
,
0010
0000
0110
0000
0001
0000
1000
0001
,
0000
0010
0000
1000
0100
0001
0001
0000
,
0001
0000
0101
0000
0001
0000
0010
1000
,
0000
0100
0000
0001
0100
0010
0010
0000
,
0001
0000
1001
0000
0100
0000
0001
1000
,
0000
0010
0000
0100
1000
0001
0001
0000
,
0010
0000
1000
0000
0200
0000
0000
0300
,
2000
0000
0000
0000
0000
3000
0000
0010
,
0100
0000
1000
0000
0001
0001
0000
0020
,
0000
0000
0000
1030
,
1000
0000
0000
0000
2000
0000
0000
3000
,
0020
0000
0030
0200
,
0000
0000
0000
0000
0000
0300
1000
0002
,
0000
0000
0103
0000
,
0010
0100
1001
0000
,
0001
1000
0110
0000
,
0010
0100
0001
0100
,
1000
0010
0100
0001
,
0002
0000
0023
0000
,
0230
0000
2300
0000
,
3001
0001
0001
1000
,
1000
1000
2002
3003
,
1000
0000
0001
0000
1001
0000
0000
0010
,
0000
0100
0110
0000
,
0001
0100
0010
0000
1000
0000
0010
0000
,
0100
0000
1000
0001
1000
0000
1100
0000
,
0001
0000
0001
0001
0001
0000
0000
0010
,
0000
0000
0010
0010
0010
0000
0100
0000
,
0001
0000
0010
0000
0100
0010
1000
0000
,
0010
0000
0100
0100
0001
0002
0003
0000
,
1000
0000
0010
0000
1010
0000
0000
1000
,
0010
0100
1100
0000
,
0010
0100
0010
0001
,
1000
1100
0101
0101
,
0200
0000
0302
0000
,
0023
0000
0230
0000
,
0302
0000
0000
2003
,
0000
0000
0000
0000
0001
3001
0000
0000
,
0010
0000
0001
0000
0011
0000
0000
0001
,
0000
1000
1001
0100
,
0010
0001
0010
0100
,
0010
0000
0001
0010
0100
0000
0101
0000
,
1000
0000
1000
1000
1000
0000
0000
0100
,
0000
0000
0100
0100
0100
0000
0000
0000
,
1000
0000
0001
0000
0100
1000
0010
0000
,
0001
0000
1000
0010
1000
2000
3000
0000
,
0010
0000
0100
0000
0110
0000
0000
0100
,
0000
1000
1100
0000
,
1000
0000
0100
0001
0010
0000
0001
0000
,
0010
0000
0100
0001
1000
0000
1000
0000
,
0002
0000
0203
0000
,
0320
0000
2030
0000
,
3002
0000
0000
2003
,
0000
0000
0000
0000
3100
0100
0000
0000
;

//---------------dance-single - ----------------
#NOTES:
     dance-single:
     :
     Hard:
     11:
     0.633,0.676,0.657,0.150,0.004: // measure 1
0000
0000
0000
0000
,  // measure 2
0000
0000
0000
0000
,  // measure 3
0000
0000
0000
0000
,  // measure 4
0000
0000
0000
0000
,  // measure 5
0000
0000
0000
0000
,  // measure 6
0000
0000
0000
0000
,  // measure 7
0000
0000
0000
0000
,  // measure 8
0000
0000
0000
0000
,  // measure 9
0110
0000
0110
0000
0001
0100
0010
1000
,  // measure 10
0000
0001
0100
1000
0010
0001
0001
0000
,  // measure 11
1001
0000
1001
0000
0001
0010
0100
1000
,  // measure 12
0000
0001
1000
0100
1000
0001
0001
0000
,  // measure 13
1100
0000
1100
0000
0001
1000
0100
0001
,  // measure 14
0000
1000
0010
0100
0001
0100
0100
0000
,  // measure 15
1010
0000
1010
0000
0001
0100
0001
1000
,  // measure 16
0000
0010
0100
1000
0100
0010
0010
0000
,  // measure 17
0101
0000
0101
0000
0100
0001
0010
0100
,  // measure 18
0000
0010
0001
0100
0001
0010
0010
1000
,  // measure 19
1001
0000
1001
0000
0001
0010
0100
0001
,  // measure 20
0000
1000
0100
0001
0100
0010
0010
0000
,  // measure 21
0110
0000
0110
0000
0010
0000
0100
0010
,  // measure 22
0000
1000
0100
0010
0001
0010
0010
0000
,  // measure 23
0011
0000
0011
0000
0001
0000
1000
0001
,  // measure 24
0000
0010
0001
0100
0001
0100
0100
0000
,  // measure 25
0010
0000
1001
0000
0100
0010
1000
0000
,  // measure 26
0001
0010
0200
0000
0000
0000
0301
0000
,  // measure 27
0010
0000
0001
0100
0001
0010
1000
0200
,  // measure 28
0000
0000
0000
0310
,  // measure 29
0101
0000
0001
0010
0100
0000
1000
0100
,  // measure 30
0002
0000
0100
0000
0013
0000
1000
0020
,  // measure 31
0000
0000
0000
0000
0000
0030
0000
0010
,  // measure 32
0200
0000
0000
0301
,  // measure 33
0110
0000
0100
0000
0001
1000
0010
2000
,  // measure 34
0000
3001
0011
0101
,  // measure 35
1100
0000
1001
0000
0001
0100
0001
0010
,  // measure 36
0200
0000
0301
0100
,  // measure 37
0012
0000
0000
0000
0013
0100
1000
2100
,  // measure 38
0000
0000
0000
3000
0001
0000
0001
0000
,  // measure 39
0210
0000
0000
0000
0300
0001
1000
2001
,  // measure 40
0000
0000
0001
3001
,  // measure 41
1001
0000
1001
0000
1000
0100
0010
0001
,  // measure 42
0000
0001
0100
0010
1000
1000
1000
0000
,  // measure 43
0101
0000
0101
0000
0001
0000
0001
0100
,  // measure 44
0000
0001
0100
0001
1000
0100
0100
0000
,  // measure 45
0110
0000
0110
0000
0001
0000
0100
0010
,  // measure 46
0000
1000
0001
0010
0100
0010
0010
0000
,  // measure 47
1100
0000
1100
0000
0010
0000
0100
0001
,  // measure 48
0000
0100
1000
0010
0001
1000
1000
0000
,  // measure 49
1001
0000
1000
0010
0100
0000
0001
0010
,  // measure 50
0200
0000
0010
0000
0301
0000
0100
0001
,  // measure 51
0100
0000
0010
0000
1000
0010
1000
0200
,  // measure 52
0000
0000
0000
0000
0000
0300
1100
0000
,  // measure 53
0101
0001
0100
0001
,  // measure 54
0020
0000
0000
0030
1000
0000
0020
0000
,  // measure 55
0000
0000
0000
0000
0100
0030
1000
0002
,  // measure 56
0000
0000
0103
0001
,  // measure 57
0100
0000
1100
0000
0101
0000
0000
0001
,  // measure 58
0000
0010
0011
0000
1010
0000
0000
0010
,  // measure 59
0000
1000
0100
0010
0001
0100
0010
0001
,  // measure 60
1000
0100
1100
0000
0101
0000
1001
0000
,  // measure 61
0010
0000
0001
0100
0001
0000
0010
0100
,  // measure 62
1000
0000
0001
0100
0001
0000
1000
0000
,  // measure 63
1100
1100
1100
0101
,  // measure 64
0010
0000
0010
0000
0001
0100
0001
0100
,  // measure 65
1100
0000
1000
0000
1010
0000
0000
0001
,  // measure 66
0101
0000
0001
0000
1001
0000
0000
0001
,  // measure 67
0100
0001
0100
0010
1000
0001
0010
0001
,  // measure 68
0001
0010
0100
1000
0100
0000
1100
0000
,  // measure 69
0101
0000
0001
0100
0001
0000
0000
0001
,  // measure 70
0000
0000
0001
0010
0100
0000
0000
1000
,  // measure 71
0100
0010
0001
1000
0010
0100
0001
0001
,  // measure 72
0010
0010
0100
0100
1000
1000
0000
0000
,  // measure 73
1001
0000
1000
0000
1100
0000
0000
1000
,  // measure 74
0100
0000
0001
0100
0001
0000
0000
0100
,  // measure 75
0001
1000
0010
0100
0010
1000
0001
0000
,  // measure 76
1000
0201
0010
0310
,  // measure 77
0100
1100
0010
1001
,  // measure 78
0100
0110
1000
1100
,  // measure 79
0010
0011
0100
0101
,  // measure 80
2100
0000
0000
0000
0010
3010
0000
0000
,  // measure 81
0011
0000
0001
0000
1001
0000
0000
0101
,  // measure 82
0000
0000
0100
0000
0110
0000
0000
1000
,  // measure 83
0010
1000
0100
0010
0001
0100
0100
0000
,  // measure 84
0010
0100
1000
0100
0010
0000
1001
0000
,  // measure 85
1100
0000
0010
1000
0010
0000
0000
1000
,  // measure 86
0000
0000
0100
0001
0100
0000
0001
0010
,  // measure 87
0100
1000
0000
0100
1000
0010
1000
1000
,  // measure 88
0100
0100
0010
0010
0001
0001
0000
0000
,  // measure 89
0011
0000
0001
0000
0110
0000
0000
0100
,  // measure 90
0000
0000
1000
0100
1000
0000
0000
0001
,  // measure 91
0100
0010
1000
0001
0100
0010
0001
0010
,  // measure 92
0001
0010
0100
1000
1000
0000
1100
0000
,  // measure 93
0001
1001
0100
0110
,  // measure 94
0010
0011
0001
0101
,  // measure 95
0100
0000
1100
0000
0010
0100
0001
0000
,  // measure 96
0001
0000
0000
0100
0000
0000
0010
0000
1000
0000
1000
0000
0000
0000
0000
0000
;
