#TITLE:Ride;
#SUBTITLE:;
#ARTIST:Twenty One Pilots;
#TITLETRANSLIT:;
#SUBTITLETRANSLIT:;
#ARTISTTRANSLIT:;
#GENRE:;
#CREDIT:;
#BANNER:banner.png;
#BACKGROUND:background.png;
#LYRICSPATH:;
#CDTITLE:Cdtitle.png;
#MUSIC:Ride.mp3;
#OFFSET:-0.080000;
#SAMPLESTART:102.480133;
#SAMPLELENGTH:16.999996;
#SELECTABLE:YES;
#BPMS:0.000000=150.000000
,32.000000=75.000000
,48.000000=150.000000
,80.000000=75.000000
,96.000000=150.000000
,128.000000=75.000000
,160.000000=150.000000
,256.000000=75.000000
;
#STOPS:
;
#BGCHANGES:16.000=Ride.avi=1.000=1=0=0=StretchNoLoop==CrossFade==,
99999=-nosongbg-=1.000=0=0=0 // don't automatically add -songbackground-
;
#KEYSOUNDS:;
#ATTACKS:;

//---------------dance-single - ----------------
#NOTES:
     dance-single:
     :
     Beginner:
     3:
     0.089969,0.163540,0.067719,0.094806,0.000000,93.000000,83.000000,10.000000,14.000000,0.000000,0.000000,0.089969,0.163540,0.067719,0.094806,0.000000,93.000000,83.000000,10.000000,14.000000,0.000000,0.000000:
0000
0000
0000
0000
,
0000
0000
0000
0000
,
0000
0000
0000
0000
,
0000
0000
0000
0000
,
0000
0000
0000
0000
,
0000
0000
0000
0000
,
1000
0000
1000
0000
,
1000
0000
0010
0000
,
1001
0000
0100
0000
,
0010
0000
0000
0001
,
0100
0000
0000
0100
,
0001
0000
0000
0000
,
1000
0000
0100
0000
,
0100
0000
0001
0000
,
0001
0000
1001
0000
,
0000
0000
1001
0000
,
0100
0000
0000
0000
,
0100
0000
0010
0000
,
1000
0000
0001
0000
,
0001
0000
1001
0000
,
1000
0000
1000
0000
,
0010
0000
2002
0000
,
0000
3003
0100
0000
,
0010
0000
0001
0000
,
2000
0000
0000
0000
,
0000
0000
0000
0000
,
3000
0000
0000
0000
,
0100
0000
0000
0000
,
0002
0000
0000
0000
,
0000
0000
0000
0000
,
0003
0000
0000
0000
,
0010
0000
0100
0000
,
2000
0000
3000
0000
,
0002
0000
0003
0000
,
0020
0000
0030
0000
,
0200
0000
0300
0000
,
0001
0000
1000
0000
,
1000
0000
0010
0000
,
0010
0000
0000
0100
,
0000
0100
0000
0000
,
0001
0000
0000
0001
,
0000
0000
0001
0000
,
0000
0000
1000
0000
,
1000
0000
1000
0000
,
1001
0000
1001
0000
,
0010
0000
0010
0000
,
0100
0000
0000
0000
,
0001
0000
1000
0000
,
0002
0000
0000
0000
,
0000
0000
0000
0000
,
0000
0000
0000
0003
,
0010
0000
0100
0000
,
2000
0000
0000
0000
,
0000
0000
0000
0000
,
0000
0000
0000
3000
,
0000
0000
0000
0000
,
0010
0010
0010
0000
,
0100
0100
0100
0000
,
0000
0000
0001
0000
,
1001
0000
0000
0000
,
0010
0000
0000
0000
,
1000
0000
1000
0000
,
0010
0000
0000
0000
,
1001
0000
0000
0000
,
1001
0000
0000
0000
,
0020
0000
0030
0000
,
0002
0000
0003
0000
,
0020
0000
0030
0000
,
0200
0000
0000
0000
,
0300
0000
0000
0000
;

//---------------dance-single - ----------------
#NOTES:
     dance-single:
     :
     Easy:
     4:
     0.155753,0.233629,0.074490,0.216699,0.000000,161.000000,150.000000,11.000000,32.000000,0.000000,0.000000,0.155753,0.233629,0.074490,0.216699,0.000000,161.000000,150.000000,11.000000,32.000000,0.000000,0.000000:
0000
0000
0000
0000
,
0000
0000
0000
0000
,
0000
0000
0000
0000
,
0000
0000
0000
0000
,
0000
0000
0000
0000
,
0000
0000
0000
0000
,
0010
0010
0010
0100
,
0100
0100
0001
1000
,
1002
0000
0003
1000
,
0020
0000
0000
1000
,
2030
0000
0000
0010
,
3200
0000
0000
1300
,
0010
1000
0010
0000
,
0100
0010
0001
0000
,
0001
0000
0110
0000
,
0100
0000
1001
0000
,
0001
0100
0001
0000
,
0010
0100
1000
0000
,
1000
0000
0101
0000
,
0010
0000
1010
0000
,
2000
3001
0200
0301
,
1000
0010
0200
0020
,
0000
0330
2000
3001
,
0200
0310
0001
0001
,
0020
0000
0000
0000
,
0000
0000
0130
1000
,
0002
0000
0000
0003
,
0001
0100
0001
0010
,
0200
0000
0000
0000
,
0000
0000
0300
0010
,
0001
0100
0000
1000
,
0001
1000
0010
1000
,
0200
0000
0300
0100
,
0020
0000
0030
0010
,
0002
0000
0003
0001
,
2000
0000
3000
0100
,
0001
0100
0000
0000
,
1000
0010
1000
0000
,
0010
0000
0100
0010
,
0100
0000
1000
0000
,
0010
0010
0020
0030
,
1000
1000
2000
0000
,
3000
0000
0010
1000
,
0010
1000
0100
0010
,
0001
0001
2002
3003
,
1000
1000
2000
3000
,
1001
0000
0000
0000
,
0001
0000
1000
0000
,
0002
0000
0000
0000
,
0000
0000
0103
0010
,
2000
0000
0000
3000
,
0001
0001
0010
0010
,
0200
0000
0000
0000
,
0000
0000
0301
1000
,
0020
0000
0000
0000
,
0000
0030
0001
0000
,
0100
0100
0110
0000
,
1000
1000
1001
0000
,
0100
0000
0100
0010
,
0100
0010
0000
0001
,
0100
0100
0200
0300
,
0001
0001
0002
0003
,
1001
0000
0010
0000
,
0100
0000
0100
0000
,
0110
0000
0000
0100
,
0002
0000
0003
0010
,
0200
0000
0300
1000
,
0020
0000
0030
0100
,
2000
0000
0000
0000
,
3000
0000
0000
0000
;

//---------------dance-single - ----------------
#NOTES:
     dance-single:
     :
     Medium:
     5:
     0.198319,0.303718,0.060947,0.365680,0.000000,205.000000,196.000000,9.000000,54.000000,0.000000,0.000000,0.198319,0.303718,0.060947,0.365680,0.000000,205.000000,196.000000,9.000000,54.000000,0.000000,0.000000:
0000
0000
0000
0000
,
0000
0000
0000
0000
,
0000
0000
0000
0000
,
0000
0000
0000
0000
,
0000
0000
0000
0000
,
0000
0000
0000
0000
,
2000
0000
3020
0000
,
1030
0100
0002
0103
,
0020
0000
0030
0100
,
0002
0010
0010
1003
,
2000
0000
0000
0001
,
3020
1000
0100
1030
,
0001
0000
0000
0000
0001
0100
0001
0000
,
0010
0000
0100
0000
1000
0000
0100
1000
,
0100
0000
0000
0000
0100
0001
0000
0001
,
0010
0000
0000
1000
1001
0000
0000
0000
,
0000
0000
0010
0000
0010
1000
0010
0000
,
0100
0001
1000
0001
,
0100
0000
0000
0000
0100
0010
0000
0010
,
1000
1000
1100
0101
,
0000
0010
2000
0100
3000
0100
0002
0100
,
1003
0000
0000
0010
0000
0010
0000
0010
,
0000
0100
0000
0100
0020
0100
0030
0000
,
2000
0010
3000
0000
0200
0000
0302
0000
,
2003
0000
3001
0100
,
0010
0000
0000
0000
0100
0000
0001
0010
,
0200
0000
0000
0300
,
0001
0001
0100
0100
,
0020
0000
0000
0000
,
0000
0000
0130
0001
,
0001
0000
0100
0001
0100
0000
0001
0000
,
0100
0000
0000
0000
0010
0100
0010
0000
,
2000
0001
0000
0010
,
3200
0001
0000
0010
,
0302
1000
0000
0010
,
0023
0100
0000
0100
,
1030
1000
0010
0000
,
0100
0001
0000
0010
,
0100
0000
0010
0001
,
0000
0010
0100
0000
,
0002
0023
0032
1003
,
0200
2300
3200
1300
,
1000
1001
0010
0010
,
0010
0100
0100
0100
,
0002
2003
3002
0003
,
1000
1000
2000
3000
,
1001
0000
0000
0000
,
0010
0010
0100
0100
,
0020
0000
0000
0000
,
0000
0000
1030
0000
0100
0000
0010
0001
,
0200
0000
0000
0300
,
1000
1000
0100
0100
,
0020
0000
0000
0000
,
0030
0000
0001
0000
0010
0000
0100
0001
,
0200
0000
0000
0000
,
0000
0300
0001
0101
,
2000
3200
2300
3000
,
0002
0023
0032
0003
,
0100
0000
0100
0010
,
1000
1000
0001
0001
,
2000
3002
2003
3000
,
0020
0230
0320
0030
,
0100
0000
0010
0000
,
1000
1000
0001
0001
,
2002
0000
3003
0000
0000
0000
0001
0100
,
0200
0000
0300
1000
,
2020
0000
0000
0000
3030
0000
0001
1000
,
2000
0000
3000
0010
,
2002
0000
0000
0000
,
3003
0000
0000
0000
;

//---------------dance-single - ----------------
#NOTES:
     dance-single:
     :
     Hard:
     8:
     0.288288,0.443895,0.196384,0.270874,0.094806,298.000000,269.000000,29.000000,40.000000,0.000000,0.000000,0.288288,0.443895,0.196384,0.270874,0.094806,298.000000,269.000000,29.000000,40.000000,0.000000,0.000000:
// measure 0
0000
0000
0000
0000
,  // measure 1
0000
0000
0000
0000
,  // measure 2
0000
0000
0000
0000
,  // measure 3
0000
0000
0000
0000
,  // measure 4
0000
0000
0000
0000
,  // measure 5
0000
0000
0000
0000
,  // measure 6
0002
0000
0203
0000
,  // measure 7
0310
0000
0000
0000
0100
0000
0000
0010
0001
0000
0000
0000
0001
0000
0000
0000
,  // measure 8
1001
0000
0000
1000
0000
1000
0000
1000
,  // measure 9
0000
0000
0000
0001
0002
0000
0000
0100
0100
0000
0000
1000
1000
0000
0000
0000
,  // measure 10
1003
0000
0000
0100
0000
0100
0000
0100
,  // measure 11
0002
0000
0000
1000
1000
0000
0000
0100
0100
0000
0000
1000
1003
0000
0000
0000
,  // measure 12
0001
0000
0010
0001
0010
0001
0010
0000
,  // measure 13
0100
0000
0010
0000
0001
0000
0010
0001
,  // measure 14
0100
0000
0000
0000
0010
0002
0000
0000
,  // measure 15
0103
2000
0000
0001
3001
0000
0010
0010
,  // measure 16
1000
0000
0001
0000
0100
0001
0100
0000
,  // measure 17
0100
0000
0010
0000
1000
0100
0001
0000
,  // measure 18
0100
0100
0000
0000
0010
2000
0000
0000
,  // measure 19
3100
0002
0000
0000
1003
0000
1001
0000
,  // measure 20
0010
0001
0020
0000
0031
0100
0002
0000
,  // measure 21
1003
0000
0000
1000
0000
0000
0100
0000
0000
0100
0000
0000
0001
0000
0010
0000
0100
0000
0010
0000
0100
0000
1000
0000
,  // measure 22
1000
1000
1100
0000
0001
0100
0001
0010
,  // measure 23
2000
0000
0000
3010
0000
0000
0010
0000
0000
0000
0000
0000
1000
0000
0100
0000
1000
0000
0001
0000
0010
0000
0001
0000
,  // measure 24
2000
0000
3000
0100
1000
0000
0100
0000
,  // measure 25
0010
0000
0001
0000
0100
0000
0001
0010
,  // measure 26
0002
0000
0000
0010
0013
0000
0000
0000
,  // measure 27
0001
0000
0000
0010
0000
0000
0001
0000
0100
0000
0000
0010
0000
0000
0010
0000
,  // measure 28
2000
0000
0000
0010
0010
0000
0000
0000
,  // measure 29
3001
0000
0001
0000
0001
0000
0010
0100
,  // measure 30
1000
1000
1000
0001
,  // measure 31
0100
0000
0000
0000
0001
0000
0000
0010
0100
0000
0000
0000
1000
0000
0000
0000
,  // measure 32
2000
0010
0000
0100
,  // measure 33
3200
0010
0000
0010
,  // measure 34
0320
0001
0000
0031
,  // measure 35
0002
1000
0000
1003
,  // measure 36
0100
0100
0001
0000
0000
0001
0100
0000
,  // measure 37
0010
0010
1000
0000
0001
1000
0001
0000
,  // measure 38
1000
1000
0010
0000
0010
0100
0010
0000
,  // measure 39
0001
0001
1000
0000
0001
1000
0001
0000
,  // measure 40
0101
1100
2002
3003
,  // measure 41
0110
1001
0220
0330
,  // measure 42
0002
1003
0100
0001
,  // measure 43
1000
0000
0000
0100
0000
0000
0100
0000
0010
0000
0000
0001
0000
0000
0001
0000
,  // measure 44
0011
1010
1001
0000
,  // measure 45
1100
0101
1001
0000
,  // measure 46
0220
0000
0330
0000
,  // measure 47
0001
0001
1000
1000
,  // measure 48
0002
0000
0000
0000
,  // measure 49
0003
0000
0100
0000
0100
0001
0100
0001
,  // measure 50
0020
0000
0000
0030
,  // measure 51
0100
0000
0000
0001
0000
0000
0001
0000
0010
0000
0000
0010
0000
0000
0010
0000
,  // measure 52
2000
0000
0000
0100
0100
0000
3001
0000
,  // measure 53
0000
0000
0010
0000
0100
0010
0001
0010
,  // measure 54
0002
0000
0000
0100
0100
0000
0000
0000
,  // measure 55
1000
1003
0001
0101
,  // measure 56
1001
1001
1001
0100
,  // measure 57
0110
0110
0110
0001
,  // measure 58
0002
1003
0100
0010
,  // measure 59
1000
0000
0000
0100
0000
0000
1000
0000
0001
0000
0000
0010
0000
0000
0001
0000
,  // measure 60
0011
1010
2002
3003
,  // measure 61
0110
0110
0110
0002
,  // measure 62
1003
1000
0010
0000
,  // measure 63
0010
0000
0000
1000
0000
0000
1000
0000
0010
0000
0000
0001
0000
0000
0100
0000
,  // measure 64
0200
0000
0000
0000
0000
0000
0000
0000
0300
0000
0000
0000
0010
0000
0000
0001
,  // measure 65
0002
0000
0003
0020
,  // measure 66
0200
0000
0000
0000
0000
0000
0000
0000
0330
0000
0000
0000
0001
0000
0000
0100
,  // measure 67
0200
0000
0300
0002
,  // measure 68
2000
0000
0000
0000
,  // measure 69
3003
0000
0000
0000
;
