#TITLE:Rescue Me;
#SUBTITLE:;
#ARTIST:NAOKI feat. Fracus;
#TITLETRANSLIT:;
#SUBTITLETRANSLIT:;
#ARTISTTRANSLIT:;
#GENRE:;
#CREDIT:;
#BANNER:banner.png;
#BACKGROUND:background.png;
#LYRICSPATH:;
#CDTITLE:Cdtitle.png;
#MUSIC:Rescue Me.mp3;
#OFFSET:1.620000;
#SAMPLESTART:66.139999;
#SAMPLELENGTH:15.000000;
#LASTBEATHINT:1.508865;
#SELECTABLE:YES;
#BPMS:0.000000=145.000000
;
#STOPS:
;
#BGCHANGES:;
#KEYSOUNDS:;
#ATTACKS:;

//---------------dance-single - ----------------
#NOTES:
     dance-single:
     :
     Beginner:
     3:
     0.135302,0.266962,0.000000,0.000000,0.000000,91.000000,91.000000,0.000000,0.000000,0.000000,0.000000,0.135302,0.266962,0.000000,0.000000,0.000000,91.000000,91.000000,0.000000,0.000000,0.000000,0.000000:
// measure 0
0000
0000
0000
0000
,  // measure 1
0000
0000
0000
0000
,  // measure 2
0000
0000
0000
0000
,  // measure 3
0000
0000
0000
0000
,  // measure 4
0000
0000
0000
0000
,  // measure 5
0001
0000
0010
0000
,  // measure 6
0100
0000
1000
0000
,  // measure 7
0100
0000
0010
0000
,  // measure 8
0001
0000
0000
0000
,  // measure 9
0010
0000
0000
0000
,  // measure 10
0100
0000
0000
0000
,  // measure 11
0010
0000
0000
0000
,  // measure 12
0001
0000
0000
0000
,  // measure 13
1000
0000
0000
0000
,  // measure 14
0100
0000
0000
0000
,  // measure 15
0001
0000
0000
0000
,  // measure 16
0010
0000
0000
0000
,  // measure 17
0001
0000
1000
0000
,  // measure 18
0001
0000
1000
0000
,  // measure 19
0001
0000
0100
0000
,  // measure 20
0001
0000
0010
0000
,  // measure 21
0000
0000
0010
0000
,  // measure 22
1000
0000
0000
0000
,  // measure 23
0010
0000
0001
0000
,  // measure 24
1000
0000
0001
0000
,  // measure 25
1000
0000
0000
0000
,  // measure 26
0010
0000
0000
0000
,  // measure 27
0100
0000
0000
0000
,  // measure 28
0001
0000
0000
0000
,  // measure 29
0100
0000
0100
0000
,  // measure 30
0100
0000
0100
0000
,  // measure 31
0001
0000
0100
0000
,  // measure 32
0001
0000
1000
0000
,  // measure 33
0100
0000
0000
0000
,  // measure 34
0100
0000
0000
0000
,  // measure 35
0010
0000
0000
0000
,  // measure 36
0010
0000
0000
0000
,  // measure 37
0001
0000
0000
0000
,  // measure 38
0001
0000
0000
0000
,  // measure 39
0001
0000
0000
0000
,  // measure 40
0001
0000
0000
0000
,  // measure 41
0010
0010
0010
1000
,  // measure 42
0001
0001
0001
0010
,  // measure 43
0100
0100
0100
0000
,  // measure 44
0010
0000
1000
0000
,  // measure 45
0001
0000
0100
0000
,  // measure 46
0001
0000
1000
0000
,  // measure 47
0100
0000
0001
0000
,  // measure 48
0100
0000
0000
0000
,  // measure 49
0010
0010
0010
1000
,  // measure 50
0001
0001
0001
0100
,  // measure 51
1000
1000
1000
0000
,  // measure 52
0010
0000
0100
0000
,  // measure 53
1000
0000
0001
0000
,  // measure 54
1000
0000
0010
0000
,  // measure 55
1000
0000
0001
0000
,  // measure 56
0010
0000
1000
0000
,  // measure 57
0010
0000
0000
0000
;

//---------------dance-single - ----------------
#NOTES:
     dance-single:
     :
     Easy:
     5:
     0.168013,0.237300,0.041632,0.124895,0.000000,113.000000,109.000000,4.000000,12.000000,0.000000,0.000000,0.168013,0.237300,0.041632,0.124895,0.000000,113.000000,109.000000,4.000000,12.000000,0.000000,0.000000:
0000
0000
0000
0000
,
0000
0000
0000
0000
,
0000
0000
0000
0000
,
0000
0000
0000
0000
,
0000
0000
0000
0000
,
1001
0000
0010
0000
,
0100
0000
0010
0000
,
0100
0000
0010
0000
,
1000
0000
0001
0000
,
1000
0000
1001
0000
,
0001
0100
0001
0000
,
0001
0000
0101
0000
,
0001
0010
0001
0000
,
1000
0000
0100
0000
,
0010
0010
0010
0000
,
0001
0000
0010
0000
,
0100
0100
0100
0000
,
0001
0000
0011
0000
,
0010
0010
0100
0000
,
0010
0000
0100
0000
,
0001
0001
0100
0000
,
1000
0000
0100
0000
,
0010
0010
0001
0000
,
0001
0000
0010
0000
,
1000
0000
0000
0000
,
0010
0000
0010
0000
,
0010
0000
0010
0000
,
0100
0000
0100
0000
,
0100
0000
0100
0000
,
0001
0010
0000
0000
,
0010
0100
0000
0000
,
0001
0100
0000
0000
,
1000
0001
0000
0000
,
2000
0000
3000
0000
,
0200
0000
0300
0000
,
0020
0000
0030
0000
,
0200
0000
0300
0000
,
0010
0001
0000
0000
,
0010
0100
0000
0000
,
1000
0100
0010
0001
,
0100
0001
0010
0000
,
0002
0000
0003
0000
,
2000
0000
3000
0000
,
0200
0000
0300
0000
,
0020
0000
0030
0000
,
1000
0001
1000
0000
,
1000
0100
0010
0000
,
0001
0000
0001
0000
,
0010
1000
0010
0000
,
0200
0000
0300
0000
,
0020
0000
0030
0000
,
2000
0000
3000
0000
,
0002
0000
0003
0000
,
0010
0100
1000
0000
,
0100
0001
0100
0000
,
0010
0000
0010
0000
,
0100
1000
0001
0010
,
0001
0000
0000
0000
;

//---------------dance-single - ----------------
#NOTES:
     dance-single:
     :
     Medium:
     7:
     0.364276,0.415275,0.000000,0.000000,0.031224,245.000000,245.000000,0.000000,0.000000,0.000000,0.000000,0.364276,0.415275,0.000000,0.000000,0.031224,245.000000,245.000000,0.000000,0.000000,0.000000,0.000000:
0000
0000
0000
0000
,
0000
0000
0000
0000
,
0000
0000
0000
0000
,
0000
0000
0000
0000
,
0000
0000
0000
0000
,
0100
0000
0010
0000
0100
1000
0100
0000
,
0010
0000
0001
0000
1000
0001
1000
0000
,
0010
0000
1000
0000
0010
0100
0010
0000
,
0100
0000
0001
0000
0100
1000
0100
0000
,
1000
0000
0100
0100
,
1000
0000
0001
0000
0010
0100
1000
0000
,
0010
0100
0001
0100
,
0010
0000
1000
0000
0010
0001
0010
0000
,
0010
0000
1000
0100
,
1000
0000
1000
0000
0001
0010
0100
0000
,
0001
0001
0000
0000
0100
0100
0000
0000
,
0010
0010
0000
0000
0001
1000
0010
0000
,
0010
0000
0000
0001
1000
0000
0100
0000
,
0000
0010
0000
1000
0100
0010
0001
0000
,
0100
0000
0000
0010
0100
0000
0001
0000
,
0000
0010
0000
0010
0100
1000
0001
0000
,
0001
0000
0100
0000
0010
0001
0100
0000
,
0001
0000
0100
0000
0001
0100
0010
0000
,
0001
1000
0010
0000
1000
0001
0100
0000
,
0010
0000
1000
0000
0100
0000
0001
0010
,
0100
1000
0000
0000
0001
0001
0000
0000
,
0001
0000
0100
0100
0000
0000
0000
0000
,
0010
0000
0000
0100
0100
0000
0000
0000
,
0001
0000
0000
1000
1000
0000
1000
0000
,
0010
1000
0100
0000
0010
0000
0100
0000
,
0001
0010
0100
0000
0010
0000
0100
0000
,
0010
0100
0010
0000
0001
0000
1000
0000
,
0010
1000
0001
0100
,
0010
0000
0000
0000
0000
0000
0000
0000
1000
0000
0000
0000
1000
0000
0000
1000
,
0000
0000
0000
0000
0001
0000
0000
0001
0000
0000
0000
0000
0100
0000
0000
0100
,
0000
0000
0000
0000
0010
0000
0000
0010
0000
0000
0000
0000
0100
0000
0000
0100
,
0000
0000
0000
0000
0001
0000
0000
0001
0000
0000
0000
0000
0100
0000
0000
0000
,
1000
0010
0010
0000
0001
0000
0010
0000
,
0100
1000
1000
0000
0001
0000
0100
0000
,
0010
0100
1000
0000
0010
0000
0100
0000
,
1000
0100
0010
0000
0001
0000
1000
0000
,
0001
1000
0001
0010
,
0010
0000
0100
0000
0001
0100
0001
0000
,
0010
0100
0010
1000
,
1000
0000
0010
1000
0010
1000
0010
0000
,
0100
0001
0100
0000
0001
0000
0100
0000
,
0010
1000
0010
0100
0001
0000
0100
0001
,
0010
0001
0100
0000
1000
0000
0100
0000
,
0001
0010
0100
0000
1000
0000
0001
0000
,
0100
0001
0100
0000
0010
0000
0001
0100
,
0001
0010
0100
0000
0010
0000
1000
0000
,
0001
1000
0100
0000
1000
0000
0010
0000
,
0001
0010
0001
0000
0100
0000
0001
0000
,
0010
0100
1000
0100
,
0010
0001
0010
0100
,
0100
1000
0100
0000
0001
1000
0001
0000
,
0010
0001
0010
0000
1000
0100
0010
0001
,
0001
0000
0000
0000
;

//---------------dance-single - ----------------
#NOTES:
     dance-single:
     :
     Hard:
     8:
     0.420776,0.504262,0.031224,0.000000,0.218566,283.000000,280.000000,3.000000,0.000000,0.000000,0.000000,0.420776,0.504262,0.031224,0.000000,0.218566,283.000000,280.000000,3.000000,0.000000,0.000000,0.000000:
0000
0000
0000
0000
,
0000
0000
0000
0000
,
0000
0000
0000
0000
,
0000
0000
0000
0000
,
0000
0000
0000
0000
,
0001
0010
0100
0000
0001
0010
0100
0000
,
0001
1000
0100
0000
0010
0000
1000
0000
,
0001
1000
0100
0000
1000
0100
0010
0000
,
0000
0000
0010
0000
0000
0001
0000
0000
0010
0000
0100
0000
0100
0000
0000
0000
,
0010
0000
0000
0000
0000
0000
1000
0000
0001
0000
0000
0100
0000
0000
0100
0000
,
0010
0000
0000
0001
0000
0000
0100
0000
0001
0000
0000
0000
0000
0000
0000
0000
,
1000
0000
0000
0000
0000
0000
0001
0000
0100
0000
0000
0010
0000
0000
0010
0000
,
1000
0000
0000
0100
0000
0000
0000
0000
1000
0000
0000
0000
0000
0000
0000
0000
,
0010
0000
0000
0000
0000
0000
0100
0000
0010
0000
0000
1000
0000
0000
0100
0000
,
0001
0000
0000
0010
0000
0000
0100
0000
0001
0000
0000
0001
0000
0000
0000
0000
,
1000
0000
0000
0001
0000
0000
0100
0000
0001
0000
0000
0100
0000
0000
0100
0000
,
0000
0100
0000
0000
0000
0000
0010
0000
0100
0000
0000
0000
0010
0000
0000
0000
,
1001
0000
0000
0000
0000
0000
0010
0000
0100
0000
0000
0100
0000
0000
0010
0000
,
0000
0001
0000
0100
0000
1000
0100
0000
,
1000
0000
0000
0010
0000
0001
0010
0100
,
0000
0000
1000
0000
0000
0000
0001
0000
0100
0000
0000
0100
0000
0000
0010
0000
,
0010
0100
1000
0000
1000
0010
0100
0000
,
0010
0000
0001
0000
0100
0000
0000
0000
0001
0000
1000
0000
0000
1000
0000
0000
,
0001
0000
0000
0010
0000
0000
0100
0000
0000
0100
0000
0000
1000
0000
0000
1000
,
0000
1000
0000
0000
0000
0000
0000
0000
,
0001
0000
0000
0001
0000
0000
0000
0000
1000
0000
0000
0000
0000
0000
0100
0000
,
0001
0000
0010
0000
0100
0000
0010
0000
1000
0000
0000
0100
0000
0000
0100
0000
,
0000
0000
1000
0000
0000
0100
0000
0000
0010
0000
0000
0001
0000
0000
0010
0000
,
0100
0000
0000
1000
0000
0000
1000
0000
0000
0000
1000
0000
0000
0000
0010
0000
,
0000
0000
1000
0000
0000
0100
0000
0000
0001
0000
0000
1000
0000
0000
0100
0000
,
0000
0000
0100
0000
0000
1000
0000
0000
1000
0000
0000
1000
0000
0000
0100
0000
,
0000
0000
0010
0000
0000
0001
0000
0000
0100
0000
0000
1000
0000
0000
0010
0000
,
0010
0000
0100
0010
0000
1000
0000
0001
,
0100
0000
0000
0100
0000
0000
0000
0000
0010
0000
0000
0000
0001
0000
0000
0001
,
0000
0000
0000
1000
0000
0000
1000
0000
0000
0000
0000
0010
0000
0000
0010
0000
,
0000
0000
0000
1000
0000
0000
1000
0000
0000
0000
0000
0001
0000
0000
0001
0000
,
0100
0000
0000
0010
0000
0000
0001
0000
0001
0000
0000
1000
0000
0000
0100
0000
,
0010
1000
0010
0000
0001
1000
0001
0000
,
0010
1000
0010
0000
0010
0100
1000
0000
,
1000
0010
0100
0000
0001
0100
0001
0000
,
1000
0100
0000
0000
0001
0000
1000
0000
,
0010
0001
0010
0000
0100
0000
0001
0000
,
1000
0000
0100
0000
0010
0000
0000
0000
0100
0000
0000
0100
0000
0000
0000
0000
,
0010
1000
0100
0000
0010
0001
0100
0000
,
0100
0000
0010
0000
0001
0000
0000
0000
1000
0000
0000
1000
0000
0000
1000
0000
,
0000
0100
0010
0000
0001
0000
0000
0001
,
0010
0000
0100
0000
0010
0000
0000
0000
1000
0000
0000
1000
0000
0000
0010
0000
,
0100
0001
0010
0000
1000
0100
1000
0001
,
0100
0001
0010
0000
0100
1100
0000
0100
,
0010
0100
1000
0000
0001
0010
0010
0100
,
1000
0000
0100
0000
0010
0000
0000
0000
1000
0000
0000
1000
0000
0000
1000
0000
,
0100
1000
0001
0000
0001
0001
0010
1000
,
0100
0000
0000
0100
0000
0000
0100
0000
1000
0000
0010
0000
0100
0000
0001
0000
,
0010
0100
1000
0000
0010
0100
0001
1000
,
0100
0010
0100
0000
0000
0010
0001
0100
,
0001
0010
0100
1000
0100
1000
0100
0010
,
0001
0000
0010
0000
0000
0100
0000
0000
1000
0000
0010
0000
1000
0000
0001
0000
,
1001
0000
0000
0000
;

//---------------techno-single8 - ----------------
#NOTES:
     techno-single8:
     :
     Challenge:
     5:
     0.324131,0.415275,0.228973,0.041632,0.000000,218.000000,196.000000,22.000000,4.000000,0.000000,0.000000,0.324131,0.415275,0.228973,0.041632,0.000000,218.000000,196.000000,22.000000,4.000000,0.000000,0.000000:
00000000
00000000
00000000
00000000
,
00000000
00000000
00000000
00000000
,
00000000
00000000
00000000
00000000
,
00000000
00000000
00000000
00000000
,
00000000
00000000
00000000
00000000
,
00001000
00001000
00001000
00011000
,
00000100
00000100
00100000
00100000
,
00010000
00010000
00010000
00011000
,
10000001
00000000
00000000
00000000
,
00000010
00000010
01000000
00000001
,
10000000
10000000
00001000
01000000
,
00000010
00000010
00100000
00000100
,
01000000
01000000
00000001
10000000
,
00000010
00000010
01000000
01000000
,
00001000
00001000
00010000
00010000
,
00000010
00001000
00010000
01000000
,
00000001
10000000
00000000
10000001
,
00000010
00000000
00000010
00000000
01000000
00010000
00000010
00000000
,
01000000
00000000
01000000
00000000
00000100
00001000
00000100
00000000
,
00100000
00000020
10000000
00010030
,
00000001
00000001
01000000
00001000
,
00000100
00001000
00100000
00001000
,
00000100
00100000
00100010
00010000
,
00001000
00000000
00001000
00000000
00000010
01000000
00000010
00000000
,
00010000
00000000
00000000
00000000
,
02000010
00000000
00000000
03010000
,
00100000
00000000
00010000
00000010
,
00010000
00000000
00000000
00000000
00000000
00000000
00000001
00010000
,
01000000
00000000
00000010
00001000
,
00010000
10010000
10000000
10001000
,
00001000
00010100
00000100
00001100
,
00010000
00000000
00010000
00000000
00010000
00000000
00010000
01000000
,
00000001
00000000
10000000
10000000
,
00002000
00000000
00000000
00000000
,
00000000
00000000
00000000
00003000
,
00020000
00000000
00000000
00000000
,
00000000
00000000
00000000
00030000
,
00000001
00010001
10000000
00010001
,
10000000
10010000
00000001
10010000
,
00000010
01010000
01000000
01000010
,
00010000
00010000
00011000
00000000
,
00000100
00001000
00000100
00000000
00000010
00000000
01000000
00000000
,
00000100
00001000
00000100
00000000
00010000
00000000
00001000
00000000
,
00100000
00001000
00100000
00000000
01000000
00000000
00000010
00000000
,
00100000
00001000
00100000
00000000
00010000
00000000
10000000
00000000
,
00000010
00000000
10000010
00000000
01000000
00010000
01000000
00000000
,
01000000
00000000
01000001
00000000
00000010
00010000
00000000
00010000
,
00001000
00000000
00011000
00000000
00100000
00000100
00000000
00000000
,
10000000
00001000
00010000
00000000
00010100
00000000
00000000
00000000
,
01000000
00010000
00000010
00000000
00010000
00000000
10000000
00000000
,
00000001
00010000
10000000
00010000
,
00000010
00010000
01000000
00000000
00010000
00000000
00000001
00000000
,
10000000
00010000
00000001
00010000
,
00000100
01000000
00010000
00000000
00000100
00000000
00010000
00000000
,
00100000
00000010
00010000
00000000
00100000
00000000
00010000
00000000
,
00001000
00000100
00000001
00010000
,
01000000
00000000
01000000
00000000
10000000
00000010
00010000
00000000
,
00011000
00000000
00000000
00000000
;
