#TITLE:Primadonna;
#SUBTITLE:;
#ARTIST:Marina and the Diamonds;
#TITLETRANSLIT:;
#SUBTITLETRANSLIT:;
#ARTISTTRANSLIT:;
#CREDIT:;
#BANNER:banner.png;
#BACKGROUND:background.png;
#LYRICSPATH:;
#CDTITLE:Cdtitle.png;
#MUSIC:Primadonna.mp3;
#OFFSET:-0.140;
#SAMPLESTART:109.840;
#SAMPLELENGTH:15.160;
#SELECTABLE:YES;
#BPMS:0.000=128.000;
#STOPS:234.000=0.560
;
#BGCHANGES:2.000=Primadonna.avi=1.000=1=0=0,
99999=-nosongbg-=1.000=0=0=0 // don't automatically add -songbackground-
;

//---------------dance-single - ----------------
#NOTES:
     dance-single:
     :
     Beginner:
     3:
     0.096,0.181,0.089,0.014,0.000:
0000
0000
0000
0000
,
0000
0000
0000
0000
,
0000
0000
0000
0000
,
0010
0000
0000
0000
,
0010
0000
0000
0000
,
0100
0000
0000
0000
,
0100
0000
0000
0000
,
1000
0000
0000
0000
,
1000
0000
0000
0000
,
0001
0000
0000
0000
,
0001
0000
0000
0000
,
0010
0000
0000
0000
,
0000
0000
0100
0000
,
0000
0000
0100
0000
,
1000
0000
0000
0000
,
1000
0000
0000
0000
,
0000
0000
0000
0000
,
1001
0000
0000
0000
,
0010
0000
0100
0000
,
0010
0000
0000
0000
,
0100
0000
0000
0000
,
1000
0000
0000
0000
,
0010
0000
0000
0000
,
0100
0000
0000
0000
,
0010
0000
0000
0000
,
0110
0000
0000
0000
,
0100
0000
0000
0000
,
0010
0000
0000
0000
,
0001
0000
0000
0000
,
1000
0000
0000
0000
,
0010
0000
0000
0000
,
0100
0000
0000
0000
,
0010
0000
0000
0000
,
1000
0000
0000
0000
,
1001
0000
0000
0000
,
1001
0000
0010
0000
,
0110
0000
0000
0000
,
0110
0000
0100
0000
,
0010
0000
0000
0000
,
1000
0000
0000
0000
,
0010
0000
0100
0000
,
0100
0000
0000
0000
,
0100
0000
0000
0000
,
0010
0000
0010
0000
,
0010
0000
0000
0000
,
1000
0000
0000
0000
,
1000
0000
0000
0000
,
1001
0000
0000
0000
,
1001
0000
0000
0000
,
0110
0000
0000
0000
,
0110
0000
0000
0000
,
0010
0000
0000
0000
,
0010
0000
0000
0000
,
1000
0000
0000
0000
,
0001
0000
0000
0000
,
0000
0000
0100
0000
,
0000
0000
0000
0000
,
0020
0000
0000
0000
,
0000
0000
0130
0000
,
0010
0000
0000
0100
,
0000
0000
0000
1000
,
1000
0000
0000
0100
,
0100
0000
0000
0001
,
0000
0000
0000
1001
,
0000
0000
0000
0010
,
0010
0010
0000
0100
,
0100
0100
0000
0100
,
0000
0000
0000
0100
,
0000
0000
0000
0010
,
0000
0000
0000
0010
,
0000
0000
0000
1001
,
0000
0000
0000
1001
,
0000
0000
0000
0100
,
0000
0010
0000
0000
,
0000
1000
0000
0020
,
0000
0000
0030
0000
;

//---------------dance-single - ----------------
#NOTES:
     dance-single:
     :
     Easy:
     5:
     0.243,0.259,0.048,0.220,0.000: // measure 1
0000
0000
0000
0000
,  // measure 2
0000
0000
0000
0000
,  // measure 3
0000
0000
0000
0000
,  // measure 4
0010
0010
0000
0000
,  // measure 5
0100
0100
0001
1000
,  // measure 6
0200
0000
0000
0000
,  // measure 7
0310
0000
0010
0100
,  // measure 8
0002
2003
3020
0000
,  // measure 9
0230
0000
0301
0100
,  // measure 10
0002
0000
1000
1003
,  // measure 11
0200
0000
0010
0310
,  // measure 12
2000
0000
0001
3001
,  // measure 13
0020
0000
0130
0010
,  // measure 14
1000
0001
0020
0000
,  // measure 15
1030
0000
0100
1000
,  // measure 16
0200
0000
0320
0000
,  // measure 17
0032
0003
1000
0001
,  // measure 18
1001
1000
0100
0010
,  // measure 19
0001
0100
0010
0001
,  // measure 20
0010
0000
0100
0000
,  // measure 21
0100
0010
0100
0001
,  // measure 22
1000
0000
0100
0000
,  // measure 23
0010
0001
0100
1000
,  // measure 24
0100
0000
0100
0000
,  // measure 25
0001
0001
1000
1000
,  // measure 26
1001
0000
0010
0000
,  // measure 27
0010
0001
1000
0100
,  // measure 28
0010
0000
0010
0000
,  // measure 29
0100
0001
0100
0001
,  // measure 30
1000
0000
1000
0000
,  // measure 31
0010
0100
0001
0100
,  // measure 32
1000
0010
0000
0000
,  // measure 33
1000
0100
0010
0001
,  // measure 34
2000
0000
3000
0000
,  // measure 35
1001
0000
0100
0100
,  // measure 36
0020
0030
0100
0000
,  // measure 37
0110
0000
1000
0000
,  // measure 38
0200
0300
0100
0000
,  // measure 39
0002
0000
0003
1000
,  // measure 40
0010
0000
0100
0001
,  // measure 41
0010
0000
0001
0100
,  // measure 42
0020
0000
0000
0030
,  // measure 43
0100
0000
0001
1000
,  // measure 44
0002
0000
0010
0000
,  // measure 45
0013
0000
0100
0010
,  // measure 46
2000
0000
0000
3000
,  // measure 47
1000
0000
0001
0100
,  // measure 48
0002
0013
0020
0130
,  // measure 49
0200
1300
0000
0001
,  // measure 50
1000
2000
0100
3100
,  // measure 51
0020
0000
0100
0130
,  // measure 52
0001
0001
0010
0100
,  // measure 53
2000
0000
3100
0001
,  // measure 54
0100
0010
1000
0010
,  // measure 55
0200
0000
0001
0301
,  // measure 56
0001
0000
0100
0000
,  // measure 57
0010
0000
1000
0000
,  // measure 58
0002
1000
1000
1000
,  // measure 59
1000
1000
1003
0000
,  // measure 60
1001
0000
0000
0100
,  // measure 61
0000
0001
0100
0010
,  // measure 62
0010
0001
1000
1000
,  // measure 63
1000
0010
0100
0002
,  // measure 64
0000
0000
0000
1003
,  // measure 65
0000
0001
1000
0010
,  // measure 66
0010
0010
1000
0100
,  // measure 67
0100
0100
0000
1000
,  // measure 68
0010
0001
0100
2000
,  // measure 69
0000
0001
3001
0100
,  // measure 70
0001
0100
0010
0200
,  // measure 71
0000
0010
0310
0110
,  // measure 72
0000
0100
0000
1001
,  // measure 73
0000
0001
0100
0001
,  // measure 74
1000
0010
0100
0001
,  // measure 75
0000
1000
0001
0200
,  // measure 76
0000
0000
0300
0000
;

//---------------dance-single - ----------------
#NOTES:
     dance-single:
     :
     Medium:
     6:
     0.321,0.363,0.172,0.261,0.000:
0000
0000
0000
0000
,
0000
0000
0000
0000
,
0000
0000
0000
0000
,
1000
0000
0001
0000
0010
0000
0100
0100
,
0000
0000
0001
1000
,
0200
0000
0300
1000
,
0020
0000
0000
0000
0130
0100
0100
0000
,
0010
0010
1000
0100
,
0100
0000
0001
0100
,
0020
0000
0000
0030
,
0200
0000
0000
0300
,
2000
0000
0000
3000
,
0020
0000
0000
0000
0130
0100
0010
0000
,
2000
3000
0020
0000
,
1030
0000
0100
1000
,
2000
0000
3020
0000
,
0230
0000
0300
0000
1000
0000
0001
1000
,
1001
0000
0010
0000
1000
0000
0010
0010
,
0001
1000
0010
0100
,
0001
0000
0000
0000
0100
0000
0010
0010
,
1000
0000
0010
0000
0100
0001
0001
0000
,
1000
0000
0100
0000
,
0010
0000
0001
1000
1000
0000
0100
0000
,
0010
0000
0010
0000
,
0001
0001
0020
0130
,
0110
0000
0000
0000
1001
0000
1000
0001
,
0001
0001
1000
0100
,
0010
0000
0000
0000
0010
0000
0100
0010
,
0010
0001
1000
0100
,
1000
0000
0000
0000
1000
0000
0001
0001
,
0010
0100
0001
0100
,
0001
0010
0100
0100
,
1000
0001
1000
0000
0012
0000
1003
0000
,
0200
0000
0300
0000
0010
0000
0000
0001
,
0010
1000
1000
1000
,
0020
0000
0030
0000
2000
0000
3000
0100
,
0001
0010
0010
0010
,
0200
0000
0300
0000
0010
0000
0000
0100
,
0010
1000
1000
1000
,
0010
0001
0100
0000
1000
0100
0010
0000
,
0010
0000
0011
1100
,
1002
0000
0000
0000
,
0103
0000
0000
0000
0001
0000
0100
0100
,
0000
1000
0000
0001
0000
0010
0000
0100
,
0020
0000
0100
1030
,
0002
0000
0000
0000
0000
0000
1000
1003
,
0000
0000
0001
0100
,
0010
0010
0100
0100
,
0220
0330
0010
1000
,
0100
0000
0000
0100
1000
0000
1000
0100
,
0000
0000
0010
0010
,
0100
0001
0000
0001
0100
0000
0100
0000
,
0202
0303
0001
0010
,
0100
0000
0100
0010
0000
0010
0100
0000
,
2020
3030
0010
0010
,
0010
0000
0100
0001
0000
0001
0100
0000
,
0010
0001
1000
0001
,
1001
0110
1001
0110
,
1001
0110
1001
0012
,
0000
0000
0000
1003
,
0000
0000
1000
0100
0010
0010
0100
0000
,
0110
0001
1001
1000
,
0010
0000
0100
0001
0100
0000
0102
0000
,
0000
0000
0000
0000
0100
0103
0000
0000
,
0100
0000
0001
1000
0010
0010
0110
0000
,
0100
1100
1000
1010
,
0100
0000
0100
0001
0100
0001
1000
0000
,
0100
0020
0000
0000
0130
2000
0000
0000
,
3000
0000
0001
1000
0001
0100
2000
0000
,
3001
0200
0000
0000
0301
2000
0000
0000
,
3000
0000
0010
0100
1000
0000
0020
0000
,
0030
0001
0200
0000
0300
0001
2000
0000
,
0000
3000
0001
0000
0100
0000
0001
0000
,
1000
0100
0000
0001
0010
0000
0001
0000
,
0100
0000
0010
0010
0100
0100
0220
0000
,
0000
0000
0330
0000
;

//---------------dance-single - ----------------
#NOTES:
     dance-single:
     :
     Hard:
     8:
     0.439,0.415,0.130,0.329,0.010:
0000
0000
0000
0000
,
0000
0000
0000
0000
,
0000
0000
0000
0000
,
0100
0000
0001
0000
0010
1000
0010
0000
,
0200
0000
0300
0000
0001
0100
0100
0010
,
2000
0000
0000
0000
3000
0000
0001
0020
,
0000
0000
0000
0000
1030
0100
1000
0010
,
0001
0000
0001
0000
0100
0000
1000
0100
,
1000
0000
0000
0000
0001
1000
0100
1000
,
0020
0000
0100
2030
0000
0000
0010
3200
,
0000
0000
0000
0000
0301
0010
0100
1000
,
2000
0000
0100
3002
0000
0000
0010
0203
,
0000
0000
0000
0300
0001
1000
0001
1000
,
0002
0000
0010
0203
0000
0000
1000
2300
,
0000
0000
0000
3000
0100
0010
0001
0010
,
0002
0000
0000
0100
0023
0000
1030
1000
,
0200
0000
0300
0000
0001
0010
0100
0010
,
0110
0000
0010
1000
0010
0000
1000
0100
,
0010
0000
1000
0001
1001
0000
0100
0000
,
0001
0000
0001
0100
0001
0000
0001
0010
,
0100
0000
0010
1000
1010
0000
0001
0100
,
0010
0000
1000
0010
1000
0000
0100
0010
,
0001
0000
0001
0100
0101
0000
0100
0000
,
0010
1000
0001
1000
0001
0000
0100
0000
,
0011
0101
1100
1010
,
1001
0000
0100
0010
0100
0000
0001
0010
,
0100
0000
0100
0001
0101
0000
0010
0000
,
0100
0000
0001
0100
0001
0000
0001
1000
,
0100
0000
0001
0010
0011
0000
0100
0010
,
1000
0000
1000
0010
1000
0000
0010
0001
,
1000
0000
0100
0001
0100
0000
1000
0100
,
0001
0100
0010
0001
1000
0000
0001
0010
,
1000
0010
0100
1000
0001
1000
0010
0000
,
0200
0000
0000
0000
0310
0000
0000
0000
2000
0000
0000
0000
3000
0000
0001
0010
,
0001
0000
1000
0100
1000
0100
0010
0001
,
0022
0000
0000
0000
0000
0000
0033
0000
0200
0000
0000
0000
0300
0000
0001
0100
,
0001
0000
0001
0010
0001
0010
0100
1000
,
2200
0000
0000
0000
3300
0000
0000
0000
0002
0000
0000
0000
0003
0000
0010
0100
,
0010
0000
0100
0010
0100
0010
0001
1000
,
0100
0001
0100
0100
1000
0010
0010
0000
,
0001
0100
0001
0100
0010
1000
1000
0001
,
0102
0000
0000
0000
,
0103
0000
0000
0000
0001
1000
0001
0010
,
0010
0000
1000
0000
0001
0000
0100
0002
,
0000
0000
0000
0003
0100
0001
0100
1000
,
0020
0000
0000
0030
0000
0000
1000
1000
,
0000
0000
1000
0000
0010
0100
1000
1000
,
0001
0000
0010
0000
0010
0000
0100
1000
,
0200
0000
0300
0000
0010
0001
0010
0001
,
0100
0010
0000
0010
0100
0000
0001
0100
,
0001
0000
0001
0000
0001
0010
0100
0001
,
0100
0001
0010
0100
0000
0100
0001
0000
,
0002
0000
0003
0000
1000
0010
1000
0001
,
0100
0010
0000
0010
0100
0000
0010
2000
,
0000
0000
3000
0000
0001
0100
0010
0001
,
0100
0010
0000
1000
0001
0000
0010
1000
,
0010
0010
0100
0010
,
1000
1000
0001
0001
1000
1000
0100
0100
,
0010
0010
0100
0100
0110
0000
2001
0000
,
0000
0000
3001
0000
0000
0001
0010
0100
,
1000
0000
0001
0100
0010
0100
0020
0000
,
0230
0000
0301
0010
2000
0000
3002
0000
,
0013
0000
1000
0010
0100
0001
0100
0000
,
0101
0000
0001
0000
0011
0001
0100
0000
,
1000
0000
0010
0100
0001
1000
2000
0000
,
3200
0000
0301
0010
0020
0000
0032
0000
,
0103
0000
0001
0010
0001
1000
0001
0100
,
0001
0020
0000
0000
1030
0200
0000
0000
,
0310
0000
0010
0100
0010
1000
0020
0000
,
0031
0200
0000
0000
0310
2000
0000
0000
,
3001
0000
0001
0100
0001
0010
0200
0000
,
0301
0020
0000
0000
1030
0002
0000
0000
,
0000
0003
0010
0100
0100
0001
0100
0000
,
0001
0100
0000
0001
0010
0001
1000
0000
,
0100
0000
1000
0100
0010
0001
0022
0000
,
0000
0000
0033
0000
;
