#VERSION:0.83;
#TITLE:One Sided Love;
#SUBTITLE:;
#ARTIST:D-Crew with Melissa Petty;
#TITLETRANSLIT:;
#SUBTITLETRANSLIT:;
#ARTISTTRANSLIT:;
#GENRE:;
#ORIGIN:;
#CREDIT:;
#BANNER:banner.png;
#BACKGROUND:background.png;
#PREVIEWVID:;
#JACKET:cdjacket.png;
#CDIMAGE:;
#DISCIMAGE:;
#LYRICSPATH:;
#CDTITLE:Cdtitle.png;
#MUSIC:One Sided Love.mp3;
#OFFSET:1.668000;
#SAMPLESTART:70.279999;
#SAMPLELENGTH:14.920000;
#SELECTABLE:YES;
#BPMS:0.000=140.000;
#STOPS:;
#DELAYS:;
#WARPS:;
#TIMESIGNATURES:0.000=4=4;
#TICKCOUNTS:0.000=4;
#COMBOS:0.000=1;
#SPEEDS:0.000=1.000=0.000=0;
#SCROLLS:0.000=1.000;
#FAKES:;
#LABELS:0.000=Song Start;
#BGCHANGES:;
#KEYSOUNDS:;
#ATTACKS:
;

//---------------dance-single - ----------------
#NOTEDATA:;
#CHARTNAME:;
#STEPSTYPE:dance-single;
#DESCRIPTION:;
#CHARTSTYLE:;
#DIFFICULTY:Medium;
#METER:7;
#RADARVALUES:0.350571,0.402501,0.139093,0.129158,0.000000,247.000000,233.000000,14.000000,13.000000,0.000000,0.000000,0.000000,0.000000,0.000000,0.350571,0.402501,0.139093,0.129158,0.000000,247.000000,233.000000,14.000000,13.000000,0.000000,0.000000,0.000000,0.000000,0.000000;
#CREDIT:;
#NOTES:
0000
0000
0000
0000
,
0000
0000
0000
0000
,
0000
0000
0000
0000
,
0000
0000
0000
0000
,
0000
0000
0000
0000
,
0000
0000
0000
0000
,
0000
0001
0000
0001
,
0000
1000
0000
1000
,
0000
0010
0000
0100
,
0000
0010
0001
0001
,
1000
0000
0100
0000
1000
0000
0100
1000
,
0010
0100
0001
0000
0010
0001
0010
0000
,
1000
0001
1000
0010
,
0010
0100
0001
0000
0010
0100
0001
0000
,
0100
0000
0001
0000
0100
0000
0001
0100
,
0010
1000
0010
0000
0100
1000
0010
0000
,
0001
0100
0010
1000
,
0010
0100
0001
0000
0010
0001
0100
0000
,
0001
0000
0010
0000
0001
0000
0100
1000
,
0010
1000
0100
0000
0001
0100
0010
0000
,
0100
1000
0001
0100
,
0001
1001
1000
1010
,
0010
0000
0010
0000
0100
0000
0001
0100
,
1000
0100
0001
0000
1000
0001
0100
0000
,
0100
0000
0001
0000
0100
0001
0010
0000
,
0001
0010
0100
1000
,
0000
0001
0000
0011
,
0010
0010
0000
1001
,
1000
0001
0000
1100
,
1000
0100
0000
1010
,
0010
1000
0000
0101
,
0100
0001
0000
0110
,
0010
0100
1000
0000
,
0010
0000
0100
0000
,
1000
0010
0100
0001
0100
0000
0010
0000
,
0001
0100
0010
1000
0100
0000
0010
0000
,
0100
0001
1000
0010
0001
0000
0001
0000
,
1000
0100
0010
0001
,
0010
0001
0010
0001
0010
0000
0100
0000
,
1000
0001
1000
0001
1000
0000
0001
0000
,
0001
0010
0100
1000
1000
0000
1000
0000
,
0001
0100
0010
1000
0001
0000
0000
0000
,
2000
3100
0001
0101
,
0002
0103
0010
0110
,
0020
1030
0100
0010
,
0002
2003
3020
0230
,
0301
0101
0100
1100
,
0001
0100
0010
0110
,
0002
0010
1000
0013
,
0010
1001
0100
0010
,
0002
0000
0103
0000
0010
1000
0010
1000
,
0200
0000
0310
0000
0010
0001
0010
0000
,
2000
0000
3002
0000
1003
0100
1000
0010
,
0100
0000
0100
0000
0010
0100
0010
0000
,
0002
0100
0010
1003
,
1000
0000
0010
0000
0100
0000
0001
0010
,
0100
0000
0100
0001
0100
0000
0010
0100
,
1000
0010
0100
0001
0010
0000
0001
0100
;

//---------------dance-single - ----------------
#NOTEDATA:;
#CHARTNAME:;
#STEPSTYPE:dance-single;
#DESCRIPTION:;
#CHARTSTYLE:;
#DIFFICULTY:Hard;
#METER:9;
#RADARVALUES:0.469794,0.517501,0.317927,0.099352,0.024838,331.000000,299.000000,32.000000,10.000000,0.000000,0.000000,0.000000,0.000000,0.000000,0.469794,0.517501,0.317927,0.099352,0.024838,331.000000,299.000000,32.000000,10.000000,0.000000,0.000000,0.000000,0.000000,0.000000;
#CREDIT:;
#NOTES:
0000
0000
0000
0000
,
0000
0000
0000
0000
,
0000
0000
0000
0000
,
0000
0000
0000
0000
,
0000
0000
0000
0000
,
0000
0000
0000
0000
,
0000
0010
0000
0010
,
0000
1000
0000
1000
,
0000
0100
0000
0100
,
0000
0000
0010
0000
0010
1000
0001
0010
,
0001
1000
0001
1000
0001
0100
0001
0100
,
0010
1000
0010
1000
0100
1000
1100
0000
,
0100
0001
0100
0001
1000
0001
1000
0010
,
0001
0100
1000
0000
0001
0010
0100
0000
,
1000
0100
1000
0100
1000
0010
1000
0010
,
0001
0010
0001
0010
0001
0100
0101
0000
,
0001
1000
0001
1000
0001
0010
0001
0010
,
0001
1000
1001
0000
0001
0100
0101
0000
,
1000
0100
1000
0100
1000
0100
0010
0001
,
0100
0001
0100
0001
0100
0010
0110
0000
,
0102
0013
2001
3100
,
0120
1030
0201
0301
,
0100
0001
0010
1000
0010
1000
0100
0010
,
0001
0010
0100
0010
1000
0010
0100
0010
,
0100
0010
0100
0000
0001
0100
0010
1000
,
1000
0000
0001
0100
0010
0000
0100
0001
,
1000
0000
0000
0000
0100
0000
0000
0000
0000
0000
0000
0000
0001
0100
0000
0000
,
0100
0000
0000
0000
0101
0000
0000
0000
0000
0000
0000
0000
1000
0100
0000
0000
,
0100
0000
0000
0000
1100
0000
0000
0000
0000
0000
0000
0000
0001
0010
0000
0000
,
0010
0011
0010
1000
,
0200
0000
0000
0000
0000
0000
0000
0000
0301
0000
0000
0000
0010
0100
0000
0000
,
0100
0000
0000
0000
0110
0000
0000
0000
0000
0000
0000
0000
0010
0100
0000
0000
,
0100
0110
0200
0001
,
0000
1300
0010
0000
,
1000
0100
1000
0100
0010
0001
0100
0000
,
0001
0010
0001
0010
0001
0100
0010
0000
,
1000
0001
1000
0001
0100
0001
0100
0000
,
0002
0023
0230
2300
,
3100
0001
0010
1000
0010
1000
0100
0000
,
0100
0010
0100
1000
0100
0010
0100
0000
,
1000
0010
0100
0001
1000
0010
0100
0001
,
1000
0100
0010
0001
1000
0100
0010
0000
,
0001
0110
0101
1100
,
1000
1001
1010
0011
,
0100
0110
0010
1010
,
1000
0100
0010
0001
0100
0001
0100
0010
,
1000
0100
1100
0101
,
1001
0110
0011
1010
,
0010
0110
0100
0110
,
0010
0000
1001
0000
0001
0100
0010
0000
,
0010
0100
1000
0100
0001
1000
0001
1000
,
0010
0001
0010
0100
1000
0001
0010
0000
,
0001
0100
0010
1000
0001
0100
0001
0001
,
0010
0000
0010
0100
0010
0001
0010
0000
,
0100
0100
0010
0110
,
1000
0010
0100
0001
0100
0100
0001
0010
,
0010
0100
0010
1000
0100
0001
0010
0001
,
1000
1000
0001
0001
0010
0100
1000
0010
;

//---------------dance-single - ----------------
#NOTEDATA:;
#CHARTNAME:;
#STEPSTYPE:dance-single;
#DESCRIPTION:;
#CHARTSTYLE:;
#DIFFICULTY:Beginner;
#METER:3;
#RADARVALUES:0.163222,0.228510,0.059611,0.049676,0.000000,115.000000,109.000000,6.000000,5.000000,0.000000,0.000000,0.000000,0.000000,0.000000,0.163222,0.228510,0.059611,0.049676,0.000000,115.000000,109.000000,6.000000,5.000000,0.000000,0.000000,0.000000,0.000000,0.000000;
#CREDIT:;
#NOTES:
// measure 0
0000
0000
0000
0000
,  // measure 1
0000
0000
0000
0000
,  // measure 2
0000
0000
0000
0000
,  // measure 3
0000
0000
0000
0000
,  // measure 4
0000
0000
0000
0000
,  // measure 5
0000
0000
0000
0000
,  // measure 6
0000
0000
0100
0000
,  // measure 7
0100
0000
1000
0000
,  // measure 8
1000
0000
0001
0000
,  // measure 9
0001
0000
0001
0001
,  // measure 10
0010
0000
0010
0000
,  // measure 11
0010
0000
1000
1000
,  // measure 12
0100
0000
0100
0000
,  // measure 13
0100
0000
0010
0010
,  // measure 14
0001
0000
0001
0000
,  // measure 15
0001
0000
0010
0010
,  // measure 16
1000
0000
1000
0000
,  // measure 17
1000
0000
0001
0001
,  // measure 18
0100
0000
0100
0000
,  // measure 19
0100
0000
1000
1000
,  // measure 20
0010
0000
0010
0000
,  // measure 21
0010
0000
0100
0100
,  // measure 22
0001
0000
1000
0000
,  // measure 23
0001
0000
1000
0000
,  // measure 24
0010
0000
0010
0000
,  // measure 25
0010
0000
0001
0001
,  // measure 26
0100
0000
0000
0000
,  // measure 27
0001
0000
0000
0000
,  // measure 28
0010
0000
0000
0000
,  // measure 29
0100
0000
0000
0000
,  // measure 30
1000
0000
1000
0000
,  // measure 31
0001
0000
0000
0000
,  // measure 32
0010
0000
0100
0000
,  // measure 33
0100
0000
0000
0000
,  // measure 34
2000
0000
3000
0000
,  // measure 35
0002
0000
0003
0000
,  // measure 36
2000
0000
3000
0000
,  // measure 37
0100
0000
0100
0000
,  // measure 38
0010
0000
0010
0000
,  // measure 39
0001
0000
0010
0000
,  // measure 40
0200
0000
0000
0000
,  // measure 41
0302
0000
0000
0003
,  // measure 42
0001
1001
0000
0100
,  // measure 43
1001
0000
0010
0000
,  // measure 44
0100
0100
0010
0010
,  // measure 45
0100
0000
0100
0000
,  // measure 46
1001
0000
0100
0000
,  // measure 47
1001
0000
0010
0000
,  // measure 48
0110
0000
0100
0000
,  // measure 49
0110
0000
0000
0000
,  // measure 50
0010
0010
0010
0000
,  // measure 51
0100
0100
0100
0000
,  // measure 52
0010
0010
0010
0000
,  // measure 53
0100
0100
0100
0000
,  // measure 54
0010
0001
0010
0000
,  // measure 55
0100
1000
0100
0000
,  // measure 56
1000
0000
0001
0000
,  // measure 57
1000
0001
1000
0000
;

//---------------dance-single - ----------------
#NOTEDATA:;
#CHARTNAME:;
#STEPSTYPE:dance-single;
#DESCRIPTION:;
#CHARTSTYLE:;
#DIFFICULTY:Easy;
#METER:5;
#RADARVALUES:0.217156,0.258192,0.049676,0.000000,0.000000,153.000000,148.000000,5.000000,0.000000,0.000000,0.000000,0.000000,0.000000,0.000000,0.217156,0.258192,0.049676,0.000000,0.000000,153.000000,148.000000,5.000000,0.000000,0.000000,0.000000,0.000000,0.000000,0.000000;
#CREDIT:;
#NOTES:
0000
0000
0000
0000
,
0000
0000
0000
0000
,
0000
0000
0000
0000
,
0000
0000
0000
0000
,
0000
0000
0000
0000
,
0000
0000
0000
0000
,
0000
0100
0000
0010
,
0000
0010
0000
0001
,
0000
0001
0000
1000
,
0000
1000
0000
1000
,
0000
0001
1000
0001
,
0000
0100
0001
0010
,
0000
0001
0100
0001
,
0000
0100
0010
0100
,
0100
0010
0010
0010
,
0010
0100
0100
0010
,
0010
0001
0010
0001
,
0000
1000
0010
1000
,
1001
0010
0100
1000
,
0100
0000
0100
0000
,
0001
0001
0001
1000
,
0000
0010
0010
0010
,
0000
0010
0000
1000
,
1000
0001
0000
0010
,
0010
0001
0100
0001
,
1000
0100
0010
0001
,
0010
0000
0000
0100
,
0000
0000
0000
0010
,
0000
0000
0000
0100
,
0000
0000
0000
1000
,
0000
0000
0000
0001
,
0000
0000
0000
0001
,
0000
0000
0010
0000
,
0010
0000
0000
0100
,
0001
1000
0001
1000
,
0010
0100
0010
0100
,
1000
0100
1000
0100
,
1000
0001
0100
0001
,
0100
0001
0100
0001
,
0100
0100
0001
0010
,
1000
0000
0000
0000
,
1000
0000
0000
0000
,
0000
0110
0000
0100
,
1000
1001
0010
0000
,
0010
0000
0100
0000
,
0100
1000
0100
1000
,
1100
1000
0000
0001
,
0000
1000
0000
0001
,
1000
0001
1000
0001
,
1001
0000
0010
0000
,
0010
0000
0010
0000
,
0100
0010
0001
1000
,
0001
0001
1000
0100
,
0001
0010
0001
0010
,
0100
1000
0100
0001
,
1000
1000
0100
0010
,
0000
0001
1000
0001
,
1000
0001
1000
0001
;

//---------------dance-single - ----------------
#NOTEDATA:;
#CHARTNAME:;
#STEPSTYPE:dance-single;
#DESCRIPTION:;
#CHARTSTYLE:;
#DIFFICULTY:Challenge;
#METER:11;
#RADARVALUES:0.448504,0.603751,0.298057,0.278186,0.114255,316.000000,286.000000,30.000000,28.000000,0.000000,0.000000,0.000000,0.000000,0.000000,0.448504,0.603751,0.298057,0.278186,0.114255,316.000000,286.000000,30.000000,28.000000,0.000000,0.000000,0.000000,0.000000,0.000000;
#CREDIT:;
#NOTES:
0000
0000
0000
0000
,
0000
0000
0000
0000
,
0000
0000
0000
0000
,
0000
0000
0000
0000
,
0000
0000
0000
0000
,
0000
0000
0000
0000
,
0200
0000
0020
0300
,
2000
0030
0002
3000
,
0200
0003
0020
0000
,
0330
0000
1000
0000
1000
0000
1000
0010
,
1000
0100
0001
0000
0001
0010
0001
0100
,
0101
0000
0010
1000
0100
1000
0100
0000
,
0010
0000
0010
0000
0010
1000
0100
0001
,
0101
0001
1001
0000
0011
0001
0101
0000
,
0100
0000
0100
0000
0100
0000
0100
0010
,
0001
0010
0001
0000
0001
0100
0010
0000
,
0010
0000
0010
0000
0001
0010
1000
0010
,
1010
1000
1100
0000
0110
0100
0101
0000
,
0010
0000
0010
0000
0010
0100
0010
0001
,
0100
0010
0001
0000
0001
0000
0001
0100
,
1000
1000
1000
1000
,
0100
0010
1000
0000
0100
0010
0001
0000
,
1000
0000
1000
0000
1000
0000
1000
0100
,
0010
0001
0100
0010
0001
0100
0001
0010
,
0100
0000
0100
0000
0100
0100
0010
0001
,
0001
0000
0010
0100
0010
0000
1000
0010
,
0200
0000
0000
0302
,
0023
0000
0230
0000
,
2300
0000
0000
3020
,
0230
0302
0203
0320
,
2030
0000
3002
0023
,
0230
0000
2300
3002
,
0023
0000
0230
0000
,
0002
0000
0303
0000
,
0001
0010
1000
0100
1100
1000
1010
0000
,
0001
0100
0010
0100
0101
0100
0110
0000
,
0001
0001
0100
0010
0110
0100
1100
0000
,
0001
0100
0001
0010
0100
1000
1100
1000
,
1001
0001
0001
0100
0010
1000
1100
0100
,
0101
0001
0010
0100
0010
0001
0010
0100
,
0110
0010
0100
0000
1000
0010
0100
0000
,
1000
0100
0010
0001
1000
0100
1001
0000
,
1100
0000
0000
0000
0110
0000
0000
0000
0001
0100
0000
0000
0100
1000
0000
0000
,
1000
0100
0000
0000
0100
0010
0000
0000
0010
0001
0000
0000
0001
0010
0000
0000
,
2000
0100
0001
3010
,
0200
0010
1000
0301
,
1000
0100
0000
0000
1000
0000
0000
0000
1100
0000
0000
0000
1001
0000
0000
0000
,
0001
0010
0000
0000
0100
0010
0000
0000
0010
0100
0000
0000
1000
0001
0000
0000
,
0002
0010
1000
0103
,
0010
0100
0000
0000
1000
0001
0000
0000
0001
1000
0000
0000
0010
0000
0000
0000
,
1100
0000
1000
0000
0100
0000
0000
0000
0001
0010
0000
0000
1000
0100
0000
0000
,
0010
0001
0000
0001
0010
0000
1000
0000
0100
0000
0001
0000
0010
0000
0000
0000
,
0101
0100
0110
0000
1100
1000
1001
0000
,
0010
0100
0000
0000
0010
0100
0000
0000
0010
0001
0000
0000
0010
0001
0000
0000
,
1000
1000
0010
0100
,
1000
0100
0010
0001
0100
0010
0001
0010
,
0010
1000
1000
0001
0100
0010
1000
0001
,
0010
0000
0100
0000
1000
0000
0001
0000
0010
0000
0100
0000
1000
0100
0001
0000
;
