#TITLE:On the Night of a Still Wind;
#SUBTITLE:;
#ARTIST:Jena Rose;
#TITLETRANSLIT:;
#SUBTITLETRANSLIT:;
#ARTISTTRANSLIT:;
#GENRE:;
#CREDIT:;
#BANNER:banner.png;
#BACKGROUND:background.png;
#LYRICSPATH:;
#CDTITLE:Cdtitle.png;
#MUSIC:On the Night of a Still Wind.mp3;
#OFFSET:1.508000;
#SAMPLESTART:80.484001;
#SAMPLELENGTH:15.000000;
#LASTBEATHINT:1.323591;
#SELECTABLE:YES;
#BPMS:0.000000=155.000000
;
#STOPS:
;
#BGCHANGES:;
#KEYSOUNDS:;
#ATTACKS:;

//---------------dance-single - ----------------
#NOTES:
     dance-single:
     :
     Beginner:
     4:
     0.176231,0.213392,0.018979,0.000000,0.000000,130.000000,128.000000,2.000000,0.000000,0.000000,0.000000,0.176231,0.213392,0.018979,0.000000,0.000000,130.000000,128.000000,2.000000,0.000000,0.000000,0.000000:
// measure 0
0000
0000
0000
0000
,  // measure 1
0000
0000
0000
0000
,  // measure 2
0000
0000
0000
0000
,  // measure 3
0000
0000
0000
0000
,  // measure 4
0000
0000
0000
0000
,  // measure 5
0100
0000
0100
0000
,  // measure 6
0100
0000
1000
0000
,  // measure 7
0010
0000
0010
0000
,  // measure 8
0010
0000
0000
0000
,  // measure 9
0010
0000
1000
0000
,  // measure 10
0010
0000
0001
0000
,  // measure 11
0100
0000
0001
0000
,  // measure 12
0100
0000
0010
0000
,  // measure 13
0010
0000
0000
0000
,  // measure 14
0001
0000
0000
0000
,  // measure 15
0100
0000
0000
0000
,  // measure 16
0001
0000
0000
0000
,  // measure 17
0010
0000
0000
0000
,  // measure 18
0100
0000
0000
0000
,  // measure 19
0010
0000
0000
0000
,  // measure 20
0001
0000
0000
0000
,  // measure 21
1000
0000
1000
0000
,  // measure 22
0001
0000
0001
0000
,  // measure 23
0100
0100
0100
0000
,  // measure 24
0001
0001
0001
0000
,  // measure 25
1000
0000
1000
0000
,  // measure 26
0100
0000
0100
0000
,  // measure 27
0010
0000
0010
0000
,  // measure 28
0001
0000
0001
0000
,  // measure 29
0100
0000
0100
0000
,  // measure 30
0010
0000
0010
0000
,  // measure 31
1000
0000
1000
0000
,  // measure 32
0100
0000
0100
0000
,  // measure 33
0001
0000
0001
0000
,  // measure 34
0100
0100
0000
0000
,  // measure 35
0001
0000
0001
0000
,  // measure 36
0100
0100
0000
0000
,  // measure 37
1000
0000
1000
0000
,  // measure 38
0001
0000
0001
0000
,  // measure 39
0100
0000
0100
0000
,  // measure 40
0010
0000
1000
0000
,  // measure 41
0010
0001
0010
0000
,  // measure 42
0010
1000
0010
0000
,  // measure 43
0010
0100
0010
0000
,  // measure 44
0001
1000
0001
0000
,  // measure 45
0010
0000
0010
0000
,  // measure 46
0100
0000
0100
0000
,  // measure 47
0001
0000
0001
0000
,  // measure 48
0101
0000
1000
0000
,  // measure 49
1000
0000
1000
0000
,  // measure 50
0100
0000
0100
0000
,  // measure 51
0010
0000
0010
0000
,  // measure 52
1001
0000
0010
0000
,  // measure 53
1000
1000
1000
0000
,  // measure 54
0010
0010
0010
0000
,  // measure 55
0001
0001
0001
0000
,  // measure 56
0100
0100
0100
0000
,  // measure 57
0010
0010
1000
0000
,  // measure 58
0001
0001
1000
0000
,  // measure 59
0010
0010
0100
0000
,  // measure 60
0010
0010
0001
0000
,  // measure 61
0001
0001
0100
0000
,  // measure 62
1000
1000
0010
0000
,  // measure 63
0001
0001
0100
0000
,  // measure 64
0100
0100
0000
0000
;

//---------------dance-single - ----------------
#NOTES:
     dance-single:
     :
     Easy:
     6:
     0.234523,0.276497,0.009489,0.000000,0.000000,173.000000,172.000000,1.000000,0.000000,0.000000,0.000000,0.234523,0.276497,0.009489,0.000000,0.000000,173.000000,172.000000,1.000000,0.000000,0.000000,0.000000:
0000
0000
0000
0000
,
0000
0000
0000
0000
,
0000
0000
0000
0000
,
0000
0000
0000
0000
,
0000
0000
0000
0000
,
0100
0000
0100
0000
,
0001
0000
0010
0000
,
0100
0000
0100
0000
,
0010
0000
1000
0000
,
0100
0000
0100
0000
,
0010
0000
0001
0000
,
1000
0000
1000
0000
,
0001
0000
0100
0000
,
0100
1000
0001
0000
,
0010
0010
0010
0000
,
0001
0100
0010
0000
,
0001
0001
0001
0000
,
0010
0001
1000
0000
,
1000
1000
1000
0000
,
1000
0010
0100
0000
,
0100
0100
0100
0000
,
0100
0000
0000
1000
0000
0000
0000
0001
,
0000
0010
0000
0000
0001
0000
0000
0000
,
0100
0000
0000
1000
0000
0000
0000
0001
,
0000
0010
0000
0010
0000
0000
0000
0000
,
0001
0010
0001
1000
,
0100
0000
0000
0001
0000
0000
1000
0000
,
0001
0100
1000
0000
,
0010
0001
0010
0000
,
1000
0000
0000
0100
0000
0000
0010
0000
,
0001
0000
0000
0001
0000
0000
0000
0000
,
0001
0000
0000
0010
0000
0000
0100
0000
,
1000
0000
1000
0000
,
1000
0000
0000
0010
0000
0000
0100
0000
,
0001
0000
0000
0001
0000
0000
0000
0000
,
0001
0000
0000
0100
0000
0000
0010
0000
,
1000
0000
1000
0000
,
0010
0010
0010
0010
,
1000
0100
0100
0100
,
0100
0001
1000
1000
,
1000
1000
0010
0100
,
0001
1000
0001
0000
,
1000
0001
1000
0000
,
0010
0100
0010
0000
,
0100
0010
0100
0000
,
1000
1000
1000
0000
,
0010
0010
0010
0000
,
0100
0100
0100
0000
,
1000
1000
1000
0000
,
0001
0001
0001
0000
,
0100
0100
0100
0000
,
0001
0001
0001
0000
,
0010
0010
0010
0000
,
1000
0100
0010
0000
,
0001
0010
0100
0000
,
0100
0010
0001
0000
,
0001
1000
0100
0000
,
0001
0100
0010
0000
,
1000
0010
0100
0000
,
0010
1000
0100
0000
,
0100
0010
1000
0000
,
0010
0001
0010
0000
,
0100
0010
0100
0000
,
0001
0010
0001
0000
,
0010
0100
0001
0101
;

//---------------dance-single - ----------------
#NOTES:
     dance-single:
     :
     Medium:
     8:
     0.348396,0.431767,0.000000,0.056936,0.061681,257.000000,257.000000,0.000000,6.000000,0.000000,0.000000,0.348396,0.431767,0.000000,0.056936,0.061681,257.000000,257.000000,0.000000,6.000000,0.000000,0.000000:
0000
0000
0000
0000
,
0000
0000
0000
0000
,
0000
0000
0000
0000
,
0000
0000
0000
0000
,
0000
0000
0000
0000
,
0010
0000
1000
0000
,
0001
0000
0000
0100
0000
0000
0000
0000
,
0010
0000
0001
0000
,
1000
0000
0000
0100
0000
0000
0000
0000
,
0010
0000
0001
0000
,
0100
0000
0000
0001
0000
0000
0000
0000
,
1000
0000
0000
0000
0100
0000
0000
0010
,
0000
0100
0000
0010
,
0001
0000
0000
1000
0000
0000
0001
0000
,
0010
0000
0000
0001
0000
0000
0010
0000
,
0001
0000
0000
0100
0000
0000
0010
0000
,
0001
0100
0000
0100
0010
0000
0100
0000
,
0010
0000
0000
1000
0000
0000
0001
0000
,
0010
0000
0000
0100
0000
0000
0001
0000
,
0010
0000
0000
0100
0000
0000
0010
0000
,
0100
1000
0000
1000
0010
0000
0100
0000
,
0001
0100
0000
0100
0010
0000
1000
0000
,
0001
0000
0000
0100
0000
0000
0001
0000
,
1000
0000
0000
0100
0000
0000
1000
0000
,
0001
0100
0000
0010
1000
0000
0001
0000
,
0010
2000
3002
0203
,
0310
0000
0000
0010
0000
0000
0100
0000
,
0010
0000
0000
0001
0000
0000
0001
0000
,
0010
0001
0100
0000
1000
0001
1000
0001
,
1000
0000
0000
0001
0000
0000
0100
0000
,
0001
0010
0100
1000
0000
0000
0001
0000
,
1000
0010
0100
0001
,
0010
0100
0000
0001
0000
0000
0010
0000
,
0001
0100
0000
0000
0001
0000
1000
0000
,
0001
1000
0100
0001
0100
0000
0100
0000
,
0010
0100
0001
0100
1000
0000
0100
0000
,
0001
1000
0000
0010
0000
0000
1000
0000
,
0001
0000
0000
0000
0100
0000
0000
0000
0010
0000
0000
0000
0100
0000
0000
0001
,
1000
0010
0100
0001
,
0010
0000
0000
0000
0001
0000
0000
0000
1000
0000
0000
0000
0100
0000
0000
1000
,
0100
0010
0001
0010
,
0100
0000
0000
0000
1000
0000
0000
0000
0001
0000
0010
0000
0100
0000
0000
0001
,
0100
0000
0001
0000
1000
0001
0100
1000
,
0001
0000
1000
0000
0001
0000
0000
0000
1000
0000
0000
0000
0001
0000
0000
1000
,
0001
0000
0100
0000
0010
0100
0001
0010
,
0001
0000
0000
0000
0010
0000
0000
0000
0100
0000
0000
0000
0010
0000
0000
0100
,
0010
0001
0100
1000
0010
0000
1000
0000
,
0100
0000
0000
0000
1000
0000
0000
0000
0001
0000
0000
0000
0010
0000
0000
0001
,
0010
0001
1000
1000
,
0001
0000
0000
0000
0100
0000
0000
0000
1000
0000
0000
0000
0100
0000
0000
1000
,
0001
0010
1000
0010
0010
0000
0100
0000
,
1000
0000
0000
0000
0100
0000
0000
0000
0010
0000
0000
0000
0001
0000
0000
0100
,
1000
0010
0100
0001
,
0200
0000
0000
0000
0320
0000
0000
0000
2030
0000
0000
0000
3010
0000
0000
0100
,
0010
1000
0001
0100
,
0010
0000
0001
0000
1000
0000
0001
0000
0100
0000
0010
0000
0010
0000
0000
0100
,
0010
0000
0100
0000
1000
0100
0001
0000
,
0100
0000
0000
0000
0010
0000
0000
0000
1000
0000
0000
0000
0100
0000
0000
1000
,
0100
1000
0001
0100
,
0001
0000
0010
0000
1000
0000
0000
0000
0100
0000
0000
0000
0010
0000
0000
0001
,
0010
1000
0001
0000
0010
0000
0001
0000
,
1000
0000
0000
0000
0100
0000
0000
0000
0001
0000
0000
0000
0010
0000
0000
0100
,
0010
1000
0001
1000
,
0100
0010
0001
1000
,
0010
0000
0001
0000
0100
0000
0010
0001
,
0100
0000
0000
0000
;

//---------------dance-single - ----------------
#NOTES:
     dance-single:
     :
     Hard:
     10:
     0.527338,0.585969,0.037958,0.037958,0.170809,389.000000,385.000000,4.000000,4.000000,0.000000,0.000000,0.527338,0.585969,0.037958,0.037958,0.170809,389.000000,385.000000,4.000000,4.000000,0.000000,0.000000:
0000
0000
0000
0000
,
0000
0000
0000
0000
,
0000
0000
0000
0000
,
0000
0000
0000
0000
,
0000
0000
0000
0000
,
0001
0000
0100
0000
,
0010
0000
1000
0010
1000
0000
0000
0000
,
1000
0000
0100
0000
,
0010
0000
0001
0100
0001
0000
0000
0000
,
1000
0000
0000
0000
1000
0000
0100
0000
0010
0000
0000
0000
0001
0000
0000
0001
,
0100
0010
0100
0001
0010
0100
1000
0000
,
1000
0010
0001
0000
0100
0000
1000
0000
,
0100
0001
0100
1000
0001
1000
0100
0000
,
1000
0000
0010
0001
0100
0010
1000
0000
,
0100
0000
1000
0100
0000
0010
0001
0000
,
0010
0000
0001
0100
0000
0001
0100
0000
,
0001
0010
1000
0001
1000
0001
0100
0000
,
1000
0000
0010
0100
0010
0100
1000
0000
,
0001
0000
0100
0010
0000
1000
0100
0000
,
0010
0000
1000
0100
0000
0001
0100
0000
,
1000
0000
0010
0000
0001
0000
0010
0000
0100
0000
1000
0000
0100
0000
0000
0100
,
1000
0000
0001
0010
0000
1000
0100
0000
,
0001
0000
1000
0010
0000
1000
0100
0000
,
0010
1000
0001
0100
0001
0100
0010
0000
,
0001
0010
0000
1000
0010
0000
0001
0000
,
0100
0000
0001
0000
0010
0000
1000
0010
,
0001
0010
0100
0010
1000
0000
0100
0001
,
0010
0000
1000
0000
0010
0000
0001
0100
,
1000
0001
0100
0001
0010
0100
0001
1000
,
0010
0000
0001
0000
0100
0000
0000
0000
1000
0000
0000
0000
0100
0000
0000
0001
,
0010
0000
1000
0000
0100
0000
0010
0000
0001
0000
0000
0000
0010
0000
0000
0010
,
0100
0000
0001
0000
0010
0000
0100
0000
1000
0000
0000
0000
0010
0000
0000
1000
,
0010
0000
0001
0000
0100
0000
0000
0000
0010
0000
0001
0000
1000
0000
0000
0010
,
0100
0000
0010
0000
0001
0000
0010
0000
1000
0000
0000
0000
0001
0000
0000
0010
,
0001
0000
1000
0000
0100
0000
1000
0000
0001
0000
0000
0000
0010
0000
0000
0001
,
0010
0000
1000
0000
0010
0000
0100
0000
0100
0000
0000
0000
0010
0000
0000
0100
,
0010
0000
1000
0000
0001
0000
0100
0000
0010
0000
0000
0000
1000
0000
0000
0100
,
1000
0000
0001
0000
1000
0000
0001
0000
1000
0000
0001
0000
0010
0000
1000
0100
,
0010
0000
0100
0000
0010
0000
0100
0000
0010
0000
0100
0000
0010
0000
0100
1000
,
0100
0000
1000
0000
0100
0000
1000
0000
0100
0000
1000
0000
0100
0000
0010
0001
,
0010
0000
0001
0000
0010
0000
0001
0000
0010
0000
0001
0000
0010
0000
0001
0010
,
0100
0000
0000
0000
1000
0000
0000
0100
1000
0000
0100
0000
0100
0000
0001
0010
,
0100
0000
0000
0000
1000
0000
0000
0010
1000
0000
0001
0000
0010
0000
1000
0000
,
0100
0000
1000
0000
0001
0000
0000
0010
1000
0000
0010
0000
0100
0000
0000
0001
,
0100
0000
0000
0000
1000
0000
0000
0010
1000
0000
0001
0000
1000
0000
0001
0000
,
0100
0000
0010
0000
0001
0000
0100
0000
0000
0000
0001
0000
0010
0000
0000
1000
,
0100
0000
0001
0000
1000
0000
0100
0000
0000
0000
0100
0000
1000
0000
0000
0100
,
0010
0000
0000
0000
0001
0000
0100
0000
0000
0000
0100
0000
0001
0000
0000
0010
,
0001
0000
0010
0000
1000
0000
0010
0000
0100
0000
0001
0000
0100
0000
0000
0010
,
1000
0000
0000
0000
0010
0000
1000
0000
0000
0000
1000
0000
0100
0000
0000
1000
,
0100
0000
0010
0000
1000
0000
0010
0000
0100
0000
0000
0000
1000
0000
0000
0100
,
0010
0000
0000
0000
0001
0000
1000
0000
0000
0000
1000
0000
0100
0000
0000
0010
,
0001
0000
0010
0000
0100
0000
1000
0000
0000
0000
0010
0000
0001
0000
0000
0010
,
0100
0000
1000
0000
0100
0000
0000
0000
1000
0000
0000
0000
0001
0000
0000
1000
,
0010
0000
0001
0000
0100
0000
1000
0000
0010
0000
1000
0000
0001
0000
0000
0010
,
0100
0000
1000
0000
0001
0000
0000
0000
1000
0000
0000
0000
0010
0000
0000
0001
,
0010
0000
1000
0000
0100
0000
0000
0000
0001
0000
0100
0000
0010
0000
0000
0100
,
0010
0000
1000
0000
0100
0000
0000
0000
0001
0000
1000
0000
0100
0000
0000
1000
,
0010
0000
0001
0000
0100
0000
0000
0000
0001
0000
0000
0000
1000
0000
0000
1000
,
0100
0000
0001
0000
0100
0000
0001
0000
0100
0000
0010
0000
1000
0000
0000
0100
,
0010
0000
0001
0000
1000
0000
0001
0000
0100
0000
0001
0000
0100
0000
0010
0100
,
1000
0000
0010
2000
0000
0100
3100
0000
,
1100
0000
1000
0020
0000
0001
0031
0000
,
0011
0000
0001
0200
0000
1000
1300
0000
,
1010
0000
0100
0020
0001
0030
1000
0001
,
1001
0000
0000
0000
;
