#TITLE:Mermaid girl -秋葉工房 MIX-;
#SUBTITLE:;
#ARTIST:Remixed by DJ Command;
#TITLETRANSLIT:Mermaid girl -Akiba Koubou MIX-;
#SUBTITLETRANSLIT:;
#ARTISTTRANSLIT:;
#GENRE:;
#CREDIT:;
#BANNER:banner.png;
#BACKGROUND:background.png;
#LYRICSPATH:;
#CDTITLE:Cdtitle.png;
#MUSIC:Mermaid girl -Akiba Koubou MIX-.mp3;
#OFFSET:0.020000;
#SAMPLESTART:55.919998;
#SAMPLELENGTH:13.760000;
#SELECTABLE:YES;
#BPMS:0.000000=150.000000
;
#STOPS:
;
#BGCHANGES:;
#KEYSOUNDS:;
#ATTACKS:;

//---------------dance-single - ----------------
#NOTES:
     dance-single:
     :
     Beginner:
     2:
     0.152805,0.202453,0.075860,0.000000,0.000000,141.000000,131.000000,10.000000,0.000000,0.000000,0.000000,0.152805,0.202453,0.075860,0.000000,0.000000,141.000000,131.000000,10.000000,0.000000,0.000000,0.000000:
0000
0000
0000
0000
,
0000
0000
0000
0000
,
0000
0000
0000
0000
,
0000
0000
0000
0000
,
0000
0000
0000
0000
,
0000
0000
0000
0000
,
0000
0010
0000
0000
,
0000
0100
0000
0000
,
0000
0010
0000
0010
,
0000
1001
0000
0000
,
0000
0001
0000
0001
,
0000
0001
0000
0100
,
0000
0100
0000
0100
,
0000
1000
0000
1000
,
0000
1000
0000
0010
,
0000
0010
0000
0010
,
0000
0010
0000
0100
,
0000
0001
0000
0000
,
0000
1001
0000
0000
,
0000
0010
0000
0010
,
0000
0001
0000
0001
,
0000
0001
0000
1000
,
0000
1000
0000
1000
,
0000
0010
0000
0010
,
0000
0100
0000
0100
,
0000
1000
0000
1000
,
0000
0010
0000
0010
,
0000
0001
0001
0001
,
0001
0000
1000
1000
,
0000
0010
0010
0010
,
0010
0000
0000
0000
,
0000
0100
0100
0100
,
0100
0000
0000
0000
,
0000
0010
0000
0010
,
0000
0110
0000
0000
,
0000
0001
0000
0001
,
0000
0100
0000
0100
,
0000
0010
0000
0010
,
0000
1000
0000
1000
,
0000
0010
0000
0010
,
0000
0100
0000
0100
,
0000
0001
0000
0001
,
0000
1001
0000
0000
,
0000
0010
0000
0010
,
0000
0100
0100
0100
,
0000
0001
0000
0001
,
0000
0010
0010
0010
,
0000
1000
0000
1000
,
0000
0001
0001
0001
,
0000
0010
0000
0010
,
0000
0100
0000
0000
,
0000
1001
0000
0000
,
0000
0010
0000
0000
,
0000
0100
0000
0000
,
0000
0010
0000
0000
,
0000
0110
0000
0000
,
0000
0010
0000
1001
,
0000
0100
0000
0010
,
0000
0110
0000
0000
,
0000
0110
0000
0000
,
0000
0001
0000
0001
,
0000
0010
0000
0010
,
0000
0100
0000
0100
,
0000
1000
0000
1000
,
0000
0001
0000
0001
,
0000
0010
0000
0010
,
0000
0100
0000
0100
,
0000
1000
0000
1000
,
0000
0010
0000
0010
,
0000
0100
0000
0100
,
0000
0001
0000
0001
,
0000
1000
0000
1000
,
0000
0010
0000
0010
,
0000
0100
0000
0100
,
0000
0001
0000
0001
,
0000
0010
0000
0100
,
0000
1001
0000
0000
;

//---------------dance-single - ----------------
#NOTES:
     dance-single:
     :
     Easy:
     4:
     0.234084,0.347062,0.189651,0.060688,0.000000,216.000000,191.000000,25.000000,8.000000,0.000000,0.000000,0.234084,0.347062,0.189651,0.060688,0.000000,216.000000,191.000000,25.000000,8.000000,0.000000,0.000000:
0000
0000
0000
0000
,
0000
0000
0000
0000
,
0000
0000
0000
0000
,
0000
0000
0000
0000
,
0000
0000
0000
0000
,
0000
0000
0000
0000
,
0000
0001
0000
0001
,
0000
1000
0000
1000
,
0000
1000
0100
1000
,
0000
2002
0000
0000
,
3003
0100
1000
0100
,
0000
0010
0100
0010
,
0000
0100
0001
0100
,
0000
0001
0001
1000
,
1001
0001
0010
0001
,
0000
0001
1000
0001
,
0000
0100
0100
0010
,
0010
0001
0001
0100
,
0010
0110
0000
0000
,
0000
0010
0100
1000
,
0000
0100
0010
0001
,
0000
0010
0010
0100
,
0100
0100
1001
0000
,
0000
0100
0100
0100
,
0000
0010
0010
0010
,
0000
1001
0000
0010
,
0000
0010
0100
0010
,
0000
0100
1000
0100
,
1000
0000
0010
1000
,
0000
0200
0000
0320
,
0000
2030
0000
0000
,
3000
0001
0010
0001
,
0010
0001
1001
1001
,
0000
0100
0010
0100
,
0010
0100
0110
1001
,
0000
0001
0000
0100
,
0000
1000
0010
0100
,
0000
0001
0001
0010
,
0011
0000
0010
0010
,
0000
0001
0000
0010
,
0000
0100
1000
0100
,
0000
0001
0100
0101
,
0000
0101
0000
0000
,
0000
0100
0000
0100
,
0000
0010
0010
1000
,
0000
0010
0000
0010
,
0000
1000
1000
0010
,
0000
0001
0000
0001
,
0000
0100
0100
1000
,
0000
1001
0000
1001
,
0000
1001
0000
0000
,
0000
0010
0000
0100
,
0000
0010
0000
0001
,
0000
0100
0000
2000
,
0000
0000
0000
3000
,
0000
0001
0001
0001
,
0001
0100
0100
1001
,
0000
0010
0010
0100
,
0100
0110
0110
0110
,
0000
2002
0000
0000
,
3003
0001
0000
0001
,
0000
0010
0100
0001
,
0000
0010
1000
0010
,
1010
0000
0100
0100
,
0000
0001
0000
0001
,
0000
0010
1000
0001
,
0000
0001
0001
0100
,
0101
0000
0001
0001
,
1001
0001
0010
0001
,
0000
0010
0100
0010
,
0000
1000
1000
0001
,
0000
0010
0100
0010
,
1001
0100
0100
0010
,
0000
0001
0010
0100
,
0000
0001
0001
0001
,
0000
1000
1000
1000
,
1000
1001
0000
0000
;

//---------------dance-single - ----------------
#NOTES:
     dance-single:
     :
     Medium:
     7:
     0.313195,0.404905,0.204823,0.295856,0.000000,289.000000,262.000000,27.000000,39.000000,0.000000,0.000000,0.313195,0.404905,0.204823,0.295856,0.000000,289.000000,262.000000,27.000000,39.000000,0.000000,0.000000:
0000
0000
0000
0000
,
0000
0000
0000
0000
,
0000
0000
0000
0000
,
0000
0000
0000
0000
,
0000
0000
0000
0000
,
0000
0000
0000
0000
,
0000
0010
0000
0010
,
0000
0100
0000
0010
,
0000
1000
0010
1000
,
0000
2002
0000
0000
,
3003
0000
0010
0000
1000
0000
0010
1000
,
0010
0000
0010
0001
,
0001
0000
0100
0000
0001
0000
0100
0001
,
0100
0001
0001
2000
,
3001
0000
0100
0000
0010
0000
0100
0010
,
0100
0001
1000
0001
,
0001
2000
3100
0200
,
0310
0020
0031
0002
,
0013
0110
0110
1001
,
0000
0001
0100
0001
,
0000
0000
0010
0000
0100
0100
0010
0000
,
0000
0001
0001
1000
,
1000
0010
1000
0000
0100
0000
0001
0000
,
0000
1000
1000
1000
,
1001
0110
0110
0110
,
1000
0100
1000
0000
0100
0000
0001
0000
,
0100
0010
0200
0310
,
0000
0000
0001
0000
1000
1000
0100
0000
,
0010
0001
0010
1000
,
0000
2000
3001
0002
,
0023
0230
0000
0000
,
0300
0000
1000
0000
0001
0000
0001
0010
,
0100
2000
3002
1003
,
0000
0001
0001
1000
,
1000
1001
1001
0110
,
0000
0000
0001
0000
0001
0000
0100
0100
,
0100
0000
1000
0000
0100
0000
0001
0100
,
0001
1000
0001
0100
,
1001
2000
0100
3100
,
0000
0000
0001
0000
0100
0000
1000
1000
,
1000
0000
0010
0000
0001
0000
0100
0001
,
0100
0002
0103
2000
,
3010
2002
0000
0000
,
3003
0000
0100
0000
0100
0000
0010
0100
,
0010
1001
1001
1001
,
0000
0000
1000
0000
1000
0000
0001
1000
,
0001
0110
0110
0110
,
0000
0000
1000
0000
1000
0000
1000
0100
,
0001
0000
0001
0000
0010
0000
0001
0010
,
0100
0200
0310
0020
,
0031
0002
1003
0010
,
0100
0002
0000
0000
,
0000
2003
0000
0000
,
0000
3020
0000
0230
,
0000
0002
0000
0000
,
0303
0000
0010
0000
0010
0000
0010
0100
,
0010
0020
1030
1010
,
0000
0001
0010
0100
,
1000
1001
1001
1001
,
0000
0220
0000
0000
,
0330
0000
0001
0000
0100
0000
1000
1000
,
1000
0000
0010
0000
1000
0000
0010
1000
,
0001
0010
1000
0010
,
1001
0002
0010
0013
,
0000
0000
0001
0000
0010
0000
0001
0001
,
0001
0000
0010
0000
1000
0000
0001
0010
,
1000
2000
3010
0020
,
0031
0022
0000
0000
,
0033
0000
1000
0000
0010
0000
1000
0010
,
1000
0000
0001
0000
0100
0000
0010
0001
,
0100
0000
0001
0000
0001
0000
0100
0001
,
0100
0001
0100
0002
,
0013
0000
1000
0000
0010
0000
1000
0010
,
1000
0000
0010
0000
1000
0000
1000
0100
,
0001
0200
0301
0002
,
0013
0000
0020
0000
0130
0000
0100
0100
,
0100
1001
0000
0000
;

//---------------dance-single - ----------------
#NOTES:
     dance-single:
     :
     Hard:
     9:
     0.472502,0.491671,0.212409,0.091033,0.109998,436.000000,408.000000,28.000000,12.000000,0.000000,0.000000,0.472502,0.491671,0.212409,0.091033,0.109998,436.000000,408.000000,28.000000,12.000000,0.000000,0.000000:
// measure 0
0000
0000
0000
0000
,  // measure 1
0000
0000
0000
0000
,  // measure 2
0000
0000
0000
0000
,  // measure 3
0000
0000
0000
0000
,  // measure 4
0000
0000
0000
0000
,  // measure 5
0000
0000
0000
0000
,  // measure 6
0000
0000
0000
0000
0001
0000
0000
0001
0000
0000
0001
0000
0000
0000
0000
0000
,  // measure 7
0000
0000
0000
0000
1000
0000
0000
1000
0000
0000
1000
0000
0000
0000
0000
0000
,  // measure 8
0000
0000
0000
0000
0010
0000
0100
0010
0000
0000
0100
0010
0100
0000
0010
0000
,  // measure 9
0100
2002
0000
0000
,  // measure 10
3003
0000
0001
0010
0100
1000
0010
0100
,  // measure 11
1000
0000
1000
0010
1000
0010
0100
0001
,  // measure 12
0001
0000
1000
0100
0010
0001
0100
0010
,  // measure 13
0001
0000
0000
0000
0001
0000
0000
0100
0000
0000
0010
0000
0010
0000
0000
0000
,  // measure 14
1001
0000
0010
0100
1000
0001
0010
0001
,  // measure 15
0010
0000
0001
0010
0100
1000
0010
1000
,  // measure 16
0010
0000
1000
0100
1000
0100
1000
0100
,  // measure 17
0010
0000
0100
0000
0010
0000
0000
0001
0000
0000
0001
0000
0100
0000
0010
0000
,  // measure 18
1000
1001
1001
0000
,  // measure 19
0000
0000
0001
0010
0100
0000
1000
0000
,  // measure 20
0010
0000
0001
0100
0001
0100
0000
0010
,  // measure 21
0100
1000
1000
0010
,  // measure 22
1000
0010
1000
0010
0100
0000
0001
0000
,  // measure 23
0001
0010
1000
0000
1010
0000
1010
0000
,  // measure 24
0100
1001
0010
1001
,  // measure 25
0001
0100
0100
0000
0001
0000
0001
0000
,  // measure 26
0100
0000
0010
0100
0001
0100
0001
0010
,  // measure 27
0100
1000
1000
0000
1000
0100
0001
0100
,  // measure 28
0001
0000
0001
0010
1000
0000
1000
0000
,  // measure 29
0010
1010
1000
1001
,  // measure 30
0001
0020
0000
0000
,  // measure 31
0030
0000
0100
0010
0100
0010
1000
0010
,  // measure 32
1000
1010
1000
1001
,  // measure 33
0000
0011
0010
1010
,  // measure 34
1000
1100
0100
1001
,  // measure 35
0000
0000
0000
0000
1000
0000
0010
1000
0000
0010
1000
0000
0010
0000
1000
0000
,  // measure 36
0100
0000
0001
0100
0010
1000
0010
0100
,  // measure 37
1000
0000
0000
0000
0010
0000
1000
0010
0000
1000
0010
0000
0100
0000
0010
0000
,  // measure 38
0100
0000
0001
0010
1000
0010
1000
0000
,  // measure 39
1001
0000
0000
0000
0100
0000
0010
0001
0000
0010
0001
0000
0010
0000
0001
0000
,  // measure 40
0100
0000
0001
0010
0100
1000
0010
0100
,  // measure 41
1000
0000
0000
0000
0001
0000
0010
0001
0000
0010
0001
0000
0010
0000
0001
0000
,  // measure 42
1000
0000
0000
0000
0100
0000
1000
0010
0000
1000
0010
0000
1000
0000
0100
0000
,  // measure 43
0100
0000
0001
0100
0001
0100
0001
0010
,  // measure 44
1000
0000
1000
1000
0010
0010
0100
0100
,  // measure 45
1001
0000
0001
0100
0001
0100
0001
0010
,  // measure 46
1000
0000
0001
0001
0100
0100
0010
0000
,  // measure 47
0110
0000
0001
0100
0001
0100
0001
0010
,  // measure 48
0100
0000
0001
0010
0100
1000
0010
0100
,  // measure 49
1000
0000
1000
0010
1000
0010
0100
0010
,  // measure 50
0100
0000
0001
0000
0010
0000
0000
0100
0000
0000
0100
0000
1000
0000
0100
0000
,  // measure 51
1000
2000
0000
3200
,  // measure 52
0000
0320
0000
0032
,  // measure 53
0000
0023
0230
0302
,  // measure 54
2003
3200
0000
0000
,  // measure 55
0300
0000
0100
0001
0100
0001
0100
0010
,  // measure 56
0100
0010
0110
0000
1010
0000
1001
0000
,  // measure 57
0000
0000
1000
0010
1000
0010
1000
0001
,  // measure 58
1000
0001
1001
0000
0010
0000
0110
0000
,  // measure 59
0000
1001
0000
0000
,  // measure 60
0000
0000
0000
0000
1000
0000
0010
1000
0000
1000
0010
0000
0100
0000
0010
0000
,  // measure 61
0001
0000
0100
1000
0001
0010
0100
1000
,  // measure 62
0100
0000
0000
0000
0010
0000
0010
0100
0000
0010
0100
0000
0010
0000
0100
0000
,  // measure 63
0001
0000
0100
0001
0100
0100
0100
0000
,  // measure 64
1001
0000
0000
0000
1000
0000
0100
0010
0000
0010
0100
0000
0001
0000
0010
0000
,  // measure 65
0100
0000
0001
0100
0010
1000
0010
1000
,  // measure 66
0100
0000
0000
0000
1000
0000
0010
1000
0000
0010
1000
0000
1000
0000
0010
0000
,  // measure 67
1000
0000
0000
0000
0001
0000
0001
1000
0000
0000
1000
0001
0000
0000
0010
0000
,  // measure 68
0001
0000
0010
0100
1000
0010
0100
0010
,  // measure 69
0100
0000
1000
0100
0010
0001
0010
0001
,  // measure 70
0100
0000
0001
0010
0001
0100
0001
0100
,  // measure 71
0001
0000
0000
0000
0100
0000
0000
0010
0000
0000
0010
0000
0001
0000
0000
0000
,  // measure 72
1001
0000
1000
0100
0010
0001
0100
0010
,  // measure 73
0001
0000
0001
0100
0010
1000
0010
0100
,  // measure 74
0001
0000
0001
0010
0001
0010
0001
0010
,  // measure 75
0100
0000
0010
0000
0100
0000
0000
1000
0000
0000
1000
0000
0100
0000
1000
0000
,  // measure 76
0100
1001
0000
0000
;
