#TITLE:Maps;
#SUBTITLE:;
#ARTIST:Maroon 5;
#TITLETRANSLIT:;
#SUBTITLETRANSLIT:;
#ARTISTTRANSLIT:;
#CREDIT:;
#BANNER:banner.png;
#BACKGROUND:background.png;
#LYRICSPATH:;
#CDTITLE:Cdtitle.png;
#MUSIC:Maps.mp3;
#OFFSET:-0.120;
#SAMPLESTART:95.280;
#SAMPLELENGTH:19.220;
#SELECTABLE:YES;
#BPMS:0.000=120.000;
#STOPS:;
#BGCHANGES:8.500=Maps.avi=1.000=1=0=0,
99999=-nosongbg-=1.000=0=0=0 // don't automatically add -songbackground-
;

//---------------dance-single - ----------------
#NOTES:
     dance-single:
     :
     Beginner:
     2:
     0.077,0.123,0.000,0.023,0.000:
0000
0000
0000
0000
,
0000
0000
0000
0000
,
0000
0000
0000
0000
,
0000
0000
0000
0000
,
0000
0000
0000
0000
,
0000
0000
0000
0000
,
0000
0000
0000
0000
,
0000
0000
0000
0000
,
0010
0000
0000
0000
,
0000
0000
0000
0000
,
0100
0000
0000
0000
,
0000
0000
0000
0000
,
0010
0000
0010
0000
,
0100
0000
0100
0000
,
1000
0000
1000
0000
,
0010
0000
0000
0000
,
0200
0000
0000
0000
,
0300
0000
0000
0000
,
0020
0000
0000
0000
,
0000
0000
0030
0000
,
0100
0000
0000
0000
,
0001
0000
0000
0000
,
0001
0000
0000
0000
,
0010
0000
0010
0000
,
0100
0000
0000
0000
,
0100
0000
0000
0000
,
1000
0000
0000
0000
,
1000
0000
0000
0000
,
0010
0000
0010
0000
,
0010
0000
0100
0000
,
0100
0000
0100
0000
,
1000
0000
0000
0000
,
0010
0000
0010
0000
,
0010
0000
0001
0000
,
0001
0000
0001
0000
,
0001
0000
0000
0000
,
0000
0000
0000
0010
,
0000
0000
0000
0100
,
0000
0000
0000
1000
,
0000
0000
0000
0000
,
0010
0000
0000
0000
,
0010
0000
0000
0000
,
1000
0000
0000
0000
,
0001
0000
0000
0000
,
0010
0000
0000
0000
,
0010
0000
0100
0000
,
0100
0000
0100
0000
,
0100
0000
0000
0000
,
0010
0000
0000
0000
,
0010
0000
0000
0000
,
0100
0000
0000
0000
,
1000
0000
1000
0000
,
0001
0000
0000
0000
,
0001
0000
0000
0000
,
0001
0000
0000
0000
,
0010
0000
0000
0000
,
0001
0000
0000
0000
,
0001
0000
0010
0000
,
0010
0000
1000
0000
,
1000
0000
1000
0000
,
0010
0000
0000
0000
,
0100
0000
0000
0000
,
0001
0000
0000
0000
,
0020
0000
0000
0000
,
0030
0000
0000
0000
;

//---------------dance-single - ----------------
#NOTES:
     dance-single:
     :
     Easy:
     3:
     0.201,0.246,0.092,0.177,0.000:
0000
0000
0000
0000
,
0000
0000
0000
0000
,
0000
0000
0000
0000
,
0000
0000
0000
0000
,
0000
0000
0000
0000
,
0000
0000
0000
0000
,
0000
0000
0000
0000
,
0000
0000
0000
0000
,
0010
0010
0010
0000
,
1000
0000
0100
0100
,
0100
0000
0010
0000
,
0001
0001
0001
0000
,
0100
1000
0100
0000
,
0001
0000
0010
1000
,
0010
0000
1000
1000
,
0010
0000
0001
0001
,
0100
0100
0200
0300
,
0010
0010
0020
0030
,
0001
0001
0002
0003
,
1000
1000
2000
3000
,
0010
0000
0100
0100
,
0001
0100
0010
0010
,
1000
0002
0003
0000
,
1000
0100
0010
0001
,
0010
0000
0100
0000
,
0100
0010
0010
1000
,
1000
0001
0010
1000
,
0200
0000
0000
0300
,
0101
0000
0010
0010
,
0110
0000
1000
1000
,
1001
0000
0001
0001
,
2002
0000
0000
3003
,
0100
0000
1000
1000
,
1100
0000
0010
0010
,
0011
0000
0100
0010
,
2002
0000
3003
0100
,
0010
0100
0000
1000
,
1000
1000
0000
0100
,
0001
0100
0001
0000
,
0010
0000
0010
0000
,
0020
0000
0000
0000
,
2030
0000
0000
0000
,
3200
0000
0000
0000
,
0302
0000
0000
0000
,
0203
0000
0000
0000
,
0320
0000
0000
0000
,
2030
0000
0000
0000
,
0200
0000
0000
3300
,
0010
0010
0100
0001
,
1000
1000
0010
0010
,
0001
0002
0003
0000
,
0001
0010
0100
0001
,
0010
0100
0200
0300
,
0001
0010
0001
0100
,
0010
1000
2000
3000
,
0200
0000
0000
0300
,
1001
0000
0010
0010
,
0110
0000
1000
1000
,
1001
0000
0010
0100
,
1000
0010
1000
1000
,
0001
0001
0010
0100
,
0110
0000
0001
0100
,
0101
0000
0100
0100
,
2000
0000
0000
0000
,
3000
0000
0000
0000
;

//---------------dance-single - ----------------
#NOTES:
     dance-single:
     :
     Medium:
     5:
     0.279,0.320,0.100,0.177,0.000:
0000
0000
0000
0000
,
0000
0000
0000
0000
,
0000
0000
0000
0000
,
0000
0000
0000
0000
,
0000
0000
0000
0000
,
0000
0000
0000
0000
,
0000
0000
0000
0000
,
0000
0000
0000
0000
,
0001
0100
0001
0010
,
1000
0001
1000
0000
0010
0000
0010
0000
,
1000
0100
1000
0001
,
0100
0000
0010
1000
0010
0000
0001
0000
,
0100
0000
0100
0000
0010
0100
0010
0000
,
0100
0001
0010
1000
,
1000
0000
0100
0000
1000
0000
0100
0001
,
0010
0000
0001
0000
0000
0100
0100
0100
,
0000
0100
0000
1000
0000
1000
0000
0010
,
0000
0010
0000
0020
0030
0001
0001
0001
,
0000
0010
0000
0010
0000
0200
0300
0010
,
0000
1000
0000
1000
0000
1001
0000
0000
,
0020
0130
0001
0001
,
0010
0100
1000
0000
1000
0000
0100
0000
,
0010
0012
0103
0000
,
0001
0000
0010
0100
1000
0100
1000
0100
,
2000
3010
0100
1000
,
1000
0100
0010
0000
0001
0000
0001
0000
,
1002
0103
0010
1000
,
2002
0000
0000
3003
,
1001
0000
0000
0000
0010
0000
0010
0100
,
0010
0000
0000
0000
0001
0000
0001
1000
,
0001
0100
0001
0001
,
2000
0100
0100
3100
,
0101
0000
0000
0000
1000
0000
1000
0010
,
1000
0000
0000
0000
0100
0000
0100
0001
,
0100
0000
0100
0010
,
2000
0000
0000
0000
3000
0001
0000
0100
,
0000
0001
0000
0000
0000
1000
0000
0100
,
0000
1000
0000
0000
0000
0010
0000
0010
,
0000
0010
0000
0000
0000
0100
0000
0100
,
0000
0100
0000
0000
0000
0000
0001
0000
,
2000
0000
3000
0010
,
0200
0000
0300
0001
,
0020
0000
0030
0001
,
0200
0000
0300
0010
,
0010
0010
0010
1000
,
1000
1000
1000
0001
,
0001
0000
0001
0000
0001
0000
0001
0001
,
0001
0100
0100
0100
0010
0000
0000
0000
,
2010
0000
3100
0000
0100
0000
0100
0010
,
0001
0001
0100
0100
,
0020
1030
0000
1000
,
0100
0000
0010
0000
0001
0010
0001
0010
,
0001
0010
0100
0000
0210
0000
0301
0000
,
1000
0000
0100
0000
0010
0001
0010
0000
,
0001
1000
2010
3010
,
0220
0000
0000
0330
,
0110
0000
0000
0000
0010
0000
0001
0100
,
0001
0000
0000
0000
1000
0000
0100
1000
,
0100
0000
0001
0000
0001
0100
0001
0000
,
0200
0001
0001
0301
,
0110
0000
0001
0000
0001
0000
0100
0001
,
0100
0000
0010
0000
0100
0000
0001
1000
,
0001
0010
0100
0010
,
2002
0000
0000
0000
,
3003
0000
0000
0000
;

//---------------dance-single - ----------------
#NOTES:
     dance-single:
     :
     Hard:
     7:
     0.386,0.394,0.177,0.285,0.031:
0000
0000
0000
0000
,
0000
0000
0000
0000
,
0000
0000
0000
0000
,
0000
0000
0000
0000
,
0000
0000
0000
0000
,
0000
0000
0000
0000
,
0000
0000
0000
0000
,
0000
0000
0000
0000
,
0010
0000
0010
0000
0100
0000
0010
0001
,
0100
0001
0100
0000
0001
1000
0001
0000
,
0001
0100
0010
0001
0010
0100
0001
0000
,
0100
0100
0010
0000
0100
0100
0001
0000
,
0100
0000
0100
0001
0100
0000
0010
0100
,
0010
0100
1000
0000
0010
0000
1000
0000
,
1000
0000
1000
0010
0100
0001
0010
0100
,
1000
0100
1000
0000
0000
0010
0010
0110
,
0000
1100
0000
0101
0000
1000
1000
1010
,
0000
0011
0000
1001
0000
0100
0100
0110
,
0000
1100
0000
0101
0000
0001
0001
0011
,
0000
1100
0000
1001
0000
1001
0000
0000
,
0002
0000
0103
0000
0010
0100
0001
0100
,
0001
0100
0001
0010
0100
1000
0100
1000
,
0010
0120
1030
0010
,
0001
0100
0010
0100
1000
0100
0100
0100
,
2000
0000
3001
0000
0100
0000
1000
0100
,
1000
0000
0001
0010
0100
1000
0100
0000
,
1020
0130
0010
0100
,
0220
0300
2000
3030
,
1001
0000
0000
0001
0010
0100
0010
0100
,
0010
0000
0000
0000
0001
0010
0100
1000
,
0100
0000
0100
0010
0001
0100
0001
0100
,
2000
3200
2300
3100
,
0101
0000
0000
0100
0001
0010
0001
0010
,
0001
0000
0000
0100
0010
0001
0010
0100
,
1000
0000
0001
0100
0100
0001
0010
0001
,
0200
0000
0300
0000
0000
0002
0000
0203
,
0000
0320
0000
0030
0000
2000
0000
3020
,
0000
2030
0000
3000
0000
0002
0000
0023
,
0000
0230
0000
0300
0000
2000
0000
3200
,
0000
0320
0000
0030
0000
0000
0001
0000
,
1000
0000
0000
1000
0000
0000
1000
0000
0000
0000
0001
0000
0010
0000
0100
0000
,
1000
0000
0000
1000
0000
0000
1000
0000
0000
0000
0001
0000
0010
0000
0001
0000
,
0001
0000
0000
0001
0000
0000
0001
0000
0000
0000
0100
0000
0001
0000
0100
0000
,
0010
0000
0000
0010
0000
0000
0010
0000
0000
0000
0000
0000
0100
0000
1000
0000
,
0100
0000
0000
0100
0000
0000
0100
0000
0000
0000
0001
0000
0100
0000
0001
0000
,
0100
0000
0000
0100
0000
0000
0100
0000
0000
0000
1000
0000
0100
0000
0010
0000
,
0001
0000
0000
0001
0000
0000
0001
0000
0000
0000
0100
0000
0010
0000
0100
0000
,
0001
0000
0000
0001
0000
0000
0001
0000
0000
0000
0000
0000
0000
0000
0000
0000
,
0002
0000
0013
0000
1000
0000
0001
0010
,
0100
0010
1000
0000
0100
0010
0001
0000
,
0201
0000
0310
0000
0001
0000
0100
0001
,
0010
0000
1000
0100
0010
0010
0010
0000
,
0020
0130
1000
0001
,
0100
0001
0100
0000
0010
0100
0001
0000
,
0102
1003
0100
0010
,
0202
0300
2000
3003
,
0110
0000
0000
0100
0010
0001
0010
0001
,
0010
0000
0000
0100
1000
0100
0010
0001
,
0010
0000
1000
0010
0100
0001
0100
0010
,
0200
0302
0203
0301
,
0101
0000
0000
0001
0010
0100
1000
0100
,
1000
0000
0010
0000
0001
0010
0100
1000
,
0100
0000
0001
0001
0100
0010
1000
0000
,
2000
3020
0230
0002
,
0303
0000
0000
0000
;

//---------------dance-single - ----------------
#NOTES:
     dance-single:
     :
     Challenge:
     9:
     0.465,0.490,0.331,0.216,0.158: // measure 1
0000
0000
0000
0000
,  // measure 2
0000
0000
0000
0000
,  // measure 3
0000
0000
0000
0000
,  // measure 4
0000
0000
0000
0000
,  // measure 5
0000
0000
0000
0000
,  // measure 6
0000
0000
0000
0000
,  // measure 7
0000
0000
0000
0000
,  // measure 8
0000
0000
0000
0000
,  // measure 9
0100
1000
0100
1000
0010
0010
0000
0010
,  // measure 10
0100
0100
0200
0000
0301
0000
0001
0100
,  // measure 11
0010
1000
0001
0100
0001
0010
0100
0001
,  // measure 12
0001
0000
0001
0000
0000
0000
1000
0000
0100
0000
0100
0000
0001
0010
0001
0010
,  // measure 13
0001
0000
0010
0001
0100
0001
0010
0100
,  // measure 14
0010
1000
1000
0000
0020
0000
1030
0000
,  // measure 15
0010
0100
1000
1000
1000
0010
0100
0001
,  // measure 16
0010
0001
0001
0000
0000
0100
0100
0100
,  // measure 17
0010
1000
0010
1000
0010
1000
1000
1010
,  // measure 18
0000
0011
0000
1001
0000
0100
0100
0001
,  // measure 19
0010
0001
0010
0001
0010
0100
0100
1100
,  // measure 20
0000
0101
0000
1001
0000
0100
0000
0000
,  // measure 21
2000
0000
3010
0200
0000
0000
0301
0010
,  // measure 22
0010
0100
0000
0100
0001
0000
0010
0000
0001
0000
0010
0000
0100
0000
1000
0000
,  // measure 23
1000
0120
1030
0010
,  // measure 24
0001
0010
0000
0010
0100
0000
1000
0000
0100
0000
0010
0000
0001
0000
0010
0000
,  // measure 25
2000
0000
3100
0020
0000
0000
1030
0100
,  // measure 26
1000
0100
0000
0100
0010
0000
0001
0000
0010
0000
0001
0000
0100
0000
0000
0000
,  // measure 27
1002
1003
0010
0100
,  // measure 28
0001
0100
0001
0100
0000
0000
0001
0000
0010
0000
0100
0000
1001
0000
1000
0000
,  // measure 29
2010
0000
0000
3100
0010
0100
0001
0100
,  // measure 30
0002
0000
0000
0013
1000
0100
0010
0001
,  // measure 31
0200
0000
0000
0310
0001
0100
0001
0100
,  // measure 32
0010
0000
0010
0100
0010
0000
0001
0010
0001
0000
0100
0010
0100
0000
0001
0000
,  // measure 33
0002
0000
0000
0013
0100
0010
0100
0010
,  // measure 34
2000
0000
0000
3010
0100
1000
0100
0010
,  // measure 35
0002
0000
0000
0103
0100
0001
0010
0001
,  // measure 36
2002
0000
0000
3003
0000
0001
0000
0100
,  // measure 37
0000
0101
0000
0000
0000
1000
0000
0010
,  // measure 38
0000
1010
0000
0000
0000
0100
0000
0010
,  // measure 39
0000
0110
0000
0000
0000
0010
0000
0010
,  // measure 40
0000
1010
0000
0000
0000
0100
0001
0100
,  // measure 41
1100
0000
0000
0101
0000
0000
1001
0000
0000
0000
0100
0000
0010
0000
0100
0000
,  // measure 42
0110
0000
0000
1100
0000
0000
0101
0000
0000
0000
0001
0000
0010
0000
0100
0000
,  // measure 43
1100
0000
0000
0110
0000
0000
0011
0000
0000
0000
0100
0000
0001
0000
0100
0000
,  // measure 44
0110
0000
0000
1010
0000
0000
0011
0000
0000
0000
0100
0000
0001
0000
0100
0000
,  // measure 45
0101
0000
0000
0110
0000
0000
1100
0000
0000
0000
0010
0000
0100
0000
1000
0000
,  // measure 46
1100
0000
0000
0101
0000
0000
1001
0000
0000
0000
0001
0000
0010
0000
0100
0000
,  // measure 47
1100
0000
0000
0101
0000
0000
1001
0000
0000
0000
0010
0000
0010
0000
0100
0000
,  // measure 48
0011
0000
0000
0101
0000
0000
1001
0000
0000
0000
0000
0000
0000
0000
0000
0000
,  // measure 49
0200
0000
0301
0020
0000
0000
1030
0010
,  // measure 50
0100
0010
0000
0010
1000
0000
0100
0000
0010
0000
0001
0000
0100
0000
1000
0000
,  // measure 51
2100
0000
3001
0000
0001
0000
0100
0001
,  // measure 52
0001
0100
0000
0100
0001
0000
0010
0000
0100
0000
1000
0000
0100
0000
1000
0000
,  // measure 53
0002
0000
0103
2000
0000
0000
3001
0000
,  // measure 54
0100
0010
0000
0010
0100
0000
1000
0000
0100
0000
0010
0000
0001
0000
0010
0000
,  // measure 55
0012
0000
0103
0000
0001
1000
0001
0000
,  // measure 56
1000
0010
1000
0010
0100
0000
0010
0000
0001
0000
0010
0000
0011
0000
0001
0000
,  // measure 57
0201
0000
0000
0301
0010
0100
0001
0100
,  // measure 58
0002
0000
0000
0013
0100
1000
0100
0010
,  // measure 59
0002
0000
0000
1003
0100
1000
0010
0100
,  // measure 60
0000
0010
0100
0010
0000
0001
0010
0001
0000
0100
1000
0100
0000
0000
0100
0000
,  // measure 61
0200
0000
0000
0301
0010
0001
0100
0010
,  // measure 62
0200
0000
0000
0310
0001
0010
0100
1000
,  // measure 63
2000
0000
0000
3001
0100
0010
1000
0100
,  // measure 64
0000
0100
1000
0100
0000
0001
0010
0001
0000
1000
0001
1000
0000
0000
0000
0000
;
