#TITLE:Man! I Feel Like A Woman!;
#SUBTITLE:;
#ARTIST:SHANIA TWAIN;
#TITLETRANSLIT:;
#SUBTITLETRANSLIT:;
#ARTISTTRANSLIT:;
#GENRE:;
#CREDIT:;
#BANNER:banner.png;
#BACKGROUND:background.png;
#LYRICSPATH:;
#CDTITLE:Cdtitle.png;
#MUSIC:Man! I Feel Like A Woman!.mp3;
#OFFSET:-0.228326;
#SAMPLESTART:53.900002;
#SAMPLELENGTH:15.820000;
#SELECTABLE:YES;
#BPMS:0.000000=124.999992
;
#STOPS:
;
#BGCHANGES:7.500=Man! I Feel Like A Woman!.avi=1.000=1=0=0=StretchNoLoop==CrossFade==,
99999=-nosongbg-=1.000=0=0=0 // don't automatically add -songbackground-
;
#KEYSOUNDS:;
#ATTACKS:;

//---------------dance-single - ----------------
#NOTES:
     dance-single:
     :
     Beginner:
     2:
     0.101763,0.155000,0.035177,0.008794,0.000000,81.000000,77.000000,4.000000,1.000000,0.000000,0.000000,0.101763,0.155000,0.035177,0.008794,0.000000,81.000000,77.000000,4.000000,1.000000,0.000000,0.000000:
0000
0000
0000
0000
,
0000
0000
0000
0000
,
0000
0000
0000
0000
,
0000
0000
0000
0000
,
0010
0000
0000
0000
,
0000
0000
0000
0000
,
0100
0000
0100
0000
,
0001
0000
0001
0000
,
1000
0000
1000
0000
,
0010
0000
0000
0000
,
0010
0000
0010
0000
,
1000
0000
1000
0000
,
0001
0000
0001
0000
,
0100
0000
0000
0000
,
0100
0000
0000
0000
,
0010
0010
0000
0000
,
1000
0000
1000
0000
,
0001
0000
0001
0000
,
0001
0000
0001
0000
,
0001
0000
0000
0000
,
0010
0000
0010
0000
,
0100
0000
0100
0000
,
1000
0000
1000
0000
,
1000
0000
0000
0000
,
0010
0000
0010
0000
,
0100
0000
0100
0000
,
0001
0000
1000
0000
,
1001
0000
0000
0000
,
1000
0000
0000
0000
,
0000
0000
0010
0000
,
0100
0000
0100
0000
,
0010
0000
0000
0000
,
0001
0000
0001
0000
,
0001
0000
1000
0000
,
1000
0000
0000
0000
,
0010
0000
0100
0000
,
0100
0000
0000
0000
,
0110
0000
0000
0000
,
1001
0000
0010
0000
,
0010
0000
0000
0000
,
0100
0000
0000
0000
,
1000
0000
0000
0000
,
0001
0000
0000
0000
,
0010
0000
0000
0000
,
0200
0000
0000
0000
,
0000
0300
0000
0000
,
0000
0000
1000
0000
,
0000
0000
1000
0000
,
0000
0000
0001
0000
,
0000
0000
0010
0000
,
0000
0000
0010
0000
,
0000
0000
0100
0000
,
0100
0000
0000
0000
,
1000
0000
0000
0000
,
0010
0000
0000
0000
,
0000
0000
1000
0000
,
1000
0000
1000
0000
,
1000
0000
0010
0000
,
0000
0000
0100
1001
;

//---------------dance-single - ----------------
#NOTES:
     dance-single:
     :
     Easy:
     4:
     0.177142,0.206666,0.052766,0.184680,0.000000,141.000000,135.000000,6.000000,21.000000,0.000000,0.000000,0.177142,0.206666,0.052766,0.184680,0.000000,141.000000,135.000000,6.000000,21.000000,0.000000,0.000000:
0000
0000
0000
0000
,
0000
0000
0000
0000
,
0000
0000
0000
0000
,
0000
0000
0000
0000
,
0001
0000
0001
0000
,
1000
0000
1000
0000
,
0200
0300
0100
0000
,
0020
0030
0010
0000
,
2000
3000
1000
0000
,
0200
0000
0000
0300
,
0002
0003
0001
0000
,
0200
0300
0100
0000
,
0020
0030
0010
0000
,
0100
0000
0100
0000
,
1000
1000
0010
0100
,
0010
0110
0000
0000
,
2000
3000
1000
0000
,
0020
0030
0010
0000
,
0200
0300
0100
0000
,
0002
0003
0001
0000
,
0200
0000
0301
0000
,
0020
0000
1030
0000
,
1000
0000
1000
0000
,
1000
0000
0100
0010
,
0010
1000
0010
0000
,
0001
0010
0100
0001
,
0001
0000
1000
0000
,
2002
0000
0000
3003
,
0100
0000
0010
0100
,
0002
0000
0010
0013
,
0200
0000
1000
1300
,
0010
0100
0100
0001
,
0001
0000
0100
0010
,
2000
3000
0100
0000
,
0100
0000
1000
0000
,
1000
0000
0100
0001
,
0020
0030
0001
0001
,
0101
0000
0010
0000
,
1001
0000
0010
0000
,
0110
0000
0001
1000
,
0020
0000
0000
0030
,
1000
0000
1000
0000
,
1000
0000
0010
0000
,
0010
0000
0100
0000
,
0002
0000
0000
1000
,
1003
0000
0000
0010
,
0010
0100
1000
1000
,
0000
0000
0100
0100
,
0001
0010
0010
0010
,
0000
0010
0000
0100
,
0001
0100
0010
0010
,
0000
0001
0010
0001
,
0001
1000
0010
0010
,
0000
0010
0100
0100
,
0010
1000
1000
0000
,
0000
0000
0010
0000
,
0010
0000
0010
0000
,
0010
0000
0010
0100
,
0001
0001
0100
1001
;

//---------------dance-single - ----------------
#NOTES:
     dance-single:
     :
     Medium:
     5:
     0.251266,0.258333,0.149503,0.105532,0.000000,200.000000,183.000000,17.000000,12.000000,0.000000,0.000000,0.251266,0.258333,0.149503,0.105532,0.000000,200.000000,183.000000,17.000000,12.000000,0.000000,0.000000:
0000
0000
0000
0000
,
0000
0000
0000
0000
,
0000
0000
0000
0000
,
0000
0000
0000
0000
,
0010
0010
0010
0000
,
0100
0100
0100
0000
,
0001
0100
0101
0000
,
0100
0010
1010
0000
,
0001
0010
0001
0100
,
0010
0010
1000
0100
,
0001
1000
1001
0000
,
0010
0010
0110
0000
,
1000
0100
0010
0000
,
0100
0001
0100
0000
,
0002
0203
0300
1000
,
0001
0100
1001
0000
,
0001
0100
0001
0000
,
0100
0010
1010
0000
,
0001
0010
0011
1000
,
0002
0000
0003
0000
,
1000
1000
0001
0000
,
0010
0010
0100
0000
,
1000
0010
1000
0000
,
1000
0100
1000
0010
,
0010
1000
0010
0010
,
0001
0100
0100
0001
,
0001
0010
1000
0100
,
0010
1000
0100
1001
,
0100
0000
0010
0100
,
0200
0300
0010
0010
,
0001
0100
0001
0020
,
0030
1000
0100
1000
,
0002
0003
0010
0100
,
2000
3000
0001
0010
,
0001
0100
1000
0100
,
2000
3000
0100
0001
,
0010
0000
0010
0010
,
1001
0000
1000
0010
,
1010
0200
0310
0002
,
0103
0000
0001
0010
,
0200
0300
0001
0010
,
0001
0010
1000
0010
,
1000
0010
0010
0100
,
0010
0100
0100
1000
,
0012
0000
0003
0110
,
0110
0000
0001
0100
,
0010
0100
0001
0001
,
0000
0000
0100
0100
,
0001
0100
1000
1000
,
0000
0010
0001
0010
,
0100
1000
1000
1000
,
0010
0100
1000
1000
,
0010
1000
0010
0010
,
1000
0001
1000
1000
,
0100
0010
0100
0001
,
0001
0100
1100
0000
,
0011
0000
1100
0000
,
0001
1000
0001
0100
,
0010
0001
1000
1001
;

//---------------dance-single - ----------------
#NOTES:
     dance-single:
     :
     Hard:
     8:
     0.364335,0.387499,0.149503,0.131915,0.303403,290.000000,273.000000,17.000000,15.000000,0.000000,0.000000,0.364335,0.387499,0.149503,0.131915,0.303403,290.000000,273.000000,17.000000,15.000000,0.000000,0.000000:
// measure 0
0000
0000
0000
0000
,  // measure 1
0000
0000
0000
0000
,  // measure 2
0000
0000
0000
0000
,  // measure 3
0000
0000
0000
0000
,  // measure 4
0100
1000
0010
0000
,  // measure 5
0100
0010
0001
0100
,  // measure 6
0100
0000
0000
0010
0000
0100
0001
0000
0000
0010
0000
0000
,  // measure 7
1000
0000
0000
0010
0000
0100
0010
0000
0000
1000
0000
0000
,  // measure 8
0001
0000
0000
0000
0000
0000
0000
0000
0000
0000
0000
0000
0100
0000
0000
0000
0000
0000
0000
0000
0100
0000
0000
0000
0001
0000
0000
0000
0000
0000
0000
0000
0000
0010
0000
0000
0000
0000
0000
0000
0000
0000
0000
0000
0000
0000
0000
0000
,  // measure 9
0100
0000
0000
1000
0000
0100
1000
0000
0000
0100
0000
0000
,  // measure 10
0001
0000
0000
0010
0100
0000
0010
0100
0000
0000
0000
0000
,  // measure 11
0100
0000
0000
0010
0000
0000
0001
0000
0000
0000
0100
0000
0001
0000
0000
0000
0000
0000
0101
0000
0000
0000
0000
0000
,  // measure 12
1000
0000
0000
0000
0001
0000
0100
0000
0000
0001
0000
0000
0000
0000
0000
0000
0100
0000
1000
0000
0000
0100
0000
0000
,  // measure 13
0000
0000
0100
0000
0000
1000
0100
0000
0000
0000
0000
0000
,  // measure 14
0011
0000
0000
1010
0000
0001
0010
0000
0001
1000
0000
0000
,  // measure 15
0001
0000
0000
1000
0000
0000
1001
0000
0000
0000
0000
0000
0010
0100
0000
0000
,  // measure 16
0001
0000
0000
0100
1000
0000
0010
0100
0000
0000
0000
0000
,  // measure 17
0001
0000
0000
0100
0000
0010
0100
0010
0000
0100
0000
0000
,  // measure 18
0010
0000
1000
0010
0000
1000
0000
0000
0000
0100
1000
0000
,  // measure 19
0002
0000
0000
0103
0010
0100
0001
0000
0000
0101
0000
0000
,  // measure 20
0010
0000
0000
0010
0100
0000
1000
0000
0000
0001
0000
0001
,  // measure 21
0100
0000
0010
0100
0000
0100
1000
0000
0000
0010
0000
0000
,  // measure 22
1000
0000
0000
0010
0001
0000
1000
0100
0000
0010
0000
0000
,  // measure 23
0001
0000
0000
0001
0000
0010
1000
0000
0000
0100
0000
0000
,  // measure 24
0001
0001
0100
0100
,  // measure 25
0001
0000
0000
0010
0000
0100
0010
0000
0000
0001
0000
0000
,  // measure 26
0101
0000
0000
0010
0000
0000
0100
0000
0010
0100
0000
0000
,  // measure 27
0001
0010
0000
0001
0010
0000
1000
0000
0000
1001
0000
0000
,  // measure 28
0100
0000
0011
1010
,  // measure 29
0100
0000
0000
0010
0001
0010
0001
0000
0000
0022
0000
0000
,  // measure 30
0033
0000
0000
0100
1000
0100
1000
0000
0000
2020
0000
0000
,  // measure 31
3030
0001
0010
0100
,  // measure 32
2000
0000
0000
3000
0000
0100
0010
0000
0100
0000
0000
0000
,  // measure 33
0020
0000
0000
0030
0000
0000
0001
0000
0010
0000
0001
0000
0010
0000
0000
0000
0000
0000
0010
0000
0000
0000
0000
0000
,  // measure 34
0001
0100
1000
0100
,  // measure 35
2002
3003
0110
0011
,  // measure 36
0020
0000
0000
0000
0000
0000
0000
0000
0000
0030
0000
0000
1000
0000
0000
0000
0100
0000
0000
0000
1000
0000
0000
0000
0100
0000
0000
0000
0000
0000
0000
0000
0000
0000
0000
0000
0020
0000
0000
0000
0000
0000
0000
0000
0000
0000
0000
0000
,  // measure 37
0031
0000
0000
0001
0010
0001
0010
0000
0000
0200
0000
0000
,  // measure 38
0310
0000
0000
0010
0100
1000
0100
0000
0000
0001
0010
0100
,  // measure 39
0010
0000
0000
0000
0000
0000
0000
0000
0000
0000
0000
0000
1000
0000
0000
0000
0000
0000
0000
0000
0010
0000
0000
0000
0001
0000
0000
0000
0000
0000
0000
0000
0000
0100
0000
0000
0000
0000
0000
0000
0000
0000
0000
0000
0000
0000
0000
0000
,  // measure 40
0020
0000
0000
0000
0000
0000
0000
0000
0000
0030
0000
0000
0100
0000
0000
0000
0001
0000
0000
0000
0100
0000
0000
0000
0001
0000
0000
0000
0000
0000
0000
0000
0000
0000
0000
0000
0010
0000
0000
0000
0000
0000
0000
0000
0000
0000
0000
0000
,  // measure 41
0001
0000
0000
0100
0000
0000
0001
0000
0000
0100
0000
0100
,  // measure 42
0001
0010
0010
0100
,  // measure 43
0010
0100
1000
1000
,  // measure 44
0011
0000
0000
0000
0000
0000
0100
0000
1000
0001
0000
1000
,  // measure 45
0001
0000
1000
0000
0000
0000
0001
0000
0000
0100
0000
0001
,  // measure 46
0010
0100
0010
0010
,  // measure 47
1000
0000
0000
0001
0000
0000
1000
0000
0000
1000
0000
0010
,  // measure 48
0001
0010
0100
0100
,  // measure 49
0001
0010
0001
0010
,  // measure 50
0100
0000
0100
1000
0000
0000
0010
0000
0000
0010
0000
0000
,  // measure 51
0001
0010
0010
1000
,  // measure 52
0100
0000
0100
0001
0000
0000
1000
0000
0000
1000
0000
0000
,  // measure 53
0010
0001
1000
1000
,  // measure 54
0100
0010
0000
0010
0000
0000
0100
0000
0000
1000
0000
0000
,  // measure 55
1000
0010
2000
3010
,  // measure 56
0001
0000
0100
0010
0000
0000
1100
0000
0000
0100
0000
0000
,  // measure 57
0001
1000
0002
0103
,  // measure 58
0001
0010
0100
1000
0100
0000
1000
0000
0000
1001
0000
0000
;
