#TITLE:Lips Are Movin;
#SUBTITLE:;
#ARTIST:Meghan Trainor;
#TITLETRANSLIT:;
#SUBTITLETRANSLIT:;
#ARTISTTRANSLIT:;
#CREDIT:;
#BANNER:banner.png;
#BACKGROUND:background.png;
#LYRICSPATH:;
#CDTITLE:Cdtitle.png;
#MUSIC:Lips Are Movin.mp3;
#OFFSET:-0.080;
#SAMPLESTART:40.820;
#SAMPLELENGTH:15.260;
#SELECTABLE:YES;
#BPMS:0.000=139.000;
#STOPS:;
#BGCHANGES:0.000=Lips Are Movin.avi=1.000=1=0=0,
99999=-nosongbg-=1.000=0=0=0 // don't automatically add -songbackground-
;

//---------------dance-single - ----------------
#NOTES:
     dance-single:
     :
     Beginner:
     2:
     0.104,0.171,0.000,0.000,0.000:
0000
0000
0000
0000
,
1000
0000
0000
0000
,
0010
0000
0000
0000
,
0100
0000
0000
0000
,
0100
0000
0000
0000
,
0010
0000
0000
0000
,
0010
0000
0000
0000
,
0001
0000
0000
0000
,
1000
0000
0000
0000
,
1000
0000
0000
0000
,
0100
0000
0000
0000
,
0100
0000
0000
0000
,
0010
0000
0010
0000
,
0001
0000
0001
0000
,
1000
0000
1000
0000
,
0010
0000
0000
0000
,
0100
0000
0000
0000
,
0100
0100
0100
0000
,
1000
1000
1000
0000
,
0001
0001
0000
0000
,
0010
0000
0000
0000
,
0010
0010
0010
0000
,
0100
0100
0100
0001
,
0001
0000
0000
0000
,
0010
0000
0000
0000
,
1000
0000
0000
0000
,
0100
0000
0000
0000
,
0010
0000
0000
0000
,
0001
0000
0000
0000
,
0001
0000
0000
0000
,
1000
0000
0000
0000
,
0010
0000
0000
0000
,
0010
0000
0000
0000
,
1000
0000
0000
0000
,
0100
0000
0000
0000
,
0010
0000
0000
0000
,
0010
0000
0000
0000
,
0100
0000
0000
0000
,
0001
0000
0000
0000
,
0001
0000
0000
0000
,
1000
0000
0000
0000
,
1000
0000
0000
0000
,
0010
0000
0000
0000
,
0100
0000
0000
0000
,
0100
0000
0000
0000
,
0010
0000
0000
0000
,
1000
0000
0000
0000
,
0001
0000
0000
0000
,
1000
0000
0000
0000
,
0010
0000
0000
0000
,
0000
1000
0000
0000
,
0000
0000
0000
0000
,
0100
0000
0000
0000
,
0010
0000
0000
0000
,
0010
0000
0000
0000
,
1000
0000
0000
0000
,
1000
0000
0000
0000
,
1000
1000
1000
0000
,
0001
0001
0001
0000
,
0010
0010
0000
0000
,
0100
0000
0000
0000
,
0100
0100
0100
0000
,
1000
1000
1000
0001
,
0001
0000
0000
0000
,
1000
0000
0000
0000
,
0010
0000
0000
0000
,
1000
0000
0000
0000
,
1000
0000
0000
0000
,
0100
0000
0000
0000
,
0100
0000
0000
0000
,
0010
0000
0000
0000
,
0010
0000
0000
0000
,
0001
0000
0000
0000
,
0001
0000
0000
0000
,
0010
0000
0000
0000
,
0010
0000
0000
0000
,
0100
0000
0000
0000
,
0100
0000
0000
0000
,
1000
0000
0000
0000
,
1000
0000
0000
0000
;

//---------------dance-single - ----------------
#NOTES:
     dance-single:
     :
     Easy:
     3:
     0.205,0.229,0.065,0.000,0.000:
0000
0000
0000
0000
,
0010
0000
0000
0100
,
0001
0000
0000
0000
,
0100
0100
0100
0000
,
0001
0000
0000
0001
,
0100
0000
0000
0010
,
1000
0000
0000
0000
,
0001
0001
0001
0000
,
1000
0000
0100
0000
,
1100
0000
0010
0000
,
0110
0000
0001
0000
,
0101
0000
0100
0000
,
1100
0000
1000
0000
,
0101
0000
0001
0000
,
0100
0000
0100
0000
,
0010
0000
0010
0000
,
0100
0001
0100
0000
,
0001
0010
0100
0000
,
0010
0010
0010
0000
,
1000
0001
0000
0000
,
1000
0010
1000
0000
,
0100
0010
0001
0000
,
1000
1000
1000
0010
,
1000
0000
0000
0000
,
0010
0000
0000
0010
,
1000
0100
0000
0000
,
0010
0100
0001
0100
,
0010
0000
0000
0100
,
0100
0000
0000
0000
,
0001
1000
0000
0000
,
0100
0001
1000
0000
,
0010
0010
0000
0000
,
0011
0000
0100
0000
,
1000
1000
0100
0000
,
0010
0000
0001
0010
,
0010
0000
0100
0000
,
0110
0000
1000
0000
,
0010
0010
0000
0100
,
0001
0001
0000
0000
,
0001
1000
0000
0000
,
0010
0000
0000
0010
,
0100
0000
0000
0001
,
0100
0000
1000
0000
,
0010
0010
0010
0000
,
0100
0000
0000
0010
,
0100
0000
0000
0001
,
1000
0000
0000
0000
,
1000
1000
1000
0000
,
1100
0000
0000
0000
,
0010
0100
0001
0000
,
0000
0010
1000
0010
,
0100
0000
0000
0100
,
0100
0000
0100
0000
,
0001
1000
0001
0000
,
0010
0000
0100
0010
,
0100
0000
1000
0000
,
1000
0000
1000
0000
,
0100
0010
0001
0000
,
0010
0010
0010
0000
,
0010
0100
0000
0000
,
0100
0000
0100
0000
,
1000
0100
0010
0000
,
0001
0001
0001
1000
,
0001
0010
0000
0010
,
1000
0000
0001
0100
,
1000
0001
0000
0010
,
0000
0010
0001
0100
,
1000
0000
0010
0000
,
0100
0000
0100
0000
,
0100
0010
0001
0000
,
0010
0010
0100
0000
,
0010
0000
0100
0000
,
1001
0000
0010
0010
,
1000
0000
1000
0000
,
0100
0100
0001
0000
,
0010
0000
0100
0001
,
0100
0000
1000
0000
,
0100
0010
1000
0000
,
0001
0100
0010
1000
,
0010
0000
0000
0000
;

//---------------dance-single - ----------------
#NOTES:
     dance-single:
     :
     Medium:
     6:
     0.373,0.400,0.080,0.217,0.000:
0000
0000
0000
0000
,
0010
0000
0100
0000
0000
0000
1000
0010
,
0010
0100
0100
0010
,
0001
1000
0001
1000
,
1001
0000
0010
0000
1000
0000
0001
0100
,
0100
0010
0010
0001
,
1000
0100
0010
0000
,
0001
1000
0001
1000
,
0010
0000
1000
0000
0100
0100
0100
0000
,
0010
0000
1000
0000
0001
0100
0001
0000
,
0010
0000
1000
0000
0001
0010
0100
0000
,
0010
0000
1000
0001
1000
0000
0010
0000
,
1000
1000
1000
0000
0010
0010
0010
0000
,
0100
0100
0100
0000
0001
0001
0001
0000
,
0100
1000
0100
0000
0010
0001
0010
0000
,
0100
0000
1000
0100
0001
0000
0100
0000
,
0100
0100
0100
0100
,
2000
3020
0230
0300
,
0002
0023
0230
0300
,
2000
3002
0003
0100
,
0010
0010
0010
0010
,
0200
2300
3002
0003
,
0020
0000
0230
0000
0302
0000
1003
0100
,
0010
0000
0000
0000
,
0110
0100
0001
0010
,
0001
0100
0001
0000
0010
0000
0010
0000
,
0100
0000
0001
0000
1000
0100
1000
0100
,
0000
0010
0100
0001
,
0100
0000
0010
0000
,
0001
1000
0001
0000
0010
0000
0010
0000
,
0100
0000
0001
0000
1000
0100
0010
0000
,
1100
0011
2001
0001
,
3001
0000
0100
0001
,
0010
0100
0010
0000
1000
0000
1000
0000
,
0010
0000
0100
0000
0001
0000
1000
0100
,
0001
0000
0100
0000
1000
0000
0001
0100
,
0001
0000
1000
0100
,
0001
1000
0001
0000
1000
0000
1000
0000
,
0001
0000
0100
0000
0001
0000
0100
0010
,
0100
0010
1000
0000
1000
0000
1000
0000
,
0010
0000
1000
0001
,
0010
0000
0100
0000
0000
0000
0001
1000
,
1000
0010
0000
0000
,
0010
0100
0010
0100
,
0001
0000
1000
0000
0001
0000
0010
0010
,
0100
0010
0100
0001
,
1000
0010
0000
0100
,
0010
0001
0010
0001
,
1001
0000
0000
0000
,
1000
0100
0010
0000
0001
0000
0000
0000
,
0100
0000
0001
0001
1000
1000
0000
0100
,
0100
0000
0001
1000
,
0100
0000
0010
0010
,
1000
0100
1000
0000
0001
0000
0000
0000
,
0100
0000
0001
0001
1000
1000
0010
0010
,
0100
0000
1000
0000
,
1000
1000
1000
0001
,
2000
3020
0032
0003
,
0200
0320
0032
0003
,
0002
0203
0300
0010
,
0010
0010
0010
0010
,
0002
2003
3020
0030
,
0002
0000
0023
0000
2030
0000
3000
0100
,
0001
1000
0000
0000
,
1001
0100
0010
1000
,
0001
1000
0001
0000
0010
0000
0010
0000
,
0000
0000
0010
0000
0001
1000
0001
1000
,
0100
0001
0010
1000
,
0100
0000
0100
0001
,
0010
0001
0010
0000
1000
0000
1000
0000
,
0001
0000
1000
0000
0001
0100
0001
0000
,
1010
1100
1002
1000
,
1003
0000
0100
0001
,
0001
0100
0001
0000
0010
0000
0010
0000
,
1000
0000
0001
0000
0010
0000
1000
0001
,
1000
0001
0100
0000
0010
0000
0001
0000
,
0100
0100
0000
1000
,
0010
0001
0010
0000
0100
0000
0100
0000
,
0001
0000
0100
1000
0100
0001
0100
0000
,
0110
0000
0000
0000
;

//---------------dance-single - ----------------
#NOTES:
     dance-single:
     :
     Hard:
     9:
     0.547,0.543,0.456,0.065,0.054: // measure 1
0000
0000
0000
0000
,  // measure 2
0000
0000
0100
1000
0010
0000
1000
0010
,  // measure 3
0010
0000
0001
1000
0001
0100
0010
0100
,  // measure 4
0101
1100
1010
0011
,  // measure 5
1001
0000
0010
0100
1000
0001
0100
0000
,  // measure 6
0000
0001
0010
0100
0010
1000
0001
0001
,  // measure 7
0100
0000
0100
0001
0100
1000
0010
0100
,  // measure 8
0101
1100
0011
1010
,  // measure 9
0110
0000
0000
0001
1000
0000
0010
0000
0100
0000
0100
0000
0100
0000
0000
0001
,  // measure 10
0010
0000
0100
0000
1000
0000
0100
0000
0010
0000
0100
0000
0010
0000
0000
0001
,  // measure 11
0010
0001
0100
0010
1000
0001
0100
0000
,  // measure 12
0100
0000
0000
0001
1000
0000
0001
0000
1000
0000
0010
0000
0010
0000
0000
0100
,  // measure 13
1000
0000
0100
0000
0100
0000
0000
0001
0010
0000
0001
0000
0001
0000
0000
0010
,  // measure 14
0100
0000
1000
0000
1000
0000
0000
0100
0001
0000
0010
0000
0010
0000
0000
1000
,  // measure 15
0100
0000
0010
0000
0010
0000
0000
0001
0010
0000
0100
0000
0100
0000
0000
0000
,  // measure 16
0100
0001
0100
0000
0010
0000
0100
0000
0001
0000
0000
0000
1000
0000
0010
0000
,  // measure 17
1000
0001
0100
0001
0100
0001
0010
0100
,  // measure 18
1100
0101
1001
0100
,  // measure 19
0110
0000
0101
0000
1100
0000
0000
0010
,  // measure 20
0110
0000
1001
0000
0100
0000
0001
0100
,  // measure 21
1000
0001
1000
0001
1000
0100
1000
0100
,  // measure 22
0110
1100
0101
0000
,  // measure 23
0011
0000
1010
0000
1001
0000
0001
0100
,  // measure 24
0002
0000
0003
0000
0000
1000
0001
1000
,  // measure 25
0100
0010
0000
0001
0010
0100
0001
0000
,  // measure 26
0010
1000
0010
0000
0200
0000
0301
0000
,  // measure 27
0100
0010
0001
0010
1000
0100
0010
0001
,  // measure 28
0010
0000
0010
0010
0100
0000
0010
0100
,  // measure 29
0001
0000
1000
0000
0010
0000
0001
1000
,  // measure 30
0010
0100
0010
0000
0020
0000
1030
0000
,  // measure 31
1000
0010
1000
0100
1000
0100
0010
0010
,  // measure 32
1010
0000
0000
0011
0000
0000
1001
0000
0000
0000
0001
0000
0010
0000
0100
0000
,  // measure 33
1100
0000
0001
0000
0010
0100
0001
0000
,  // measure 34
0001
1000
0001
0000
0020
0000
1030
0000
,  // measure 35
0001
0000
0010
0000
0001
0010
0100
0010
,  // measure 36
0001
0000
0100
0001
1000
0000
0010
0100
,  // measure 37
0010
0000
1000
0000
0001
0000
0100
0001
,  // measure 38
0100
0010
1000
0000
0020
0000
0130
0000
,  // measure 39
0001
0000
0100
0100
0001
0010
0001
1000
,  // measure 40
0100
0010
1000
0100
0100
0000
0010
1000
,  // measure 41
1010
0000
0001
0100
0001
0010
0010
0000
,  // measure 42
0000
0010
0100
1000
0010
0100
0010
0001
,  // measure 43
0001
0000
0010
0001
0100
0010
1000
0100
,  // measure 44
0110
0000
1100
0000
0011
0000
0001
0010
,  // measure 45
0100
0000
1000
0010
1000
0001
1000
1000
,  // measure 46
0000
0001
0010
0001
1000
0010
0001
0100
,  // measure 47
0000
0001
0010
0001
0100
0010
0100
1000
,  // measure 48
1000
1010
0101
1100
,  // measure 49
0110
0000
0000
0000
,  // measure 50
0100
0000
0000
0001
0000
0000
1000
0000
0000
0000
0000
0000
0100
0000
0100
0000
,  // measure 51
0000
0010
0011
0000
1000
1100
0000
0100
,  // measure 52
0101
0000
0001
0010
0100
1000
1000
0010
,  // measure 53
1000
0000
0100
0000
0001
1000
0010
0100
,  // measure 54
0001
0000
0000
1000
0000
0000
0001
0000
0010
0000
0000
0000
0001
0000
0100
0000
,  // measure 55
0000
0000
0001
0011
1000
1100
0000
0010
,  // measure 56
0110
0000
1000
0100
0010
1000
0000
0000
,  // measure 57
0001
0100
0001
0100
0001
0010
0100
0100
,  // measure 58
1100
0011
1001
0000
,  // measure 59
0110
0000
1100
0000
0101
0000
0001
0100
,  // measure 60
0110
0000
1001
0000
0000
0100
0010
0001
,  // measure 61
0100
0010
1000
0010
1000
0010
0100
0001
,  // measure 62
0101
1010
1001
0000
,  // measure 63
0011
0000
1010
0000
1100
0000
0001
1000
,  // measure 64
0001
0110
0000
0000
,  // measure 65
1001
0000
0100
0000
0001
0100
0001
0100
,  // measure 66
0010
1000
0010
0000
0200
0000
0301
0000
,  // measure 67
0001
0010
0100
0001
0010
0100
0001
0100
,  // measure 68
0010
0000
0001
0000
0000
0010
1000
0010
,  // measure 69
0100
0000
0001
0000
0100
0010
0001
0010
,  // measure 70
0001
0100
0010
0000
0002
0000
0013
0000
,  // measure 71
0001
0010
0100
0001
0010
0100
0100
0000
,  // measure 72
1010
0000
0000
1100
0000
0000
1001
0000
0000
0000
0100
0000
0010
0000
0100
0000
,  // measure 73
0110
0000
0000
0000
0010
0100
0001
0100
,  // measure 74
0001
0010
1000
0000
0020
0000
0130
0000
,  // measure 75
1000
0000
0001
0000
0100
0010
0100
0010
,  // measure 76
1000
0001
0100
0000
0010
0100
1000
0100
,  // measure 77
0001
1000
0100
0000
0001
0000
1000
0001
,  // measure 78
0010
0100
0010
0000
2000
0000
3001
0000
,  // measure 79
0100
0000
0010
1000
0100
0010
0100
0010
,  // measure 80
0011
0000
0000
0000
;
