#TITLE:In The Middle Of The Sun;
#SUBTITLE:(Bubble Mix);
#ARTIST:Pow-Wow;
#TITLETRANSLIT:;
#SUBTITLETRANSLIT:;
#ARTISTTRANSLIT:;
#GENRE:;
#CREDIT:;
#BANNER:banner.png;
#BACKGROUND:background.png;
#LYRICSPATH:;
#CDTITLE:Cdtitle.png;
#MUSIC:In The Middle Of The Sun (Bubble Mix).mp3;
#OFFSET:-0.040000;
#SAMPLESTART:45.500000;
#SAMPLELENGTH:13.599991;
#SELECTABLE:YES;
#BPMS:0.000000=145.000000
;
#STOPS:
;
#BGCHANGES:;
#KEYSOUNDS:;
#ATTACKS:;

//---------------dance-single - ----------------
#NOTES:
     dance-single:
     :
     Beginner:
     1:
     0.130498,0.169512,0.056504,0.037669,0.000000,97.000000,91.000000,6.000000,4.000000,0.000000,0.000000,0.130498,0.169512,0.056504,0.037669,0.000000,97.000000,91.000000,6.000000,4.000000,0.000000,0.000000:
0000
0000
0000
0000
,
0000
0000
0000
0000
,
0000
0000
0000
0000
,
0000
0000
0000
0000
,
0001
0000
0000
0000
,
1000
0000
0000
0000
,
1000
0000
0000
0000
,
0100
0000
0000
0000
,
0100
0000
0000
0000
,
0010
0000
0000
0000
,
0010
0000
0000
0000
,
0001
0000
0000
0000
,
1000
0000
1000
0000
,
0010
0000
0010
0000
,
0100
0000
0100
0000
,
0001
0000
0001
0000
,
0010
0000
0010
0000
,
1000
0000
1000
0000
,
0010
0000
0010
0000
,
0100
0000
0100
0000
,
1001
0000
0000
0010
,
0000
0010
0000
1000
,
0000
1000
0000
0001
,
0000
0001
0000
0000
,
1001
0000
0100
0000
,
0010
0000
0100
0000
,
1000
0000
1000
0000
,
1001
0000
0000
0000
,
0010
0000
0010
0000
,
0100
0000
0100
0000
,
0100
0000
1000
0000
,
1000
0000
0001
0000
,
0001
0000
0100
0000
,
0001
0000
0001
0000
,
1000
0000
0010
0000
,
2002
3003
0000
0000
,
0010
0000
0010
0000
,
0100
0000
0100
0000
,
1000
0000
1000
0000
,
0001
0000
0001
0000
,
0100
0000
0100
0000
,
0010
0000
0010
0000
,
1000
0000
1000
0000
,
2002
3003
0000
0000
,
0010
0000
0000
0000
,
0010
0000
0000
0000
,
0100
0000
0000
0000
,
0100
0000
0000
0000
,
1000
0000
0000
0000
,
1000
0000
0000
0000
,
1000
0000
0000
0000
,
0010
0000
0000
0000
,
0001
0001
0000
0000
,
1000
1000
0000
0000
,
0010
0010
0000
0000
,
0100
0100
0000
0000
,
0001
0001
0000
0000
,
1000
0000
0000
0000
,
0100
0100
0000
0000
,
0001
0000
0000
0000
,
1001
0000
0000
0000
;

//---------------dance-single - ----------------
#NOTES:
     dance-single:
     :
     Easy:
     3:
     0.207182,0.282520,0.047087,0.273103,0.000000,154.000000,149.000000,5.000000,29.000000,0.000000,0.000000,0.207182,0.282520,0.047087,0.273103,0.000000,154.000000,149.000000,5.000000,29.000000,0.000000,0.000000:
0000
0000
0000
0000
,
0000
0000
0000
0000
,
0000
0000
0000
0000
,
0000
0000
0000
0000
,
0010
0010
0000
0000
,
0100
0100
0000
0000
,
0010
0010
0000
0000
,
0001
0001
0000
0000
,
1000
1000
0000
0000
,
0001
0001
0000
0000
,
0100
0100
0000
0000
,
0010
0010
0000
0000
,
1000
0100
0010
0000
,
0001
0100
0010
0000
,
1000
0000
0001
0000
,
0100
0010
1000
0000
,
0001
0010
0100
0000
,
0010
1000
0100
0000
,
0010
0000
0010
0000
,
0100
0010
1001
0000
,
0100
0010
0200
0301
,
0010
0100
0000
1000
,
1000
0001
0001
0010
,
0100
1000
0200
0300
,
0010
1000
0020
1030
,
0100
0010
0001
0001
,
1000
1000
0001
1000
,
2002
0000
3003
0000
,
0000
0100
0010
0001
,
0002
0103
0010
0100
,
2000
0000
3010
0010
,
0200
0310
0001
0100
,
0020
0000
1030
1000
,
0200
0301
0001
0100
,
2000
0000
3100
0010
,
2002
0000
3003
0000
,
0000
1000
0100
0010
,
0002
0103
0001
0010
,
0200
0000
1300
1000
,
0010
0002
0103
0100
,
0020
0000
1030
0001
,
0200
0310
1000
0010
,
0002
0000
0013
0100
,
0220
0330
0000
0000
,
0002
0000
0000
0003
,
0020
0000
0000
0030
,
2000
0000
0000
3000
,
0200
0000
0000
0300
,
2000
0000
0000
3000
,
0002
0000
0000
0003
,
0200
0000
0000
0300
,
0020
0000
0000
0030
,
1000
1000
0000
0100
,
0001
0001
0000
0010
,
0100
0100
0000
0001
,
0010
0010
0000
1000
,
0001
0001
0000
0010
,
0100
0100
0000
1000
,
0010
0010
0000
0100
,
0001
0001
0010
0100
,
1001
0000
0000
0000
;

//---------------dance-single - ----------------
#NOTES:
     dance-single:
     :
     Medium:
     5:
     0.312118,0.339025,0.075339,0.583876,0.000000,232.000000,224.000000,8.000000,62.000000,0.000000,0.000000,0.312118,0.339025,0.075339,0.583876,0.000000,232.000000,224.000000,8.000000,62.000000,0.000000,0.000000:
0000
0000
0000
0000
,
0000
0000
0000
0000
,
0000
0000
0000
0000
,
0000
0000
0000
0000
,
1000
1000
0020
1030
,
0001
0001
0200
0310
,
0100
0100
0020
1030
,
0001
0001
0200
0310
,
0001
0001
0020
0130
,
1000
1000
0200
0301
,
0010
0010
2000
3100
,
0001
0100
1001
0000
,
0001
0000
0100
0000
0010
0010
0000
0000
,
0001
0000
0100
0001
0100
0000
0010
0010
,
0100
0000
1000
1000
0010
0000
0000
0000
,
0001
0100
0110
0000
,
1000
0000
0010
0000
0001
0001
0000
0000
,
0001
0000
0100
0001
1000
0000
0100
0100
,
0001
0000
0010
0010
1000
0000
0001
0000
,
0100
0010
1001
0000
,
0002
0023
0032
0013
,
0100
0000
1000
0000
0001
0000
0010
0100
,
2000
3100
0200
0310
,
0001
0100
1001
0000
,
0200
0000
0320
0000
0230
0000
0301
0001
,
0010
0001
0100
0002
,
0013
0200
0310
0100
,
0220
0330
0020
0230
,
2300
0000
3010
0000
0100
1000
0010
0000
,
0200
0301
2000
3020
,
0230
0000
0301
0000
0010
0100
0010
0000
,
2000
3010
0002
0023
,
0230
0000
0301
0000
0100
0001
0100
0000
,
0020
1030
2000
3200
,
0302
0000
0103
0000
0010
0010
0100
0000
,
0220
0000
0330
0000
,
0001
0000
0010
0100
1000
0000
0100
0000
,
0020
1030
0200
0320
,
0230
0000
0301
0000
0010
0100
0001
0000
,
0200
0301
0002
0203
,
2300
0000
3010
0000
0100
1000
0010
0000
,
0200
0310
2000
3020
,
2030
0000
3010
0000
0010
1000
0100
0000
,
2002
0000
3003
0000
,
2000
0010
0000
3010
,
0200
0001
0000
0301
,
0020
1000
0000
1030
,
0002
0100
0000
0103
,
0000
1000
1000
1000
,
0001
0001
0001
0001
,
0100
0100
0100
0100
,
0010
0010
0010
0010
,
0001
0100
0020
0031
,
1000
0010
2000
3001
,
0010
1000
0002
0103
,
1000
1000
0200
1300
,
0010
0010
2000
3001
,
1000
1000
0200
0301
,
0001
0001
0020
0031
,
0100
0100
0002
0103
,
1001
0000
0000
0000
;

//---------------dance-single - ----------------
#NOTES:
     dance-single:
     :
     Hard:
     7:
     0.431853,0.452033,0.169512,0.273103,0.037669,321.000000,303.000000,18.000000,29.000000,0.000000,0.000000,0.431853,0.452033,0.169512,0.273103,0.037669,321.000000,303.000000,18.000000,29.000000,0.000000,0.000000:
// measure 0
0000
0000
0000
0000
,  // measure 1
0000
0000
0000
0000
,  // measure 2
0000
0000
0000
0000
,  // measure 3
0000
0000
0000
0000
,  // measure 4
0001
0000
0100
0000
0001
0100
0001
0000
,  // measure 5
0010
0000
1000
0000
0010
1000
0010
0000
,  // measure 6
1000
0000
0100
0000
0010
1000
0010
0000
,  // measure 7
0001
0000
1000
0000
1000
0010
1000
0000
,  // measure 8
0020
0000
0230
0000
0310
0100
0010
0000
,  // measure 9
0002
0000
2003
0000
3001
0100
0001
0000
,  // measure 10
0002
0000
0203
0000
0310
0001
0100
0000
,  // measure 11
0001
1000
1001
0000
,  // measure 12
0001
0100
0010
0100
0010
1000
0000
0000
,  // measure 13
1000
0100
0010
0001
0010
0000
0010
0010
,  // measure 14
0100
0000
0010
1000
0100
0000
0001
0000
,  // measure 15
0100
0010
0001
0010
0100
0000
0000
0000
,  // measure 16
1000
0001
0100
0001
0100
0010
0000
0000
,  // measure 17
1000
0100
0010
0001
0100
0000
1000
1000
,  // measure 18
0010
0000
0010
1000
0010
0000
0010
0000
,  // measure 19
1000
0100
0010
0100
1000
0000
0000
0000
,  // measure 20
1100
0000
0101
0000
1001
0000
0001
0010
,  // measure 21
0100
1000
0010
0100
1000
0000
0100
0001
,  // measure 22
0020
0000
0130
1000
0200
0000
1300
0000
,  // measure 23
0010
1000
0010
0100
0100
0000
0000
0000
,  // measure 24
0110
0000
1001
0000
0110
0000
0100
0010
,  // measure 25
0001
0100
0010
1000
0100
0000
0001
0000
,  // measure 26
0101
0100
0110
0100
,  // measure 27
2002
3003
0010
0010
,  // measure 28
0100
0000
1000
0010
0100
0001
0100
0010
,  // measure 29
0100
0000
1001
0000
1000
0100
0010
0001
,  // measure 30
0010
0000
0001
0100
0010
1000
0001
0100
,  // measure 31
0010
0000
0110
0000
0100
0010
0001
1000
,  // measure 32
0100
0000
0001
0010
1000
0010
1000
0100
,  // measure 33
0010
0000
0110
0000
0100
1000
0001
0010
,  // measure 34
0100
0000
0001
0100
1000
0100
0010
0100
,  // measure 35
0020
0000
0030
0000
0010
0001
0100
0001
,  // measure 36
0100
0000
0001
0010
0100
1000
0010
1000
,  // measure 37
0100
0000
1100
0000
0100
1000
0010
1000
,  // measure 38
0010
0000
1000
0100
0001
0100
0001
0100
,  // measure 39
0010
0000
0110
0000
0001
0010
0100
1000
,  // measure 40
0100
0000
0010
0001
1000
0001
0100
0010
,  // measure 41
0100
0000
0110
0000
1000
0100
1000
0100
,  // measure 42
0010
0000
0100
0001
0100
0010
1000
0010
,  // measure 43
2020
0000
0000
3030
,  // measure 44
1000
0000
0000
0000
1000
0000
0000
1000
0000
0000
1000
0000
0000
0000
0100
0000
,  // measure 45
0010
0000
0000
0000
0010
0000
0000
0010
0000
0000
0010
0000
0000
0000
0001
0000
,  // measure 46
0001
0000
0000
0000
0001
0000
0000
0001
0000
0000
0001
0000
0000
0000
0100
0000
,  // measure 47
0010
0000
0000
0000
0100
0000
0000
0100
0000
0000
0100
0000
0000
0000
0010
0000
,  // measure 48
1000
0000
0000
0000
1000
0000
0000
1000
0000
0000
0100
0000
0000
0000
0010
0000
,  // measure 49
0100
0000
0000
0000
0001
0000
0000
0010
0000
0000
0001
0000
0000
0000
0001
0000
,  // measure 50
0010
0000
0000
0000
0100
0000
0000
0010
0000
0000
0100
0000
0000
0000
1000
0000
,  // measure 51
0100
0000
0000
0000
0100
0000
0000
0100
0000
0000
0100
0000
0010
0000
0000
0000
,  // measure 52
0002
0000
0203
0000
0310
0100
0010
0000
,  // measure 53
2000
0000
3020
0000
1030
0010
1000
0000
,  // measure 54
0200
0000
0320
0000
0130
0010
0100
0000
,  // measure 55
2000
0000
3002
0000
1003
0001
1000
0000
,  // measure 56
2000
0000
3020
0000
1030
0010
0100
0000
,  // measure 57
0002
0000
0023
0000
0031
0010
0001
0000
,  // measure 58
0200
0000
0302
0000
0103
0001
0010
0000
,  // measure 59
2000
0000
3020
0000
1030
0010
0100
0000
,  // measure 60
1001
0000
0000
0000
;
