#TITLE:I WANT YOU TO KNOW;
#SUBTITLE:;
#ARTIST:ZEDD feat. SELENA GOMEZ;
#TITLETRANSLIT:;
#SUBTITLETRANSLIT:;
#ARTISTTRANSLIT:;
#CREDIT:;
#BANNER:banner.png;
#BACKGROUND:background.png;
#LYRICSPATH:;
#CDTITLE:Cdtitle.png;
#MUSIC:I Want You To Know.mp3;
#OFFSET:-0.040;
#SAMPLESTART:44.320;
#SAMPLELENGTH:15.000;
#SELECTABLE:YES;
#BPMS:0.000=130.000;
#STOPS:156.000=0.900
;
#BGCHANGES:0.000=I Want You To Know.avi=1.000=1=0=0,
99999=-nosongbg-=1.000=0=0=0 // don't automatically add -songbackground-
;

//---------------dance-single - ----------------
#NOTES:
     dance-single:
     :
     Beginner:
     3:
     0.109,0.214,0.000,0.008,0.000:
0000
0000
0000
0000
,
0000
0000
0000
0000
,
0000
0000
1000
0000
,
1000
0000
0001
0000
,
0001
0000
0000
0000
,
0010
0000
0010
0000
,
0100
0000
1000
0000
,
1000
0000
0010
0000
,
0010
0000
0000
0000
,
0100
0000
0100
0000
,
0000
0000
0010
0000
,
0010
0000
0010
0000
,
0001
0000
1000
0000
,
1000
0000
1000
0000
,
0001
0000
0001
0000
,
0001
0000
0000
0000
,
0010
0000
0000
0000
,
0010
0000
0000
0000
,
0100
0000
0000
0000
,
0100
0000
0000
0000
,
1000
0000
0000
0000
,
1000
0000
0000
0000
,
0001
0000
0000
0000
,
0001
0000
0000
0000
,
0010
0010
0010
0010
,
0000
0000
0100
0100
,
0100
0000
0000
0000
,
1000
1000
1000
0000
,
0001
0001
0001
0000
,
0000
0000
0010
0010
,
0010
0000
0000
0000
,
0100
0000
0100
0000
,
0010
0010
0010
0010
,
0000
0000
0000
0000
,
1000
1000
1000
1000
,
0000
0000
0000
0000
,
0001
0001
0001
0001
,
0001
0001
0010
0000
,
0020
0000
0000
0000
,
0000
0030
0000
0000
,
0000
0000
1000
0000
,
0000
0000
1000
0000
,
0000
0000
0010
0000
,
0000
0000
0100
0000
,
0000
0000
0001
0000
,
0000
0000
0001
0000
,
0000
0000
0010
0000
,
0000
0000
1000
0000
,
0000
0000
0100
0000
,
0000
0000
0010
0000
,
0000
0000
1000
0000
,
0000
0001
0000
0000
,
0000
0000
0010
0000
,
0000
0000
0010
0000
,
0000
0000
0100
0000
,
0000
0000
0100
0000
,
0000
0000
1000
0000
,
0000
0000
1000
0000
,
0000
0000
0010
0000
,
0000
0000
0000
0000
,
0000
0000
0100
0000
,
0001
0000
0010
0000
,
0000
0100
0000
0000
,
0010
0000
0010
0000
;

//---------------dance-single - ----------------
#NOTES:
     dance-single:
     :
     Easy:
     5:
     0.296,0.401,0.135,0.093,0.000:
0000
0000
0000
0000
,
0000
0000
0000
0000
,
0000
0000
0100
0001
,
0100
0000
1000
0010
,
1000
0000
0001
0100
,
0001
0100
0010
0010
,
0100
0000
0001
1000
,
0001
0000
0100
0010
,
0100
0000
0001
1000
,
0100
0000
0100
1000
,
0010
0000
0010
0000
,
0001
1000
0001
1000
,
0010
0000
0001
0001
,
1000
0000
0100
0100
,
0010
0000
0010
0100
,
0010
0100
0001
0100
,
0010
0000
0010
0010
,
0020
0000
0130
0100
,
0200
0000
0300
0001
,
1000
0000
1000
0001
,
1000
0000
1000
1000
,
2000
0000
3001
0001
,
0002
0000
0003
0100
,
0001
0100
0010
0100
,
0001
0001
0001
1000
,
0002
0000
0100
0100
,
0103
0010
1000
0010
,
0001
0001
0001
0100
,
0010
0001
1000
1000
,
2000
0000
0010
0010
,
3010
0100
0001
1000
,
0100
0001
0100
1000
,
0001
0010
0100
1000
,
0001
0010
0100
1000
,
0010
1000
0010
1000
,
0010
1000
0010
0100
,
1001
1001
1001
1001
,
1001
1001
0010
0100
,
0020
1000
1000
1030
,
1001
0110
0001
0100
,
0001
0010
0100
0001
,
1000
1000
0010
0100
,
0001
0010
1000
0100
,
0100
0110
0001
1000
,
0010
0001
0100
0010
,
0001
0001
0100
0010
,
1000
0010
1001
1001
,
2000
3002
0103
0001
,
0100
0001
1000
0010
,
0100
1001
0010
0100
,
0001
1000
0100
0010
,
0001
0011
0001
1000
,
0001
0010
0010
0100
,
0001
0011
1000
0001
,
0100
0010
1000
0100
,
1000
0100
0010
0001
,
0010
1000
0020
0000
,
1000
1000
1030
0000
,
0001
0010
0100
1000
,
0010
0100
0101
0010
,
1000
0100
0200
0000
,
0001
0001
0301
0000
,
0100
0001
1000
0010
,
1000
0010
0110
0000
;

//---------------dance-single - ----------------
#NOTES:
     dance-single:
     :
     Medium:
     6:
     0.406,0.454,0.244,0.050,0.000:
0000
0000
0000
0000
,
0000
0000
0000
0000
,
0000
0000
0010
1010
,
1000
1100
0001
1001
,
1000
0000
0000
0000
0100
0001
0100
0010
,
1000
0001
0100
0100
,
1000
0001
0001
1001
,
1000
1010
0010
0110
,
0100
0000
0001
1000
,
0001
0010
0001
0000
0100
0000
1000
0000
,
0010
0000
0100
0001
,
1000
0010
1000
0000
0001
0010
0001
0000
,
0100
0000
0010
0000
0001
0010
0100
0000
,
1000
0001
0010
1000
,
0010
0000
0000
0000
0010
0001
0010
0000
,
0010
1000
0010
0000
0100
0000
0001
0000
,
0101
0000
0000
0000
1000
0000
0100
0100
,
0200
0300
0001
0100
,
0002
0000
0003
0000
0000
0001
0010
0001
,
0000
0010
0010
0010
0000
0000
0011
0000
,
1000
0000
0001
0000
0010
0000
0010
0010
,
0020
0000
0000
0030
0100
0000
0010
0000
,
0002
0000
0000
0003
0000
0000
0100
0010
,
0100
0000
0001
0001
0001
0000
0100
0000
,
0010
0000
0100
0000
0001
0100
1000
0100
,
0001
0010
0110
0110
,
0110
0000
0010
0000
0000
0001
0010
0001
,
0000
0010
0010
0010
0001
0000
0100
0000
,
0010
0000
0001
0010
1000
0100
1000
1000
,
1000
0010
1001
1001
,
1001
0000
0100
0000
0001
0010
1000
0010
,
0000
0001
0001
0001
0100
0000
1000
0000
,
0100
0010
0100
0010
,
0100
0010
0100
0110
,
0001
1000
0001
1000
,
0001
1000
0001
1000
,
1001
0110
1001
0110
,
1001
0110
1001
0110
,
0001
0001
0001
0100
0100
0010
0010
0100
,
0110
0000
0110
0000
0010
1000
0010
0000
,
0100
1000
0001
0000
0100
0010
0001
0000
,
1000
0001
1000
0000
0010
0001
0100
0000
,
0100
0010
0001
0000
1000
0001
1000
0000
,
0100
0001
0010
0010
0001
1000
0010
0000
,
0001
1000
0010
0000
0100
0010
0100
0000
,
0001
0010
0100
0000
1000
0010
1000
0000
,
0001
0010
0100
0000
0110
0000
1001
0000
,
1000
0100
1000
0001
0100
0010
0001
0000
,
0010
0001
0010
0000
1000
0100
0010
0000
,
0100
0001
0100
0000
0010
0001
0100
0000
,
0100
0010
0100
0000
1000
0001
0100
0000
,
0001
0100
0010
0010
0001
0100
1000
0000
,
0010
0100
0001
0000
0100
0001
0100
0000
,
0001
0100
0010
0000
1000
0010
0001
0000
,
0010
1000
0010
0000
0100
0001
1000
0000
,
0010
1000
0001
0000
1000
0001
0100
0000
,
0010
0010
0100
0100
0200
0000
0000
0300
,
0001
0000
1000
0000
0010
0100
0010
0000
,
0001
1000
0010
0000
0100
0010
0001
0000
,
0001
1000
1001
0001
,
1000
1000
0010
0010
0020
0000
0000
0030
,
0100
0010
1000
0010
,
0000
0000
0001
0100
0010
0000
0010
0100
,
1000
0001
1001
0000
;

//---------------dance-single - ----------------
#NOTES:
     dance-single:
     :
     Hard:
     8:
     0.489,0.481,0.151,0.034,0.008: // measure 1
0000
0000
0000
0000
,  // measure 2
0000
0000
0000
0000
,  // measure 3
0000
0000
0000
0000
0010
1000
0010
0000
,  // measure 4
1000
0100
0010
0000
0001
1000
0001
0000
,  // measure 5
1001
0000
0100
0000
0010
1000
0010
1000
,  // measure 6
0100
0000
0010
0000
1000
0001
1000
0000
,  // measure 7
1000
0000
0001
0000
0001
0010
0001
0000
,  // measure 8
0100
0010
1000
0000
0001
1000
0001
0000
,  // measure 9
1001
0000
0010
0000
0100
1000
0010
0000
,  // measure 10
0001
0010
0001
0100
0100
0001
0010
0000
,  // measure 11
0100
0000
1000
0000
0001
0010
0100
0000
,  // measure 12
1000
0010
0100
0000
0001
0010
0001
0000
,  // measure 13
0100
0000
0101
0000
0001
0010
0100
0000
,  // measure 14
1000
0010
0100
0000
0001
0100
0001
1000
,  // measure 15
0100
0100
0000
0000
0001
0001
0010
0000
,  // measure 16
1000
1000
1001
0000
1001
0000
0110
0000
,  // measure 17
0001
0100
0000
0100
0001
0010
0001
0100
,  // measure 18
0020
0000
0031
0100
0001
0000
0010
0000
,  // measure 19
0200
0000
0301
0000
0000
1000
0010
1000
,  // measure 20
0000
0001
0010
0001
0000
0010
1010
0000
,  // measure 21
0010
0100
0001
0100
0010
0000
0001
0010
,  // measure 22
0200
0301
0010
0100
,  // measure 23
2000
0000
3001
0000
0010
0000
0001
0010
,  // measure 24
0100
0000
0001
1000
0010
0000
0001
0000
,  // measure 25
1000
0000
0001
0000
0010
0001
1000
0001
,  // measure 26
0100
0000
0001
0100
1000
0001
0010
0100
,  // measure 27
1001
0000
0010
1000
0000
0001
0100
0010
,  // measure 28
0000
0100
0010
0001
0100
0000
0101
0000
,  // measure 29
1000
0100
1000
0010
0001
0100
1000
0010
,  // measure 30
1000
0000
1001
0000
0010
0100
0010
1000
,  // measure 31
0001
0100
0100
0000
0001
0010
1000
0010
,  // measure 32
0000
0100
0010
0001
0100
0000
0110
0000
,  // measure 33
0001
0010
0001
1000
,  // measure 34
0100
1000
0100
1100
,  // measure 35
0001
1000
0001
1000
,  // measure 36
0010
0100
0010
0100
,  // measure 37
0010
0010
0010
1000
1000
1000
0001
0001
,  // measure 38
0001
0100
0100
0100
0010
0010
0010
1000
,  // measure 39
1000
1000
0100
0010
0001
0100
0010
0001
,  // measure 40
0101
0001
1001
0000
0010
0001
1000
0010
,  // measure 41
0100
1000
0001
0100
1000
0100
0001
0010
,  // measure 42
0001
0100
0100
0000
1000
0001
0010
1000
,  // measure 43
0100
0010
0001
0100
0010
0100
0001
1000
,  // measure 44
0100
0010
0010
0000
1000
1000
0010
0100
,  // measure 45
0001
1000
0100
0010
0001
0100
0010
1000
,  // measure 46
0001
0010
0100
0000
0001
0100
0010
0100
,  // measure 47
1000
0001
1000
0000
1100
0000
0101
0000
,  // measure 48
1000
0100
1000
0000
0100
0010
0001
0000
0001
0000
0100
0000
0010
0000
0001
0000
,  // measure 49
1000
0001
1000
0010
0001
0100
0010
1000
,  // measure 50
0001
0001
0001
0000
0010
0001
0100
0010
,  // measure 51
0001
0010
0100
1000
0010
1000
0100
1000
,  // measure 52
0001
0010
0010
0000
1000
0100
0010
0001
,  // measure 53
0100
1000
0010
0100
1000
0001
0100
0001
,  // measure 54
1000
0010
0010
0000
0100
0010
0001
0100
,  // measure 55
0010
0001
0100
1000
0010
0001
0010
1000
,  // measure 56
0100
0010
0001
0100
0010
1000
0010
1000
,  // measure 57
0100
0010
0100
0001
0001
0000
0100
0001
,  // measure 58
0010
0000
0100
0000
0001
0100
0001
1000
,  // measure 59
0010
0000
0010
0001
0010
1000
0100
1000
,  // measure 60
0010
0000
1000
0000
1010
0010
0001
0100
,  // measure 61
0001
1000
0100
0010
0100
0000
0001
0010
,  // measure 62
1000
0001
0010
1000
1000
0000
0010
0000
,  // measure 63
0100
0000
0001
0100
0001
0000
0010
1000
,  // measure 64
0010
0100
1001
0000
;
