#TITLE:HOUDINI;
#SUBTITLE:;
#ARTIST:FOSTER THE PEOPLE;
#TITLETRANSLIT:;
#SUBTITLETRANSLIT:;
#ARTISTTRANSLIT:;
#CREDIT:;
#BANNER:banner.png;
#BACKGROUND:background.png;
#LYRICSPATH:;
#CDTITLE:Cdtitle.png;
#MUSIC:Houdini.mp3;
#OFFSET:-0.060;
#SAMPLESTART:113.540;
#SAMPLELENGTH:16.420;
#SELECTABLE:YES;
#BPMS:0.000=110.000;
#STOPS:;
#BGCHANGES:4.000=Houdini.avi=1.000=1=0=0,
272.000=background.png=1.000=1=0=0,
99999=-nosongbg-=1.000=0=0=0 // don't automatically add -songbackground-
;

//---------------dance-single - ----------------
#NOTES:
     dance-single:
     :
     Beginner:
     3:
     0.124,0.182,0.000,0.074,0.000:
0000
0000
0000
0000
,
0000
0000
0000
0000
,
0000
0000
0000
0000
,
0000
0000
0000
0000
,
0100
0000
0000
0000
,
0001
0000
0010
0010
,
0000
0000
0100
0000
,
1000
0000
0010
0010
,
0000
0000
0001
0001
,
0000
0000
0010
0010
,
0000
0000
0000
0000
,
0200
0000
0320
0000
,
0030
0000
0000
0001
,
0000
0000
0010
0010
,
1000
0000
0100
0100
,
0000
0000
0000
0000
,
0001
0000
0001
0000
,
0010
0000
0010
0000
,
0100
0000
0100
0000
,
1000
0000
1000
0000
,
0010
0000
0010
0000
,
1000
0000
0000
0001
,
0100
0000
0000
0000
,
0010
0000
1000
1000
,
0000
0000
0000
0000
,
0001
0000
0001
0000
,
0001
0000
0000
0000
,
0100
0000
0000
0000
,
0020
0000
0000
0030
,
0000
2000
0000
3000
,
0000
0002
0000
0003
,
0000
0000
0020
0030
,
0200
0000
0000
0300
,
0002
0000
0000
0003
,
2000
0000
3000
0000
,
0020
0000
0000
0030
,
0100
0000
1000
1000
,
0000
0000
0010
0000
,
0010
0000
0010
0000
,
0001
0000
0001
0000
,
0001
0000
0100
0100
,
0010
0000
0000
1000
,
1000
0000
0000
0000
,
0100
0000
0010
0010
,
0001
0000
0000
0000
,
1000
0000
0000
0000
,
0010
0000
0000
0000
,
0100
0000
0000
0000
,
0001
0001
0001
0000
,
1000
1000
1000
0000
,
0010
0010
0010
0000
,
0100
0100
0100
0000
,
0001
0001
0001
0000
,
1000
1000
1000
0000
,
0010
0100
0010
0010
,
0001
0000
1000
1000
,
0001
0001
0010
0000
,
0100
0000
0010
1000
,
0000
0000
0100
0001
,
0000
0000
0010
1000
,
0100
0000
0001
0000
,
0010
0000
0100
0100
,
0000
0000
1000
0000
,
0001
0000
0010
0000
,
0100
0000
0000
0000
,
1000
0000
0010
0000
,
0100
0000
0000
0000
,
0020
0000
0030
0000
;

//---------------dance-single - ----------------
#NOTES:
     dance-single:
     :
     Easy:
     5:
     0.249,0.251,0.068,0.169,0.000:
0000
0000
0000
0000
,
0000
0000
0000
0000
,
0000
0000
0000
0000
,
0000
0000
0000
0000
,
0100
0010
0001
1000
,
2000
0000
0010
3010
,
0001
0100
0001
0100
,
0200
0000
0001
0301
,
0010
0100
0010
0010
,
0002
0000
0100
0103
,
0010
0100
1000
0100
,
2000
0000
0020
0000
,
3030
0100
0001
0101
,
0001
0100
0001
1000
,
0100
0001
0100
0100
,
0001
1000
0010
0100
,
0010
1000
0100
1100
,
0001
0100
0010
0001
,
0100
0100
0001
0001
,
1000
0000
1000
0100
,
1000
0010
0010
0100
,
2000
0000
0001
3001
,
1000
0010
0100
0001
,
0002
0000
0010
1003
,
0002
0000
0100
0103
,
0010
0100
1000
1000
,
0020
0000
0100
0130
,
0001
0100
0010
0010
,
0020
0000
1000
1030
,
2000
0000
0001
3001
,
0200
0000
0010
0310
,
0002
0000
0100
0103
,
2000
0000
0100
3100
,
0020
0000
1000
1030
,
0002
0000
0010
0013
,
0020
0000
0100
0130
,
0001
0010
0001
0101
,
0000
0010
1000
0010
,
0100
0001
0010
0010
,
0001
0010
0100
0010
,
1000
0010
1000
1001
,
0000
0100
0001
0100
,
0000
1000
0001
1000
,
0010
0100
0010
0100
,
0100
0001
0010
0101
,
0001
0100
0001
0010
,
0000
0010
0100
0001
,
0100
0010
1000
0100
,
0010
0001
0001
0011
,
1000
0000
1000
1000
,
0001
0010
0001
0000
,
0010
0100
0010
0100
,
0001
0010
0100
1001
,
0010
1000
0010
0110
,
0001
0100
0010
1010
,
0100
0001
0100
1100
,
0100
0100
0020
0031
,
1000
1000
0200
0310
,
0001
0001
2000
3010
,
0100
0100
0002
0103
,
0100
0010
0001
0100
,
0020
0000
1000
1030
,
0000
0001
0010
0100
,
0002
0000
0100
0103
,
0000
0001
0100
0010
,
0002
0000
0010
0013
,
0100
0001
1000
0100
,
0020
0000
0030
0000
;

//---------------dance-single - ----------------
#NOTES:
     dance-single:
     :
     Medium:
     6:
     0.319,0.342,0.054,0.108,0.000:
0000
0000
0000
0000
,
0000
0000
0000
0000
,
0000
0000
0000
0000
,
0000
0000
0000
0000
,
0010
0000
0100
0010
1000
0000
1000
0000
,
0010
1000
0200
0301
,
1000
0000
0010
0100
0001
0000
0010
0000
,
0100
0010
0200
0301
,
0010
0000
1000
0010
1000
0000
0100
0000
,
0001
0010
2000
3010
,
0010
0000
0100
0010
0100
0000
0001
0000
,
1000
0100
0002
0003
,
0001
0010
0001
0000
0100
0010
0100
0000
,
1000
0000
0010
0001
0001
0000
1000
0000
,
0100
0000
0001
0000
0010
0010
0010
0000
,
0001
1000
0010
0100
,
0010
0001
1000
0000
0100
0010
1000
0000
,
0001
0100
0010
0001
,
1000
0100
1000
0000
0001
0100
0100
0000
,
1000
0010
0001
0010
,
0100
0010
0010
0100
,
0001
0000
0001
0000
0001
0010
0100
0000
,
1000
1000
1000
1000
,
1000
0100
1000
0000
1000
0100
0010
0000
,
0001
0100
0010
0010
,
0010
0001
0100
0000
0010
1000
0010
0000
,
0001
0010
0010
1000
,
0001
0010
0100
0000
1000
0100
0010
0100
,
1000
0010
2000
3010
,
0100
0010
0200
0301
,
0010
0100
0020
1030
,
0100
0010
0002
0103
,
0010
1000
0200
0301
,
0010
0100
2000
3010
,
0100
0001
0020
0130
,
0001
0100
0002
0103
,
0001
0000
0100
0000
0001
0100
1000
0000
,
0001
0000
0100
0000
1000
1000
0010
0000
,
0100
0000
0001
0000
1000
0010
0100
0000
,
0010
0000
0001
0000
1000
0100
0100
0010
,
1000
0000
0100
0000
1000
0001
1000
0000
,
0001
0000
0100
0000
0001
0100
0001
0000
,
0100
0000
0001
0000
1000
0001
1000
0000
,
0010
0000
0100
0000
0010
0100
0001
0100
,
1000
0000
0100
0000
0010
0100
1000
0000
,
0100
0000
0001
0000
1000
0010
0010
0000
,
0001
0100
0010
0001
,
0100
0000
0010
0000
1000
0010
1000
0010
,
1000
0100
0010
0000
0001
0001
0001
0000
,
0100
0000
0010
0000
1000
0100
0100
0000
,
0010
0100
0001
1000
,
0100
0000
0010
0000
0001
0100
0001
0100
,
0010
0100
0010
0000
0100
1000
1100
0000
,
0010
0100
1000
0000
0010
0100
0110
0000
,
1000
0010
0100
0000
0010
0001
0011
0000
,
0001
0100
0001
0000
0100
0010
0110
0000
,
0001
0000
0100
0000
0001
1000
1001
0000
,
0010
0000
0100
0000
0100
1000
1100
0000
,
0010
0000
0010
0000
0100
0100
0101
0000
,
0001
0000
0100
0000
0010
0010
1010
0000
,
0001
0100
0010
0000
0001
0000
0100
0000
,
0001
0010
2000
3001
,
0100
0010
0100
0000
0001
0000
0100
0000
,
0001
0010
0200
1300
,
0010
0001
0010
0000
1000
0000
0100
0000
,
0001
0100
0020
0031
,
1000
0010
0001
0000
0100
0000
0001
0000
,
0020
0000
0030
0000
;

//---------------dance-single - ----------------
#NOTES:
     dance-single:
     :
     Hard:
     7:
     0.390,0.388,0.115,0.007,0.084: // measure 1
0000
0000
0000
0000
,  // measure 2
0000
0000
0000
0000
,  // measure 3
0000
0000
0000
0000
,  // measure 4
0000
0000
0000
0000
,  // measure 5
0001
0000
0000
0001
0010
0000
0100
0000
0010
0000
0000
0000
1000
0000
0000
0000
,  // measure 6
0010
1000
1100
0101
,  // measure 7
1000
0000
0000
0001
0010
0000
0100
0000
0001
0000
0000
0000
0010
0000
0000
0000
,  // measure 8
0100
0010
0011
1010
,  // measure 9
0010
0000
0000
0100
1000
0000
0100
0000
0010
0000
0000
0000
0100
0000
0000
0000
,  // measure 10
0001
0010
0110
1010
,  // measure 11
0010
0000
0000
0010
0100
0000
1000
0000
0001
0000
0000
0000
0010
0000
0000
0000
,  // measure 12
1000
1000
0001
0001
,  // measure 13
0100
0000
0010
0000
1000
0000
0000
0010
0100
0000
0010
0000
0100
0000
0000
0000
,  // measure 14
0010
0000
0010
0001
0001
0000
1000
0000
,  // measure 15
0100
0010
0000
0010
0001
0000
0010
0000
0100
0000
0100
0000
0100
0000
0000
0000
,  // measure 16
0010
0001
1000
0100
,  // measure 17
0001
0000
1000
0000
0100
0000
0000
0100
0010
0000
0001
0000
0001
0000
0000
0000
,  // measure 18
0001
0000
0100
0001
0100
0000
0010
0000
,  // measure 19
0001
0000
0100
0000
1000
0000
0000
0010
0001
0000
1000
0000
1000
0000
0000
0000
,  // measure 20
1000
0000
0010
0100
1000
0000
0001
0000
,  // measure 21
0100
0000
0100
0010
0001
0000
0100
0000
,  // measure 22
0010
0100
1000
0001
0010
0100
1000
0000
,  // measure 23
1000
0000
1000
0010
0100
0000
0001
0000
,  // measure 24
1000
0100
0010
1000
0100
0010
0001
0000
,  // measure 25
0001
1000
0100
0000
0001
0000
1000
0000
,  // measure 26
0100
0001
0100
0001
0010
0001
0010
0000
,  // measure 27
0001
0000
0010
1000
0001
0000
0100
0000
,  // measure 28
1000
0010
0100
0001
0010
0100
0100
0010
,  // measure 29
0110
0000
0000
0100
0010
0000
0100
0000
1000
0000
0100
0000
0010
0000
0000
0000
,  // measure 30
0100
0000
0000
0001
0010
0000
0001
0000
0010
0000
0100
0000
1000
0000
0000
0100
,  // measure 31
0010
0100
0010
0001
1000
0000
0001
0000
,  // measure 32
0100
0000
0000
1000
0100
0000
0010
0000
0001
0000
0000
0000
0100
0000
0000
0000
,  // measure 33
0010
0000
0000
0100
0001
0000
0100
0000
0010
0000
1000
0000
0001
0000
0000
0000
,  // measure 34
0010
0000
0000
1000
0100
0000
1000
0000
0001
0000
0001
0000
0100
0000
0000
0000
,  // measure 35
0100
0000
0000
0001
0010
0000
0001
0000
0100
0000
0000
0000
1000
0000
0000
0000
,  // measure 36
0001
0000
0000
0010
1000
0000
0010
0000
0100
0000
0001
0000
0010
0000
0000
0000
,  // measure 37
0001
0100
0001
0010
0100
1000
0100
0000
,  // measure 38
0001
0000
0100
0100
0010
0010
0010
0000
,  // measure 39
0100
0000
0001
0010
1000
0100
1000
0000
,  // measure 40
1000
0001
1000
0001
0010
0100
0010
0100
,  // measure 41
1000
0010
0001
0010
1000
0100
0010
0000
,  // measure 42
0100
0100
0010
0000
0001
0100
0001
0000
,  // measure 43
0010
1000
0010
0000
1000
0001
1000
0000
,  // measure 44
0010
0010
0100
0100
0001
0010
0100
0000
,  // measure 45
0001
0010
1000
0100
0001
0100
0100
0000
,  // measure 46
0100
0000
0001
0000
0100
0010
0100
0100
,  // measure 47
0001
0000
0010
0001
0100
0010
1000
0010
,  // measure 48
0100
0000
0010
0000
0100
0010
0100
0001
,  // measure 49
0100
0010
0010
0000
0001
0010
0100
0000
,  // measure 50
0001
0000
1000
0010
1000
0100
0100
0000
,  // measure 51
0010
0000
0100
1000
0100
0000
1000
0010
,  // measure 52
0100
0000
0001
0000
0001
1000
0001
0100
,  // measure 53
0001
0100
1000
0100
1100
0100
1000
0000
,  // measure 54
0010
1000
0001
0010
0110
0100
0010
0000
,  // measure 55
0100
0010
1000
0001
0011
0010
0001
0000
,  // measure 56
0010
0100
0001
0010
1010
0010
1000
0000
,  // measure 57
0001
0000
0100
0000
0010
0001
0100
0000
1000
0000
0100
0000
1000
0000
0000
0000
,  // measure 58
0010
0000
0000
0000
0100
0000
0000
1000
0100
0000
1000
0000
0100
0000
0100
0000
,  // measure 59
0010
0000
0000
0000
0010
0000
0000
0001
0100
0000
0001
0000
0010
0000
0000
0000
,  // measure 60
1000
0000
0000
0000
0001
0000
0000
0100
0010
0000
0001
0000
0010
0000
0000
0100
,  // measure 61
0001
0100
0001
0000
0001
0000
1000
0000
,  // measure 62
0001
0010
0110
1001
,  // measure 63
0100
0000
0000
0010
0100
0000
0010
0000
0100
0000
0000
0000
0001
0000
0000
0000
,  // measure 64
0001
0010
1010
0101
,  // measure 65
0010
0000
0000
0100
1000
0000
0100
0000
0010
0000
0000
0000
0100
0000
0000
0000
,  // measure 66
0001
0100
0011
1010
,  // measure 67
1000
0000
0000
0100
0001
0000
0100
0000
0010
0000
0000
0000
1000
0000
0000
0000
,  // measure 68
0002
0000
0003
0000
;
