#TITLE:GHOST TOWN;
#SUBTITLE:;
#ARTIST:ADAM LAMBERT;
#TITLETRANSLIT:;
#SUBTITLETRANSLIT:;
#ARTISTTRANSLIT:;
#CREDIT:;
#BANNER:banner.png;
#BACKGROUND:background.png;
#LYRICSPATH:;
#CDTITLE:Cdtitle.png;
#MUSIC:Ghost Town.mp3;
#OFFSET:-0.100;
#SAMPLESTART:92.060;
#SAMPLELENGTH:18.000;
#SELECTABLE:YES;
#BPMS:0.000=120.000;
#STOPS:;
#BGCHANGES:0.000=Ghost Town.avi=1.000=1=0=0,
99999=-nosongbg-=1.000=0=0=0 // don't automatically add -songbackground-
;

//---------------dance-single - ----------------
#NOTES:
     dance-single:
     :
     Beginner:
     1:
     0.096,0.147,0.023,0.008,0.000:
0000
0000
0000
0000
,
0000
0000
0000
0000
,
0000
0000
0000
0000
,
0000
0000
0000
0000
,
1000
0000
0000
0000
,
0100
0000
0000
0000
,
0100
0000
0000
0000
,
1000
0000
0000
0000
,
0001
0000
0000
0000
,
0010
0000
0000
0000
,
0100
0000
0000
0000
,
0001
0000
0000
0000
,
0010
0000
0000
0000
,
0010
0000
0000
0000
,
0100
0000
0000
0000
,
0010
0000
0000
0000
,
1000
0000
0000
0000
,
0100
0000
0000
0000
,
0010
0000
0000
0000
,
0100
0000
0000
0000
,
0001
0000
0000
0000
,
1000
0000
0010
0000
,
1000
0000
0000
0000
,
0100
0000
0000
0000
,
0010
0000
0000
0000
,
0001
0000
1000
1000
,
0100
0000
0000
0000
,
0010
0000
0010
0000
,
0010
0000
0100
0000
,
0100
0000
0010
0010
,
1000
0000
1000
0000
,
1000
0000
0010
0000
,
0100
0000
0100
0000
,
0001
0000
0001
0000
,
0010
0000
0010
0000
,
0100
0000
0100
0000
,
0010
0000
0010
0000
,
1000
0000
0000
0000
,
1001
0000
0000
0000
,
0100
0000
0000
0000
,
0000
0000
0010
0000
,
0000
0000
0000
0000
,
0110
0000
0000
0000
,
1000
0000
0000
0000
,
1001
0000
0000
0000
,
0010
0000
1000
1000
,
0100
0000
0100
0000
,
0010
0000
0010
0000
,
1000
0000
1000
0000
,
0001
0000
0001
0000
,
0010
0000
0010
0000
,
1000
0000
1000
0000
,
0100
0000
0100
0000
,
0010
0000
0000
0000
,
0100
0000
0000
0000
,
0001
0000
0000
0000
,
0001
0000
0000
0000
,
0100
0000
1000
1000
,
0010
0000
0000
0000
,
0100
0000
0000
0000
,
0001
0000
0000
0000
,
1000
0000
0000
0000
,
0020
0000
0000
0000
,
0000
0000
0030
0000
;

//---------------dance-single - ----------------
#NOTES:
     dance-single:
     :
     Easy:
     3:
     0.213,0.244,0.069,0.092,0.000:
0000
0000
0000
0000
,
0000
0000
0000
0000
,
0000
0000
0000
0000
,
0000
0000
0000
0000
,
0001
0000
0100
0100
,
0001
0000
0010
0010
,
1000
0000
0010
0001
,
0010
0000
1000
1000
,
0001
0000
0010
0010
,
0001
0000
0100
1000
,
0100
0000
0010
1000
,
0010
0000
0001
0001
,
0100
0000
0001
0100
,
0001
0000
1000
0100
,
0010
0000
0001
1000
,
0001
0000
0100
0100
,
0001
0000
0010
1000
,
0010
0000
0001
0010
,
0100
0000
0010
1000
,
0100
0000
0010
0010
,
1000
1000
0200
0000
,
0000
0000
0010
0020
,
0330
0000
0001
1000
,
0001
0000
0010
0100
,
0010
0000
0000
0100
,
1000
0010
1000
0010
,
1010
0001
0010
0100
,
0100
0100
1000
0100
,
0010
0010
0010
0001
,
1000
1000
1000
0001
,
1001
0010
0100
1000
,
0001
0001
1000
0100
,
0010
0010
0010
0100
,
1000
0100
0100
0100
,
0101
0001
0001
0001
,
0010
0100
1000
1000
,
1000
0001
0010
0100
,
1000
0010
0100
1001
,
0020
0000
0000
0000
,
0000
0000
0030
0000
,
0002
0000
0000
0000
,
0000
0000
0000
0003
,
0200
0000
0000
0000
,
0000
0000
0000
0300
,
2000
0000
0000
0000
,
3010
0100
0001
0100
,
0110
0010
0001
1000
,
1000
1000
1000
0100
,
0010
0010
0010
0100
,
0001
0100
0001
0101
,
0100
0100
0100
1000
,
0001
0001
0001
0010
,
1000
1000
1000
1000
,
0010
1000
0010
1010
,
0010
0010
0010
0010
,
0001
1000
0100
0100
,
0100
0100
0010
0001
,
1000
0001
1000
1001
,
2000
0000
0000
3000
,
0020
0000
0000
0030
,
0200
0000
0000
0300
,
0002
0000
0000
0003
,
2020
0000
0000
0000
,
0000
0000
3030
0000
;

//---------------dance-single - ----------------
#NOTES:
     dance-single:
     :
     Medium:
     6:
     0.298,0.342,0.062,0.085,0.000:
0000
0000
0000
0000
,
0000
0000
0000
0000
,
0000
0000
0000
0000
,
0000
0000
0000
0000
,
0010
0000
0000
0000
1000
0000
0100
0010
,
0001
0000
0100
0001
,
0100
0000
0010
0100
,
0001
1000
0001
0000
0010
0000
0100
0000
,
0001
0000
0000
0000
0010
0000
0100
0010
,
0001
0000
0010
0100
,
0010
0000
0010
1000
,
0010
0000
0010
0010
,
1000
0000
0000
0000
0001
1000
0010
0000
,
0010
0000
0000
0000
1000
0000
0001
0010
,
0100
0000
0001
0100
,
0001
0000
1000
1000
,
0001
0000
0000
0000
0001
0000
0100
0001
,
0100
0000
0000
0000
0001
0100
0010
0000
,
1000
0000
0000
0000
0010
0001
1000
0000
,
1000
0000
0001
1000
,
0001
1000
0010
0010
,
0100
0001
0100
2002
,
3003
0000
0000
0000
0010
1000
0100
0000
,
0100
0001
0001
0100
,
0100
0010
0010
1000
,
1000
0000
0010
1000
0010
0000
0020
0000
,
0130
0000
0001
0000
0100
0001
0100
0001
,
0010
0000
0100
0000
1000
0100
1000
0100
,
0010
0000
0001
0000
0001
1000
0001
1000
,
0001
0100
1000
0000
0010
0000
0002
0000
,
1003
0000
0010
0000
0100
0001
0010
0100
,
0010
0000
0100
0000
0001
0010
0100
0010
,
0100
0000
1000
0000
1000
0100
0010
0100
,
0001
0000
1000
0000
0001
0010
0100
0010
,
0100
0000
0001
0000
0010
0100
1000
0010
,
0100
0000
0100
0000
0001
1000
0100
0010
,
1000
0000
0010
0000
0010
0100
0001
0100
,
0001
0000
1000
0001
2000
0000
3010
0000
,
0120
0000
0000
0000
,
0000
1000
1030
0000
,
2001
0000
0000
0000
,
0000
0100
0100
3100
,
0200
0000
0000
0000
,
0000
0000
0001
0301
,
0002
0000
0000
0003
,
0010
0000
0100
0001
0100
0000
0010
0000
,
1001
0000
0010
0000
0001
0010
0100
0010
,
1000
0000
1000
0000
0010
0100
0010
0100
,
1000
0000
1000
0000
0010
0001
0100
0010
,
0001
0010
0001
0000
0010
0000
0110
0000
,
0100
0000
0001
0000
0010
0100
1000
0100
,
0001
0000
1000
0000
0001
0100
0010
0100
,
1000
0000
0010
0000
0100
0000
0001
1000
,
0010
0000
1000
0010
1000
0000
1100
0000
,
0010
0000
0100
0000
0001
0010
0100
0010
,
0001
0000
1000
0000
0100
0010
0100
1000
,
0100
0001
1000
0010
,
0100
0000
0001
0100
0001
0000
1001
0000
,
1000
0000
1000
0000
0000
1000
1000
1000
,
0000
0010
0000
0100
0000
0000
0001
0100
,
0010
0100
0001
0100
,
0001
0000
0010
0100
1000
0000
0010
0000
,
2002
0000
0000
0000
,
0000
0000
3003
0000
;

//---------------dance-single - ----------------
#NOTES:
     dance-single:
     :
     Hard:
     8:
     0.389,0.391,0.115,0.131,0.119: // measure 1
0000
0000
0000
0000
,  // measure 2
0000
0000
0000
0000
,  // measure 3
0000
0000
0000
0000
,  // measure 4
0000
0000
0000
0000
,  // measure 5
0200
0000
0300
0001
1000
0001
0100
0010
,  // measure 6
0002
0000
0003
0000
0010
0100
1000
0100
,  // measure 7
0200
0000
0300
0000
0010
0001
0000
0010
,  // measure 8
0100
0001
1000
0001
,  // measure 9
0200
0000
0300
0000
0001
0010
0100
0010
,  // measure 10
2000
0000
3000
0000
0100
1000
0100
0000
,  // measure 11
0002
0000
0003
0000
0100
0001
0010
0001
,  // measure 12
0010
0100
0001
1000
,  // measure 13
0020
0000
0030
0000
0001
0010
0100
0010
,  // measure 14
0200
0000
0300
0000
1000
0001
1000
2000
,  // measure 15
0000
0000
3000
0000
0001
0010
0000
0010
,  // measure 16
0100
0001
0010
1000
,  // measure 17
0200
0000
0300
0000
1000
0010
0100
0001
,  // measure 18
0002
0000
0003
0000
1000
0100
0010
0000
,  // measure 19
0002
0000
0003
0000
0010
0001
1000
0000
,  // measure 20
0010
0100
0000
0000
0010
0000
0100
0000
,  // measure 21
0100
0002
2003
3010
,  // measure 22
0101
0000
1000
0010
1000
0000
1010
0000
,  // measure 23
0101
0000
0000
0001
0000
0000
0000
1000
0000
0000
0100
0000
0010
0000
0000
0001
,  // measure 24
0000
0100
0000
0000
0100
0000
0000
0000
0001
0000
0010
0000
0100
0000
0010
0000
,  // measure 25
0000
0001
0000
0100
0000
0000
0000
0001
0000
0000
0010
0000
0100
0000
0000
0000
,  // measure 26
1000
0000
0100
1000
1100
0000
0101
0000
,  // measure 27
0100
0000
0000
0000
0001
0000
0000
0010
0100
0000
1000
0000
0100
0000
0010
0000
,  // measure 28
0001
0000
0000
0000
0010
0000
0000
0001
0010
0000
0100
0000
1000
0000
0100
0000
,  // measure 29
1000
0000
0000
0000
0100
0000
0000
0010
0100
0000
1000
0000
0100
0000
0010
0000
,  // measure 30
0001
0000
1000
0001
1000
0000
1001
0000
,  // measure 31
0110
0000
0000
0000
0010
0000
0000
1000
0100
0000
1000
0000
0100
0000
0010
0000
,  // measure 32
0001
0000
0000
0000
1000
0000
0000
0100
0001
0000
0100
0000
0001
0000
0010
0000
,  // measure 33
0100
0000
0000
0000
1000
0000
0000
0010
1000
0000
0010
0000
0100
0000
0010
0000
,  // measure 34
0001
0000
0000
0000
1000
0000
0000
1000
0001
0000
1000
0000
0010
0000
0100
0000
,  // measure 35
0001
0000
0000
0000
0001
0000
0000
0100
0010
0000
0100
0000
0001
0000
0100
0000
,  // measure 36
0010
0000
0000
0000
0100
0000
0000
0010
1000
0000
0010
0000
0100
0000
0010
0000
,  // measure 37
0001
0000
0000
0000
0100
0000
0000
0001
1000
0000
0001
0000
0100
0000
0000
0000
,  // measure 38
0010
0000
0100
0100
1100
0000
0011
0000
,  // measure 39
0000
0010
1000
0010
1000
0100
1000
0010
,  // measure 40
0000
0001
0100
0000
0100
0001
0000
0000
,  // measure 41
0000
0001
0010
0100
0010
0001
0001
0100
,  // measure 42
0000
1000
1000
1000
,  // measure 43
0000
0001
0001
1000
0100
0001
0100
0001
,  // measure 44
0010
0000
0100
0010
0001
0001
0000
0000
,  // measure 45
0020
0000
0000
0000
0030
0000
0000
0000
1000
0100
1000
0000
0000
0000
0010
0000
,  // measure 46
0100
0000
0001
0100
0001
0000
1010
0000
,  // measure 47
0101
0000
0000
0000
1000
0000
0000
0100
0001
0000
0100
0000
0001
0000
0010
0000
,  // measure 48
0100
0000
0000
0000
1000
0000
0000
0001
1000
0000
0001
0000
0100
0000
0010
0000
,  // measure 49
0001
0000
0000
0000
0100
0000
0000
0001
0010
0000
0001
0000
0010
0000
0100
0000
,  // measure 50
1000
0000
0100
1000
0100
0000
0101
0000
,  // measure 51
0010
0000
0000
0000
0100
0000
0000
0001
0100
0000
0001
0000
0010
0000
0100
0000
,  // measure 52
1000
0000
0000
0000
1000
0000
0000
0010
0001
0000
0010
0000
0001
0000
0100
0000
,  // measure 53
0010
0000
0010
0000
0100
0000
0010
0100
,  // measure 54
1000
0000
0010
0100
0010
0000
1001
0000
,  // measure 55
0010
0000
0000
0000
0100
0000
0000
0100
0001
0000
0100
0000
0010
0000
0001
0000
,  // measure 56
0100
0000
0000
0000
0001
0000
0000
0001
0100
0000
0001
0000
0010
0000
0100
0000
,  // measure 57
1000
0000
0000
0000
0001
0000
0000
0100
1000
0000
0100
0000
0010
0000
0001
0000
,  // measure 58
0100
0000
0010
0100
1000
0000
1100
0000
,  // measure 59
0000
1000
0000
0000
1000
0000
0000
0010
0000
0000
1000
0000
0100
0000
0010
0000
,  // measure 60
0000
0000
0010
0000
0000
0010
0000
0000
0001
0000
0001
0000
0010
0000
0100
0000
,  // measure 61
0000
0010
0000
0000
0000
1000
0000
0000
0001
0000
0000
0000
0100
0000
0000
0000
,  // measure 62
0010
0000
0001
1000
0001
0000
0010
0000
,  // measure 63
0220
0000
0000
0000
,  // measure 64
0000
0000
0330
0000
;
