#TITLE:Gee;
#SUBTITLE:;
#ARTIST:Girls' Generation;
#TITLETRANSLIT:;
#SUBTITLETRANSLIT:;
#ARTISTTRANSLIT:;
#CREDIT:;
#BANNER:banner.png;
#BACKGROUND:background.png;
#LYRICSPATH:;
#CDTITLE:Cdtitle.png;
#MUSIC:Gee.mp3;
#OFFSET:-0.080;
#SAMPLESTART:119.340;
#SAMPLELENGTH:14.460;
#SELECTABLE:YES;
#BPMS:0.000=200.000;
#STOPS:196.000=0.300
,227.000=0.280
,394.000=0.280
,425.000=0.280
;
#BGCHANGES:0.000=Gee.avi=1.000=1=0=0,
99999=-nosongbg-=1.000=0=0=0 // don't automatically add -songbackground-
;

//---------------dance-single - ----------------
#NOTES:
     dance-single:
     :
     Beginner:
     2:
     0.117,0.201,0.000,0.007,0.000:
0000
0000
0000
0000
,
0000
0000
0000
0000
,
0000
0000
0000
0000
,
0000
0000
0000
0000
,
0000
0000
0000
0000
,
0000
0000
0000
0000
,
0000
0000
0000
0000
,
1000
0000
0000
0000
,
1000
0000
0000
0000
,
0010
0000
0000
0000
,
0000
0000
0000
0000
,
0100
0000
0000
0000
,
0000
0000
0000
0000
,
0001
0000
0000
0000
,
0000
0000
0000
0000
,
0100
0000
0000
0000
,
0000
0000
0000
0000
,
0100
0000
0000
0000
,
0001
0000
0000
0000
,
0100
0000
0000
0000
,
0000
0000
0000
0000
,
0010
0000
0010
0000
,
0100
0000
0100
0000
,
1000
0000
1000
0000
,
0001
0000
0001
0000
,
0010
0000
0000
0000
,
0100
0000
0000
0000
,
1000
0000
0000
0000
,
0010
0000
0000
0000
,
0100
0000
0100
0000
,
0010
0000
0010
0000
,
0001
0000
0001
0000
,
0001
0000
0000
0000
,
1000
0000
0000
0000
,
0010
0000
0000
0000
,
0010
0000
0000
0000
,
0100
0000
0000
0000
,
0010
0000
0000
0000
,
0010
0000
0000
0000
,
1000
0000
0000
0000
,
1000
0000
0000
0000
,
0001
0000
0000
0000
,
0010
0000
0000
0000
,
0010
0000
0000
0000
,
0100
0000
0000
0000
,
0100
0000
0000
0000
,
1000
0000
0000
0000
,
0001
0000
0000
0000
,
1000
0000
0000
0000
,
0000
0000
0000
0000
,
0000
0000
0000
0001
,
0000
0000
0000
0001
,
0000
0000
0000
1000
,
0000
0000
0000
0010
,
0000
0000
0000
0100
,
0000
0100
0000
0010
,
0000
0100
0000
0000
,
0000
0000
0000
0000
,
0000
0000
0100
0000
,
0100
0000
0100
0000
,
0000
0000
0001
0000
,
0000
0000
0010
0000
,
0000
0000
1000
0000
,
0000
0000
0010
0000
,
0010
0000
0100
0000
,
0000
0000
0100
0000
,
0000
0000
1000
0000
,
0000
0000
1000
0000
,
0000
0000
0001
0000
,
0001
0000
0000
0000
,
0000
0000
0010
0000
,
0010
0000
0010
0000
,
1000
0000
1000
0000
,
1000
0000
0001
0000
,
0001
0000
0001
0000
,
0000
0000
0100
0000
,
0000
0000
0010
0000
,
0000
0000
1000
0000
,
0000
0000
0100
0000
,
0100
0000
0100
0000
,
0000
0001
0000
0001
,
0000
0000
0010
0000
,
0000
0010
0000
0000
,
0000
0000
1000
0000
,
0000
0000
0010
0000
,
0000
0100
0000
0000
,
0000
0000
0100
0000
,
0000
0000
0001
0000
,
0000
0000
0001
0000
,
0000
0000
0001
0000
,
0000
0100
0000
0000
,
0000
0100
0000
0000
,
0000
0000
0010
0000
,
0000
0000
0000
0000
,
0000
0000
1000
0000
,
0000
0000
0001
0000
,
0000
0000
0100
0000
,
0100
0000
0100
0000
,
0000
0000
0010
0000
,
0000
0000
0000
0000
,
0000
1000
0000
0000
,
0000
0001
0000
0000
,
0000
0100
0000
0000
,
0100
0000
0000
0000
,
0000
0010
0000
0010
,
0000
0010
0000
0000
,
0000
1000
0000
0000
,
0000
0000
0000
0000
,
0100
0000
0100
0000
,
0100
0000
0000
0000
,
0010
0000
0000
0000
,
0001
0000
0000
0000
,
1000
0000
0000
0000
,
0200
0000
0000
0000
,
0000
0000
0000
0300
;

//---------------dance-single - ----------------
#NOTES:
     dance-single:
     :
     Easy:
     5:
     0.304,0.362,0.168,0.077,0.000:
0000
0000
0000
0000
,
0000
0000
0000
0000
,
0000
0000
0000
0000
,
0000
0000
0000
0000
,
0000
0000
0000
0000
,
0000
0000
0000
0000
,
0000
0000
0000
0000
,
0001
0000
0000
0000
,
1000
0000
0001
0000
,
0020
0000
0000
0000
,
0000
0000
0030
0000
,
0200
0000
0000
0000
,
0000
0300
0000
0000
,
2000
0000
0000
0000
,
0000
0000
3000
0000
,
0010
0000
0010
0000
,
0010
0000
0000
0000
,
0100
0001
0100
0000
,
0001
0010
0100
0000
,
0100
0001
1000
0000
,
0010
0010
0100
0000
,
0001
0001
0001
0001
,
1000
0000
1000
0000
,
0100
0100
0100
0100
,
0010
0000
0010
0000
,
0001
1000
0001
0000
,
0100
0010
0001
0000
,
1000
0010
1000
0000
,
0010
0010
0100
0000
,
1000
1000
1000
1000
,
0001
0000
0001
0000
,
0010
0010
0010
0010
,
0000
0000
0000
0000
,
1001
0000
0000
0000
,
0100
0010
1000
0001
,
0110
0000
0000
0001
,
0010
0100
0010
0100
,
0020
0000
0000
0030
,
0010
0000
0010
0000
,
1000
0010
0100
0001
,
1000
0100
0100
0200
,
0000
0000
0300
0001
,
0001
0001
1000
1000
,
1001
0000
0000
0010
,
0010
0010
0100
0100
,
0110
0000
0010
0000
,
0010
0000
0000
0000
0000
0000
0000
0100
,
0000
0000
0000
0100
0000
0000
0000
0001
,
0000
0000
0000
0001
0000
0000
1000
0000
,
1001
1001
0010
0000
,
0000
0010
0000
0001
,
0100
0001
0100
0101
,
0000
0010
0000
1000
,
0000
1000
0000
0100
,
0000
0100
0000
0100
,
0010
0100
0100
0110
,
0000
1000
1000
1010
,
1010
0000
0100
0000
,
0100
0000
0001
0001
,
0001
1000
1001
0000
,
0000
0010
0002
0000
,
0103
0000
0010
1000
,
0000
0100
0002
0000
,
1003
0000
0100
0100
,
1001
0000
0010
0000
,
1000
0000
0010
0000
,
0001
0000
0010
1000
,
0010
0000
1000
0100
,
0010
0000
0010
0001
,
1000
0000
1000
1000
,
0001
0000
0010
0010
,
0010
0010
0100
0000
,
0100
0000
0001
0001
,
0001
0001
0010
0000
,
0010
0000
0001
0100
,
0001
0000
0001
0010
,
0100
0000
0100
0010
,
1000
0000
0001
0001
,
1000
0000
0100
0100
,
0100
0100
1000
0000
,
1000
0000
0010
0010
,
0010
0010
0000
0000
,
0000
0000
0110
0000
,
0000
0000
0001
0010
,
0100
1000
1100
0000
,
0000
0001
0010
0100
,
1000
0010
0002
0000
,
0000
0003
1000
0000
,
1000
0000
0001
0100
,
0010
1000
0010
0100
,
0100
0200
0000
0000
,
0300
0001
0001
0001
,
1000
1000
1001
0000
,
0000
0010
0010
0010
,
0100
0100
0110
0000
,
0010
0000
0010
0000
,
0000
0000
0000
0010
0000
0000
0000
0010
,
0000
0000
0000
0100
0000
0000
0000
0100
,
0000
0010
0110
0110
,
0000
1000
0000
1000
,
0000
0010
0010
0100
,
0100
0110
0000
0001
,
0000
1000
0000
1000
,
0000
0001
0000
0000
,
1000
0001
1000
0001
,
0001
1001
0000
0010
,
0010
1010
1010
0000
,
0001
0000
0000
0000
,
0010
0010
0010
0010
,
0110
0000
0001
0000
,
0001
0000
1000
0000
,
0001
0000
0001
0000
,
1000
0000
1000
0000
,
1000
1000
0001
0001
,
2002
0000
0000
3003
;

//---------------dance-single - ----------------
#NOTES:
     dance-single:
     :
     Medium:
     8:
     0.502,0.563,0.168,0.470,0.000:
0000
0000
0000
0000
,
0000
0000
0000
0000
,
0000
0000
0000
0000
,
0000
0000
0000
0000
,
0000
0000
0000
0000
,
0000
0000
0000
0000
,
0000
0000
0000
0000
,
0001
0000
0000
0000
,
0100
0000
1000
0000
,
1000
0000
0000
0100
,
0100
0001
0000
0000
,
0001
0000
0000
0001
,
0100
0001
0010
0000
,
0010
0000
0000
1000
,
1000
1000
0000
0000
,
0001
0000
0001
0000
,
0001
0100
0100
0100
,
0100
0001
0100
0000
,
1000
0000
0010
0001
0100
0000
0001
0000
,
0100
0010
0001
0000
0100
0000
0000
0000
,
0010
1000
0100
0010
,
0020
0032
0023
0032
,
1003
0100
0000
0100
0000
0100
0100
0000
,
0002
0203
0302
0203
,
0301
0010
0000
0010
0000
0010
0010
0000
,
0000
1000
0001
0000
,
0100
0000
0010
0100
0001
0100
1000
0000
,
0010
0001
0100
0000
,
0001
0001
0100
0010
,
2000
3200
2300
3200
,
0301
0000
0001
0000
0001
0001
0001
0000
,
0020
0230
0320
0230
,
0301
0000
0001
0001
0000
1000
0100
1000
,
1001
0000
0001
0100
,
0100
1000
0010
0000
1000
0000
0001
0000
,
0110
0000
0000
0001
,
0010
0100
0010
0100
,
0010
0100
0010
0000
0001
0100
0001
0000
,
0010
1000
1000
0001
,
0001
0010
0100
0001
,
1000
0100
0100
0200
,
0000
0000
0000
0000
0300
0000
0010
0100
,
0010
0000
0010
0000
0001
0100
0001
0000
,
0101
0000
0000
0000
0000
0000
1000
0010
,
1000
0000
1000
0000
0010
0001
0010
0000
,
0011
0000
0010
0000
,
0010
0000
0100
0000
,
0002
0000
2003
0000
,
0020
0000
0000
3030
,
1010
1100
0010
0100
,
0010
0100
0100
0002
,
0023
0032
1003
1001
,
0000
0010
0100
0001
,
0100
0000
0001
0100
0010
0000
0001
0000
,
0000
0010
0010
0200
,
0302
0203
0301
0101
,
0000
1000
1000
1100
,
1010
0001
0100
1000
,
0010
0100
0010
0000
0002
0000
0203
0000
,
0320
0000
2030
0000
3001
0000
0000
0100
,
0010
0100
2000
3001
,
0010
0000
0100
0000
1001
0000
0000
1000
,
0100
1000
0100
0020
,
1030
0001
0200
0320
,
0230
0300
0001
0001
,
1000
1000
1000
0010
,
0010
0000
0010
0000
0100
0001
0100
0000
,
0010
0000
0100
0000
0001
0000
1000
0010
,
0100
0000
0010
0000
0100
0000
1000
0100
,
0010
0001
0010
0100
,
1000
0001
0200
2300
,
3200
0000
2300
0000
3001
0100
0000
0100
,
0000
0100
0100
0000
0020
0000
0230
0000
,
0320
0000
0130
0000
1000
0010
0000
0010
,
0000
0010
0010
0000
0100
0000
1000
0000
,
0010
0000
0100
0000
0001
0000
0100
0001
,
0010
0000
0100
0000
0001
0000
1000
0001
,
0100
0010
0100
0100
,
1000
0000
0020
0032
,
0023
0000
0032
0000
1003
0001
0000
0001
,
0000
0001
0001
0000
0200
0000
0320
0000
,
0230
0000
0320
0000
0130
0000
0100
0100
,
0000
0010
0010
1000
1001
0000
0000
0000
,
0000
0000
0010
0000
0100
0010
1000
0000
,
0100
0001
0101
0001
,
0100
0000
0001
0010
0100
0000
0100
0000
,
1000
0000
0010
0000
0100
0010
0001
0000
,
0010
0100
1000
0000
0010
0000
0100
0000
,
1000
0100
0001
0100
,
0010
1000
0010
0100
,
0100
2000
0000
0000
,
3000
0000
0001
0100
0001
0000
0001
0100
,
0010
1000
1001
0000
,
0000
0100
1000
0100
1000
0000
0001
0000
,
0001
0010
0100
0000
1100
0000
0001
0000
,
0000
0100
0001
0100
,
0100
0100
0020
0000
,
2030
0000
0200
0000
,
3300
0010
0110
1001
,
0000
0000
1000
0100
0010
0000
1000
0000
,
0100
0002
0023
0230
,
1300
1010
0000
0001
,
0010
0010
0100
0100
,
0010
0100
0001
0000
0010
0000
1000
0000
,
1000
0020
0230
0302
,
1003
1001
0100
1000
,
1000
1100
1001
0001
,
0001
0100
0010
0000
1000
0000
0100
0000
,
0020
0230
0320
0130
,
0110
0000
0000
0100
0001
0000
0100
0000
,
0001
0010
1000
0100
,
0001
0000
0000
0100
1000
0000
0010
0000
,
1000
0001
0100
0001
,
2000
3020
0130
0110
,
2002
0000
0000
3003
;

//---------------dance-single - ----------------
#NOTES:
     dance-single:
     :
     Hard:
     10:
     0.620,0.603,0.778,0.273,0.000: // measure 1
0000
0000
0000
0000
,  // measure 2
0000
0000
0000
0000
,  // measure 3
0000
0000
0000
0000
,  // measure 4
0000
0000
0000
0000
,  // measure 5
0000
0000
0000
0000
,  // measure 6
0000
0000
0000
0000
,  // measure 7
0000
0000
0000
0000
,  // measure 8
0002
0000
0000
0000
,  // measure 9
0103
0000
2000
0000
,  // measure 10
3010
0000
0000
0000
0100
0000
0001
0100
,  // measure 11
0001
0001
0100
0010
,  // measure 12
1000
0000
0100
0000
1000
0000
1000
0010
,  // measure 13
1000
0001
0200
0000
,  // measure 14
0301
0010
0100
0010
,  // measure 15
1000
1001
0000
0000
,  // measure 16
0100
1001
0100
1001
,  // measure 17
0100
0010
0010
0010
,  // measure 18
0010
0001
0010
0001
0100
0000
0001
0100
,  // measure 19
0000
0100
0001
0010
0100
0000
1001
0000
,  // measure 20
1000
0010
1000
0010
0200
0000
0301
0010
,  // measure 21
0001
0020
0130
0101
,  // measure 22
0011
1100
0011
1100
,  // measure 23
0001
0100
0000
0100
0001
0010
0010
0000
,  // measure 24
0011
1010
0011
1010
,  // measure 25
1000
0010
0000
0010
1000
0000
1000
1000
,  // measure 26
1000
0010
1000
0010
0100
0000
0001
0000
,  // measure 27
0100
0000
0001
0010
0100
0000
1100
0000
,  // measure 28
0001
0100
0001
0100
0020
0000
1030
0000
,  // measure 29
0001
0100
0010
0000
0200
0000
0301
0000
,  // measure 30
1100
1010
1100
1010
,  // measure 31
0001
0010
0000
0010
0001
0000
0001
0001
,  // measure 32
0011
0101
0011
0101
,  // measure 33
0001
0000
0010
0100
0000
1000
0010
0100
,  // measure 34
0110
0000
0001
0100
0000
0001
0010
0001
,  // measure 35
1000
0100
0001
0101
,  // measure 36
0100
0000
1000
0010
1000
0010
0000
0000
,  // measure 37
0100
0001
0100
0000
0001
0000
0010
0000
,  // measure 38
1000
0100
0010
0001
0010
0100
1000
0100
,  // measure 39
1000
0100
0100
0001
,  // measure 40
0002
0013
0200
0301
,  // measure 41
0020
0130
2000
0200
,  // measure 42
0000
0000
3300
0000
0000
0010
0001
0010
,  // measure 43
0001
0000
0100
1000
0010
0000
1000
0000
,  // measure 44
1010
0000
0000
0000
0000
0100
1000
0100
,  // measure 45
1000
0000
0100
0001
0010
0000
0100
0000
,  // measure 46
0101
0000
0000
0010
,  // measure 47
0110
0000
0000
0000
0100
0001
0100
0000
,  // measure 48
0001
0001
1000
1000
,  // measure 49
0200
0000
0010
0310
,  // measure 50
1010
0000
1100
0000
0100
0002
0000
0003
,  // measure 51
0100
0001
0100
0000
0101
0000
0110
0000
,  // measure 52
1001
0110
1001
0210
,  // measure 53
0000
0010
0301
0101
,  // measure 54
1100
0000
0101
0000
0001
0200
0000
0300
,  // measure 55
0010
1000
0010
0101
,  // measure 56
1100
0101
1100
2002
,  // measure 57
3003
0100
1000
1010
,  // measure 58
1100
0000
0001
0020
0000
0030
0100
0000
,  // measure 59
0001
0010
0100
0000
1100
0000
0101
0000
,  // measure 60
1010
0000
0011
0000
1001
0000
0000
0001
,  // measure 61
0100
0000
0100
0000
2000
0000
0000
3010
,  // measure 62
0000
0000
0100
0000
1002
0000
0000
1003
,  // measure 63
0100
0000
0010
0000
2000
0000
0000
3010
,  // measure 64
0000
0100
0000
0000
0011
0000
1010
0000
,  // measure 65
1001
0000
0001
0011
,  // measure 66
0100
1100
1000
1010
,  // measure 67
0110
0000
0110
0000
0100
0001
0100
0001
,  // measure 68
0010
0000
0100
0001
0000
0001
0100
0010
,  // measure 69
0100
0000
0110
0000
0100
1000
0100
1000
,  // measure 70
0010
0000
0001
0100
0000
0000
0010
0000
,  // measure 71
1000
0001
0011
1010
,  // measure 72
0011
0000
1010
0000
0001
0010
0000
0010
,  // measure 73
0001
0000
0100
0100
0101
0000
1100
0000
,  // measure 74
0101
0000
1100
0000
1000
0010
0000
0010
,  // measure 75
1000
0100
0100
0000
1000
0100
0010
0100
,  // measure 76
0010
0000
0010
0001
0000
0001
0100
0001
,  // measure 77
0010
0000
0011
0000
0001
0100
0010
0001
,  // measure 78
0010
0010
0001
0100
,  // measure 79
0100
0100
0011
1001
,  // measure 80
0011
0000
1001
0000
0010
1000
0000
1000
,  // measure 81
0010
0100
0100
0000
1001
0000
1100
0000
,  // measure 82
1001
0000
1100
0000
1001
0000
0100
0010
,  // measure 83
0000
0001
0010
0100
0110
0000
0001
0000
,  // measure 84
0000
0000
1000
0100
0010
0001
0100
0000
,  // measure 85
0010
0000
0001
0000
0101
0000
0001
0100
,  // measure 86
0000
0100
0001
0100
0010
0000
0001
0000
,  // measure 87
1000
0000
1010
0000
0001
0010
0100
1000
,  // measure 88
0100
0010
0001
0000
0010
0000
0100
0000
,  // measure 89
1000
0100
2000
3100
,  // measure 90
0020
0130
0200
0301
,  // measure 91
0002
2000
0000
3003
,  // measure 92
0000
0000
0010
0100
0010
1000
0010
0100
,  // measure 93
1000
0001
1001
0000
,  // measure 94
0000
0001
0100
0001
0010
0100
0001
0100
,  // measure 95
0001
0010
1010
0001
,  // measure 96
0000
0100
0101
0001
,  // measure 97
0010
0010
0100
0100
,  // measure 98
1000
1000
0020
0000
,  // measure 99
0100
1030
0110
1001
,  // measure 100
0010
0200
0000
0300
0001
0010
0100
0000
,  // measure 101
0100
0011
1010
1100
,  // measure 102
0101
2001
0000
0100
,  // measure 103
3010
1100
0101
1100
,  // measure 104
0001
0200
0000
0300
0001
0000
0010
0000
,  // measure 105
0010
0110
1100
0101
,  // measure 106
0110
2002
3003
0100
,  // measure 107
0001
0000
0101
0000
1100
0000
0001
0200
,  // measure 108
0000
0300
0001
0000
1000
0000
0100
0000
,  // measure 109
0101
1100
0011
1010
,  // measure 110
1001
0000
0000
0100
0001
0000
0100
0000
,  // measure 111
0002
0000
0000
1003
0000
0000
0100
0000
,  // measure 112
0020
0000
0000
0130
1000
0000
0100
0000
,  // measure 113
0002
0000
0000
1003
0000
0001
0000
0000
,  // measure 114
1100
0101
0011
1010
,  // measure 115
0220
0000
0000
0330
;
