#TITLE:Drive By;
#SUBTITLE:;
#ARTIST:Train;
#TITLETRANSLIT:;
#SUBTITLETRANSLIT:;
#ARTISTTRANSLIT:;
#CREDIT:;
#BANNER:banner.png;
#BACKGROUND:background.png;
#LYRICSPATH:;
#CDTITLE:Cdtitle.png;
#MUSIC:Drive By.mp3;
#OFFSET:-0.120;
#SAMPLESTART:35.500;
#SAMPLELENGTH:16.120;
#SELECTABLE:YES;
#BPMS:0.000=122.000;
#STOPS:;
#BGCHANGES:2.500=Drive By.avi=1.000=1=0=0,
99999=-nosongbg-=1.000=0=0=0 // don't automatically add -songbackground-
;

//---------------dance-single - ----------------
#NOTES:
     dance-single:
     :
     Beginner:
     2:
     0.089,0.121,0.008,0.023,0.000:
0000
0000
0000
0000
,
0000
0000
0000
0000
,
1000
0000
0000
0000
,
0000
0000
0100
0000
,
0000
0000
0010
0000
,
0000
0000
0010
0000
,
0000
0000
1000
0000
,
0000
0001
0000
0000
,
0000
0100
0000
0000
,
0000
0010
0000
0000
,
0010
0000
0000
0000
,
0100
0000
0000
0000
,
0010
0000
0000
0000
,
0001
0000
0000
0000
,
1000
0000
0000
0000
,
0001
0000
0000
0000
,
0010
0000
0000
0000
,
0000
0000
0000
0000
,
1001
0000
0000
0000
,
0100
0000
0000
0000
,
0010
0000
0000
0000
,
0100
0000
0000
0000
,
0100
0000
0100
0000
,
0010
0000
0010
0000
,
1000
0000
1000
0000
,
0002
0000
0000
0000
,
0003
0000
0100
0000
,
0010
0000
0100
0000
,
1000
0000
1000
0000
,
0010
0000
0000
0000
,
0100
0100
0000
0000
,
0010
0010
0000
0000
,
0001
0001
0000
0000
,
1000
0000
0000
0000
,
0010
0000
0000
0000
,
0100
0000
0000
0000
,
1000
0000
0000
0000
,
0010
0000
0000
0000
,
0100
0000
0000
0000
,
0001
0000
0000
0000
,
1000
0000
0000
0000
,
1000
0000
0000
0000
,
0010
0000
0000
0000
,
0010
0000
0000
0000
,
0100
0000
0000
0000
,
0020
0000
0000
0030
,
0100
0100
0000
0000
,
0010
0010
0000
0000
,
1000
1000
0000
0000
,
0001
0001
0000
0000
,
0010
0000
0000
0000
,
0100
0000
0000
0000
,
0010
0000
0000
0000
,
1000
0000
0000
0000
,
0000
1000
0000
1000
,
0000
0001
0000
0001
,
0000
0010
0000
0010
,
0100
0000
0000
0000
,
0010
0010
0000
0000
,
1000
1000
0000
0000
,
0001
0001
0000
0000
,
0100
0000
0000
0000
,
0020
0000
0000
0000
,
0000
0000
0000
0030
;

//---------------dance-single - ----------------
#NOTES:
     dance-single:
     :
     Easy:
     5:
     0.220,0.290,0.076,0.083,0.000:
0000
0000
0000
0000
,
0000
0000
0000
0000
,
0010
0100
0100
0000
,
0001
0100
0001
0001
,
0000
0100
0010
0100
,
0100
0000
0010
0010
,
0010
0000
1000
1000
,
0000
0001
0001
0100
,
0010
2000
0000
0000
,
3000
0001
0000
0000
,
0100
0001
0100
0000
,
0100
1000
0100
0100
,
0000
0001
0010
0001
,
0000
0010
1000
0010
,
0010
0000
1000
0001
,
1000
0000
1000
0001
,
1000
1000
0010
0100
,
0010
0001
1000
0000
,
0010
0010
0010
0000
,
1000
1000
1000
0000
,
0100
0100
0100
0010
,
0001
1000
0001
0100
,
1001
0001
0001
0001
,
1000
1000
1000
0000
,
0100
0010
0100
0010
,
0001
0010
0100
0010
,
0110
1000
0100
1100
,
0010
0100
0001
0101
,
1000
0010
0100
0110
,
0010
0010
0100
0101
,
0001
0001
0001
0000
,
1000
1000
1000
0000
,
0100
0001
0100
0010
,
1000
0010
1000
0010
,
2000
0000
0000
3000
,
0200
0000
0000
0300
,
0020
0000
0000
0030
,
0002
0000
0000
0003
,
0200
0000
0000
0300
,
0020
0000
0000
0030
,
2000
0000
0000
3000
,
0002
0000
0000
0003
,
0000
0100
0000
0100
,
0000
0001
0000
0001
,
0000
0010
0000
0010
,
0200
0000
0000
0300
,
1000
1000
1000
0000
,
0001
0001
0001
0000
,
0100
0010
1000
0010
,
0100
0100
0100
0010
,
0010
0001
0100
0001
,
0010
1000
0010
0010
,
0100
0001
0100
0100
,
1000
0100
0010
0001
,
0110
0100
0010
0011
,
0001
1000
0001
1001
,
1000
0010
1000
1010
,
0010
0100
0001
0001
,
0100
0100
0100
0000
,
0000
0010
0010
0010
,
0000
0001
0001
0001
,
0100
0010
1000
1000
,
0200
0000
0000
0000
,
0000
0000
0000
0300
;

//---------------dance-single - ----------------
#NOTES:
     dance-single:
     :
     Medium:
     6:
     0.293,0.314,0.152,0.190,0.000:
0000
0000
0000
0000
,
0000
0000
0000
0000
,
0001
0001
0100
0010
,
1000
0100
0010
0010
,
0000
0001
0100
0010
,
1000
0000
0010
0100
,
0010
0000
0000
0000
1000
1000
1000
0000
,
0000
0001
0001
0000
0010
0010
0100
0000
,
0010
1000
0100
1000
,
1000
0001
0000
0000
,
0010
1000
0200
0301
,
0100
1000
0020
1030
,
0100
0001
0200
0310
,
1000
0001
2000
3010
,
0100
0000
0001
0000
1000
1000
0001
0000
,
1000
0000
0010
0000
0100
0100
0010
0000
,
1000
0100
0010
0001
,
0101
1100
1001
0000
,
0011
0000
0010
0000
0001
0000
0010
0010
,
0000
0000
1100
0000
1000
0000
0100
0100
,
0000
0000
0001
0100
0001
0100
0010
0000
,
1000
0010
0100
0200
,
0301
0100
0010
0110
,
1000
0100
1000
1100
,
0001
0010
0100
0010
,
0002
0023
0230
0320
,
1030
1000
1000
0001
,
0010
0010
0100
0110
,
1000
1000
0100
1100
,
0001
0000
0100
0000
0010
0001
0100
0000
,
0110
0000
0100
0000
0010
0000
0100
0100
,
0000
0000
1001
0000
1000
0000
0001
0001
,
0000
0000
0001
1000
0001
1000
0100
0000
,
0001
0010
0200
0301
,
0002
0000
0003
0010
,
2000
0000
0000
3010
,
0200
0000
0000
0310
,
0002
0000
0000
0013
,
0020
0000
0000
0130
,
0200
0000
0000
1300
,
1000
1000
0001
0001
,
0001
2002
0000
0000
,
3003
0001
0000
0100
,
0000
0001
0000
0010
,
0000
0100
0000
1000
,
0000
0000
0000
0000
,
1001
0000
1000
0000
0001
0000
1000
1000
,
0000
0000
0101
0000
0001
0000
0100
0100
,
0000
0000
0010
1000
0010
1000
0100
0000
,
0001
0100
0010
2000
,
3100
0010
0100
0110
,
0001
0010
0100
0101
,
1000
0100
0010
0100
,
2000
3200
0320
0230
,
1300
0001
0001
0001
,
0100
1000
1000
1100
,
1000
0001
1000
1001
,
0010
0000
0100
1000
0010
0000
0001
0000
,
0101
0000
0100
0000
0001
0000
0100
0100
,
0000
0000
1010
0000
1000
0000
0010
0010
,
0000
0000
0100
0001
0100
0001
0010
0000
,
0001
0100
0002
1003
,
0020
0000
0000
0000
,
0000
0000
0000
0030
;

//---------------dance-single - ----------------
#NOTES:
     dance-single:
     :
     Hard:
     7:
     0.381,0.411,0.046,0.493,0.000: // measure 1
0000
0000
0000
0000
,  // measure 2
0000
0000
0000
0000
,  // measure 3
0010
0000
0010
0000
0100
0001
0100
0000
,  // measure 4
0001
0000
0010
0000
0100
0100
0100
0000
,  // measure 5
0000
1000
0010
0100
,  // measure 6
0001
0010
0010
0000
0001
0000
0100
0000
,  // measure 7
0010
0001
0010
0000
1000
0100
0100
0000
,  // measure 8
0000
0010
0001
0000
0100
0010
0100
0000
,  // measure 9
0010
0000
0001
0000
0001
0010
0100
0000
,  // measure 10
0010
1000
0001
1000
,  // measure 11
0020
0000
1030
0100
2000
0000
3100
0000
,  // measure 12
0100
0000
0001
0100
0002
0000
0013
0000
,  // measure 13
0100
0010
0001
0010
0002
0000
2003
0000
,  // measure 14
3100
0100
0001
0010
0002
0000
0203
0000
,  // measure 15
0301
0100
0001
0100
0010
0010
0010
0000
,  // measure 16
1000
0100
1000
0100
0001
0001
0001
0000
,  // measure 17
0010
0100
1000
0001
,  // measure 18
0002
2003
3020
0030
,  // measure 19
0200
0000
0302
0000
2003
0000
0100
3100
,  // measure 20
0000
0000
0001
0100
0002
0000
1000
1003
,  // measure 21
0000
0000
1000
0001
1000
0100
1000
0000
,  // measure 22
2000
0000
3020
0000
0130
0200
0000
0000
,  // measure 23
0301
0000
0010
1000
0020
0000
2030
0000
,  // measure 24
3100
1000
0010
1000
0200
0000
2300
0000
,  // measure 25
3001
0010
0100
0001
0010
0000
0100
0000
,  // measure 26
1000
1000
0100
0100
0010
0010
0001
0000
,  // measure 27
1001
0000
0100
0010
2000
0000
3002
0000
,  // measure 28
0013
0100
1000
0100
0002
0000
0203
0000
,  // measure 29
0301
0100
0010
0100
2000
0000
3020
0000
,  // measure 30
0130
1000
0100
1000
0010
1000
0010
0000
,  // measure 31
1010
0000
0020
0000
0032
0000
1000
1003
,  // measure 32
0000
0000
0100
0010
0200
0000
0001
0301
,  // measure 33
0000
0000
1000
0001
1000
0010
0100
0000
,  // measure 34
2000
0000
3200
0000
0310
0020
0000
0000
,  // measure 35
0031
0000
0000
0000
0000
0000
0000
0100
,  // measure 36
0020
0000
0000
0031
,  // measure 37
2000
0000
0000
3100
,  // measure 38
0020
0000
0000
0030
,  // measure 39
2000
0000
0000
3002
,  // measure 40
0000
0000
0000
0003
,  // measure 41
0100
0100
0010
0010
,  // measure 42
0010
0000
0001
1000
0001
1000
0001
1000
,  // measure 43
0001
1000
0000
0100
,  // measure 44
0000
0010
0000
0001
,  // measure 45
0000
0100
0000
2002
,  // measure 46
0000
0000
0000
0000
0000
3003
0000
0000
,  // measure 47
0002
0000
0203
0000
0320
0000
1000
1030
,  // measure 48
0000
0000
0010
1000
0020
0000
1000
1030
,  // measure 49
0000
0000
0100
0001
0100
0001
0010
0000
,  // measure 50
0002
0000
0023
0000
1030
2000
0000
0000
,  // measure 51
3001
0000
0010
0100
0020
0000
2030
0000
,  // measure 52
3001
0010
0001
0100
0002
0000
2003
0000
,  // measure 53
3100
0010
0001
0100
0010
0000
0001
0000
,  // measure 54
0001
0001
0010
0010
0100
0100
1000
0000
,  // measure 55
1100
0000
1000
0100
2000
0000
3200
0000
,  // measure 56
1300
0100
1000
0010
0200
0000
0302
0000
,  // measure 57
0013
0100
0010
0100
0020
0000
2030
0000
,  // measure 58
3010
0100
1000
0100
1000
0001
1000
0000
,  // measure 59
1001
0000
2000
0000
3002
0000
0100
0103
,  // measure 60
0000
0000
0010
0100
2000
0000
0001
3001
,  // measure 61
0000
0000
0010
1000
0010
1000
0100
0000
,  // measure 62
0002
0000
0023
0000
0100
0200
0330
0000
,  // measure 63
2002
0000
0000
0000
,  // measure 64
0000
0000
0000
3003
;
