#VERSION:0.83;
#TITLE:Dream Girls;
#SUBTITLE:;
#ARTIST:I.O.I;
#TITLETRANSLIT:;
#SUBTITLETRANSLIT:;
#ARTISTTRANSLIT:;
#GENRE:;
#ORIGIN:;
#CREDIT:;
#BANNER:banner.png;
#BACKGROUND:background.png;
#PREVIEWVID:;
#JACKET:cdjacket.jpg;
#CDIMAGE:;
#DISCIMAGE:;
#LYRICSPATH:;
#CDTITLE:Cdtitle.png;
#MUSIC:Dream Girls.mp3;
#OFFSET:-0.080000;
#SAMPLESTART:56.799900;
#SAMPLELENGTH:14.459993;
#SELECTABLE:YES;
#BPMS:0.000=140.000;
#STOPS:;
#DELAYS:;
#WARPS:;
#TIMESIGNATURES:0.000=4=4;
#TICKCOUNTS:0.000=4;
#COMBOS:0.000=1;
#SPEEDS:0.000=1.000=0.000=0;
#SCROLLS:0.000=1.000;
#FAKES:;
#LABELS:0.000=Song Start;
#BGCHANGES:4.500=Dream Girls.avi=1.000=1=0=0=StretchNoLoop==CrossFade==,
99999=-nosongbg-=1.000=0=0=0 // don't automatically add -songbackground-
;
#KEYSOUNDS:;
#ATTACKS:
;

//---------------dance-single - ----------------
#NOTEDATA:;
#CHARTNAME:;
#STEPSTYPE:dance-single;
#DESCRIPTION:;
#CHARTSTYLE:;
#DIFFICULTY:Beginner;
#METER:2;
#RADARVALUES:0.096139,0.172670,0.077923,0.000000,0.000000,95.000000,84.000000,11.000000,0.000000,0.000000,0.000000,0.000000,0.000000,0.000000,0.096139,0.172670,0.077923,0.000000,0.000000,95.000000,84.000000,11.000000,0.000000,0.000000,0.000000,0.000000,0.000000,0.000000;
#CREDIT:;
#NOTES:
0000
0000
0000
0000
,
0000
0000
0000
0000
,
0000
0000
0000
0000
,
0000
0000
0000
0000
,
0000
0000
0000
0000
,
0000
1000
0000
0000
,
0000
1000
0000
0000
,
0000
0001
0000
0000
,
0000
1001
0000
0000
,
0000
0010
0000
0000
,
0000
0010
0000
0000
,
0000
0100
0000
0000
,
0000
0100
0000
0000
,
0000
1000
0000
0000
,
0000
1000
0000
0000
,
0000
0001
0000
0000
,
0000
0001
0000
0000
,
0000
0100
0000
0000
,
0000
0000
0000
0100
,
0000
0010
0000
0000
,
0000
0010
0000
0000
,
0000
0001
0000
0000
,
0000
0001
0000
0000
,
0000
0010
0000
0000
,
0000
1000
0000
0000
,
0000
0010
0000
0000
,
0000
0010
0000
0000
,
0000
0100
0000
0000
,
0000
0100
0000
0000
,
0000
0001
0000
0001
,
0000
0001
0000
1000
,
0000
1000
0000
0000
,
1001
0000
0000
0000
,
0000
0010
0000
0000
,
0000
0010
0000
0000
,
0000
0100
0000
0000
,
0000
0100
0000
0000
,
0000
0010
0000
0000
,
0000
0010
0000
0000
,
0000
1000
0000
0000
,
0000
0010
0000
0000
,
1001
0000
0000
0000
,
0000
1000
0000
0000
,
0000
1000
0000
0000
,
0000
0010
0000
0000
,
0000
0010
0000
0000
,
0000
0001
0000
0000
,
0000
0100
0000
0000
,
0000
1000
0000
0000
,
0000
1001
0000
0000
,
0000
0010
0000
0000
,
0000
0110
0000
0000
,
0000
0100
0000
0000
,
0000
1001
0000
0000
,
0000
0010
0000
0000
,
0000
0100
0000
0000
,
0000
0010
0000
0000
,
0000
1000
0000
0000
,
0000
1000
0000
0000
,
0000
0010
0000
0000
,
0000
1001
0000
0000
,
0000
1000
0000
0000
,
0000
0001
0000
0000
,
0000
0001
0000
0000
,
0000
0001
0000
0000
,
0000
0010
0000
0010
,
0000
0100
0000
0100
,
0000
1000
0000
1000
,
0000
1001
0000
0000
,
0000
0010
0000
0000
,
0000
0010
0000
0000
,
0000
1000
0000
0000
,
0000
0100
0000
0000
,
0000
0010
0000
0010
,
0000
0100
0000
0100
,
0000
1000
0000
0000
,
0000
0001
0000
0000
,
0000
1001
0000
0000
,
0000
0100
0000
0000
,
0000
1000
0000
0000
,
0000
0110
0000
0000
,
0000
1001
0000
0000
;

//---------------dance-single - ----------------
#NOTEDATA:;
#CHARTNAME:;
#STEPSTYPE:dance-single;
#DESCRIPTION:;
#CHARTSTYLE:;
#DIFFICULTY:Easy;
#METER:4;
#RADARVALUES:0.210493,0.345341,0.141678,0.056671,0.000000,208.000000,188.000000,20.000000,8.000000,0.000000,0.000000,0.000000,0.000000,0.000000,0.210493,0.345341,0.141678,0.056671,0.000000,208.000000,188.000000,20.000000,8.000000,0.000000,0.000000,0.000000,0.000000,0.000000;
#CREDIT:;
#NOTES:
0000
0000
0000
0000
,
0000
0000
0000
0000
,
0000
0000
0000
0000
,
0000
0000
0000
0000
,
0000
0000
0000
0000
,
0000
0001
0001
0001
,
0001
0010
0010
0010
,
0010
0100
0010
0100
,
0010
0110
0000
0000
,
0000
0100
0000
0001
,
0000
0001
0000
0010
,
0000
0010
0000
0100
,
0000
0200
0000
0000
,
0300
0010
0000
0010
,
0000
0001
0000
0001
,
0000
1000
0000
1000
,
0000
0020
0000
0000
,
0030
2000
0000
0000
,
3000
1000
0000
0010
,
0010
0200
0000
0000
,
0300
0100
0000
0001
,
0001
0020
0000
0000
,
0030
0010
0000
0100
,
0100
0002
0000
0000
,
0003
0001
0000
0000
,
0000
0001
0100
0001
,
0100
0001
0001
0010
,
0010
0000
1000
0010
,
1000
0010
0100
0100
,
1000
1000
0100
0010
,
0001
0010
0010
0010
,
0100
0100
1001
1001
,
1001
0000
0000
0000
,
0000
1000
1000
0000
,
0000
0010
0010
0000
,
0000
0001
0010
0100
,
0001
1000
1000
0000
,
0000
1001
0000
0100
,
0000
1001
0000
0010
,
0000
0001
0001
1000
,
1000
0100
0100
0010
,
0010
1000
1000
0000
,
0000
0001
0001
0000
,
0000
0010
0100
1000
,
0010
1000
1000
0000
,
0000
0110
0000
0010
,
0000
0110
0000
0100
,
0000
1000
1000
0001
,
0001
0010
0100
0010
,
0100
0110
0000
0000
,
0000
0001
0001
0001
,
0000
1001
0000
0000
,
0000
1000
1000
1000
,
0000
0110
0000
0100
,
0000
0000
0100
0000
,
0000
0010
0000
0000
,
0010
0000
0000
0001
,
0000
0000
1000
1000
,
1000
2000
3000
0001
,
0001
0002
0000
0000
,
0003
1001
0000
0000
,
0000
0100
1000
0000
,
0000
0010
0100
0000
,
0000
0010
0100
1000
,
0010
0100
0100
0000
,
0000
1001
1000
1000
,
0000
0100
0001
0001
,
0000
1000
0100
1000
,
0010
0010
0001
0100
,
0001
0010
1000
0000
,
0000
0100
0001
0000
,
0000
1000
0010
0001
,
0010
0001
0001
0000
,
0000
0110
0010
0010
,
0000
0110
0100
0001
,
0000
0001
0000
0001
,
0000
0001
0001
0100
,
0100
0110
0000
0100
,
0000
1001
0000
0000
,
0000
1100
0000
0100
,
0000
0101
0000
0000
,
0001
1001
0000
0000
;

//---------------dance-single - ----------------
#NOTEDATA:;
#CHARTNAME:;
#STEPSTYPE:dance-single;
#DESCRIPTION:;
#CHARTSTYLE:;
#DIFFICULTY:Medium;
#METER:6;
#RADARVALUES:0.293476,0.374119,0.106259,0.340028,0.000000,290.000000,275.000000,15.000000,48.000000,0.000000,0.000000,0.000000,0.000000,0.000000,0.293476,0.374119,0.106259,0.340028,0.000000,290.000000,275.000000,15.000000,48.000000,0.000000,0.000000,0.000000,0.000000,0.000000;
#CREDIT:;
#NOTES:
0000
0000
0000
0000
,
0000
0000
0000
0000
,
0000
0000
0000
0000
,
0000
0000
0000
0000
,
0000
0000
0000
0000
,
0000
0001
1000
0001
,
1000
0100
0100
0001
,
0001
0002
0203
0302
,
0103
2002
0000
0000
,
3003
0000
1000
0000
0000
0010
0010
0000
,
0001
0000
0100
0000
0000
0001
0001
0000
,
1000
0000
0010
0000
0000
1000
1000
0000
,
0001
0020
0000
0100
,
0130
0000
1000
0000
0000
1000
0100
0000
,
0001
0000
0010
0000
0000
0010
1000
0000
,
0100
0000
0001
0000
0000
0001
0100
0000
,
0001
0020
0000
0100
,
0130
2000
0000
3002
,
0000
0203
0000
0001
,
0301
0020
0000
2030
,
0000
3002
0000
1000
,
1003
0020
0000
2030
,
0000
3200
0000
0010
,
0310
2000
0000
3200
,
0000
0320
0000
0030
,
0000
0000
0002
0000
0013
0000
0100
0100
,
0100
0000
0010
0000
1000
0000
0100
0010
,
0100
0000
0200
0000
0301
0000
0010
0010
,
0010
0000
0010
0000
0001
0000
0010
0001
,
0010
0000
0002
0000
0103
0000
0001
0100
,
1000
0000
2000
0000
3100
0000
1000
0100
,
0001
0000
1000
0000
1000
0010
0100
0100
,
0100
0000
0000
0000
,
0000
0020
1030
0100
,
0001
0020
0130
1000
,
0010
0000
1000
0000
0010
0000
0001
0010
,
0100
1000
1001
0000
,
0000
1000
0001
0000
0001
0010
0100
0000
,
0001
0100
0000
0000
0010
1000
0010
0000
,
0000
0002
0000
0023
0000
0230
0000
2300
,
0000
3000
1001
0000
1001
0000
1001
0000
,
1001
0002
0103
0010
,
1000
0002
0103
0010
,
1000
0000
0001
0000
0100
0000
0010
0100
,
1000
1000
1010
0000
,
0000
0010
0100
0000
0100
0010
1000
0000
,
1000
0010
0000
0000
0100
0001
0100
0000
,
0000
2000
0000
3010
0000
0200
0000
0301
,
0000
0001
0001
1000
,
1000
0000
1001
0000
0000
0100
0000
0100
,
0000
0001
0001
1000
,
1000
0000
1001
0000
0000
1000
0000
0001
,
0000
0100
0100
0100
,
0000
0102
0000
0010
,
0000
0010
0000
0010
,
0000
0203
0000
0001
,
0000
0001
0000
0301
,
0020
0000
1000
0100
,
1030
2000
0000
0010
,
0100
0002
0000
0000
,
3003
1001
0000
0000
,
0000
0020
0130
0001
,
0001
2000
3010
0100
,
0100
0000
0001
0000
0100
0010
0100
0000
,
0010
1000
1001
0000
,
0000
0010
0100
0000
0100
0010
1000
0000
,
0000
1000
0010
0000
0001
0100
0001
0000
,
0000
2000
0000
3020
0000
0230
0000
0302
,
0000
0003
0100
0000
0100
0000
1000
0000
,
1000
2000
3010
0100
,
0010
0200
0301
0001
,
0001
0000
0010
0000
0001
0000
0100
1000
,
0010
0001
0001
0000
,
0000
0010
1000
0000
1000
0010
1000
0000
,
0100
0001
0000
0100
0001
0100
0001
0000
,
0000
0002
0000
0013
0000
0200
0000
0310
,
0000
1000
1000
0010
,
0010
0000
1010
0000
0000
0100
0000
1000
,
0000
0010
0010
0010
,
0010
0000
1001
0000
0000
0100
0000
0001
,
0000
1000
1000
0100
,
0100
1001
0000
0000
;

//---------------dance-single - ----------------
#NOTEDATA:;
#CHARTNAME:;
#STEPSTYPE:dance-single;
#DESCRIPTION:;
#CHARTSTYLE:;
#DIFFICULTY:Hard;
#METER:9;
#RADARVALUES:0.407831,0.460454,0.389615,0.134594,0.007084,403.000000,348.000000,55.000000,19.000000,0.000000,0.000000,0.000000,0.000000,0.000000,0.407831,0.460454,0.389615,0.134594,0.007084,403.000000,348.000000,55.000000,19.000000,0.000000,0.000000,0.000000,0.000000,0.000000;
#CREDIT:;
#NOTES:
// measure 0
0000
0000
0000
0000
,  // measure 1
0000
0000
0000
0000
,  // measure 2
0000
0000
0000
0000
,  // measure 3
0000
0000
0000
0000
,  // measure 4
0000
0000
0000
0000
,  // measure 5
0000
0000
0001
0010
0100
1000
0001
0010
,  // measure 6
0100
1000
0010
1000
0010
1000
0010
0100
,  // measure 7
0010
0001
0101
0100
,  // measure 8
0110
1001
0000
0000
,  // measure 9
0000
0000
1000
0000
0100
1000
0010
0000
,  // measure 10
1010
0000
0100
0000
0100
0010
0001
0000
,  // measure 11
0101
0000
0010
0000
0010
0100
0001
0000
,  // measure 12
0001
0100
0020
0000
1000
0000
0031
0000
,  // measure 13
0100
0000
1000
0010
0100
0010
1000
0000
,  // measure 14
1001
0000
0001
0100
0010
0100
0001
0000
,  // measure 15
1001
0000
0100
1000
0100
0001
0100
0000
,  // measure 16
0001
0020
1000
0001
,  // measure 17
1030
1000
1100
0001
,  // measure 18
0101
2001
0000
0100
,  // measure 19
3001
0100
0110
0010
,  // measure 20
1010
2100
0010
0001
,  // measure 21
3100
0010
0011
0001
,  // measure 22
0101
0210
0001
0010
,  // measure 23
0310
1000
1100
0100
,  // measure 24
0110
2002
0000
0000
,  // measure 25
3003
0000
0001
0010
1000
0010
0100
0100
,  // measure 26
0100
0000
1000
0100
0001
0000
0001
0010
,  // measure 27
0100
0000
0100
0010
1000
0001
1000
1000
,  // measure 28
1000
0000
0100
0010
1000
0000
0100
0010
,  // measure 29
0100
0000
0001
0100
0010
1000
0100
1000
,  // measure 30
0200
0000
1300
0100
0010
0001
0100
0010
,  // measure 31
0002
0000
1003
0010
1000
0010
0100
0010
,  // measure 32
0100
0100
0100
0000
0000
0000
0010
0000
,  // measure 33
0010
0012
0103
0100
,  // measure 34
1000
2100
3010
0100
,  // measure 35
0001
0000
0100
0001
0010
0000
0001
1000
,  // measure 36
0100
0100
0110
0000
,  // measure 37
0000
0001
1000
0000
1000
0100
0001
0000
,  // measure 38
0001
0100
0000
0100
0010
1000
0010
0000
,  // measure 39
0000
0011
0000
0110
0000
1100
0000
1001
,  // measure 40
0000
0000
1000
0100
1000
0100
0010
0100
,  // measure 41
0001
0100
0020
0000
0130
0000
1000
0000
,  // measure 42
0010
2010
3100
0010
,  // measure 43
1000
0000
0100
0010
1000
0000
1000
0100
,  // measure 44
0010
1000
1010
0000
,  // measure 45
0000
1000
0001
0000
0001
0100
1000
0000
,  // measure 46
0100
0010
0000
0010
1000
0010
1000
0000
,  // measure 47
0000
1000
0000
1100
0000
0100
0000
0101
,  // measure 48
0000
0000
0001
0100
0001
0100
0010
0100
,  // measure 49
0010
0000
0110
0000
0000
1100
0000
0101
,  // measure 50
0000
0010
0010
0100
,  // measure 51
0100
0000
0110
0000
0000
1010
0000
0011
,  // measure 52
0000
1000
0010
0010
,  // measure 53
0100
0001
0000
0001
,  // measure 54
0000
0010
0000
0010
,  // measure 55
0000
0100
0000
0100
,  // measure 56
0000
0010
0000
0010
,  // measure 57
0000
0000
0000
0000
0010
0000
0000
0000
0100
0000
0000
0000
1000
0000
0000
1000
,  // measure 58
0000
0000
2000
0000
0100
0000
0000
0000
0010
0000
0000
0000
3010
0000
0000
0010
,  // measure 59
0000
0200
0000
0000
0001
0000
0010
0000
,  // measure 60
0310
1001
0000
0000
,  // measure 61
0000
0120
0130
1000
,  // measure 62
0010
2010
3100
0100
,  // measure 63
0100
0000
1000
0010
0100
0000
1000
0100
,  // measure 64
0001
0100
0001
0000
1001
0000
0000
0000
,  // measure 65
0000
0001
0010
1000
0100
0010
0001
0000
,  // measure 66
0000
0001
0100
0000
0100
0001
0010
0000
,  // measure 67
0000
0110
0000
1001
0000
0110
0000
1001
,  // measure 68
0000
0000
0001
0010
0001
0010
0100
0010
,  // measure 69
1000
2010
3100
0100
,  // measure 70
0010
2001
3010
0100
,  // measure 71
0100
0000
1000
0100
0001
0000
0001
0010
,  // measure 72
0100
0010
0010
1000
,  // measure 73
0000
0010
1000
0000
1000
0010
0100
0000
,  // measure 74
0001
1000
0000
1000
0100
0001
0100
0000
,  // measure 75
0000
0001
0000
0101
0000
0100
0000
1001
,  // measure 76
0000
0000
1000
0100
1000
0100
0010
0001
,  // measure 77
0010
0000
1001
0000
0000
1100
0000
0011
,  // measure 78
0000
1000
1000
0001
,  // measure 79
0001
0000
1001
0000
0000
0110
0000
1001
,  // measure 80
0000
0000
0010
0000
0001
0000
0001
0010
,  // measure 81
0100
1001
0000
0000
;
