#TITLE:チカラ;
#SUBTITLE:(LIVE BAND style);
#ARTIST:BeForU;
#TITLETRANSLIT:CHIKARA;
#SUBTITLETRANSLIT:;
#ARTISTTRANSLIT:;
#GENRE:;
#CREDIT:;
#BANNER:banner.png;
#BACKGROUND:background.png;
#LYRICSPATH:Chikara.lrc;
#CDTITLE:Cdtitle.png;
#MUSIC:Chikara (LIVE BAND style).mp3;
#OFFSET:-0.120000;
#SAMPLESTART:33.215630;
#SAMPLELENGTH:12.839992;
#SELECTABLE:YES;
#BPMS:0.000000=180.000000
,193.000000=179.679993
;
#STOPS:
;
#BGCHANGES:;
#KEYSOUNDS:;
#ATTACKS:;

//---------------dance-single - ----------------
#NOTES:
     dance-single:
     :
     Beginner:
     2:
     0.094692,0.185005,0.090800,0.027240,0.000000,73.000000,63.000000,10.000000,3.000000,0.000000,0.000000,0.094692,0.185005,0.090800,0.027240,0.000000,73.000000,63.000000,10.000000,3.000000,0.000000,0.000000:
0000
0000
0000
0000
,
0000
0000
0000
0000
,
0000
0000
0000
0000
,
0000
0000
0000
0000
,
0000
0000
0000
0000
,
1000
0000
0000
0000
,
0000
0000
0000
0000
,
0010
0000
0000
0000
,
0000
0000
0000
0000
,
1001
0000
0000
0000
,
0010
0000
0000
0000
,
0010
0000
0000
0000
,
0100
0000
0000
0000
,
1000
0000
0000
0000
,
1000
0000
0000
0000
,
1000
0000
0000
0000
,
0001
0000
0000
0000
,
0001
0000
0000
0000
,
0001
0000
0000
0000
,
0010
0000
0010
0000
,
0010
0000
0000
0000
,
0100
0000
0100
0000
,
0100
0000
0000
0000
,
0010
0000
0000
0000
,
0100
0000
0000
0000
,
0110
0000
0000
0000
,
0000
0000
0000
0000
,
1001
0000
0000
0000
,
0010
0000
0000
0000
,
1001
0000
0000
0000
,
0100
0000
0000
0000
,
1001
0000
0000
0000
,
0010
0000
0000
0000
,
0110
0000
0000
0000
,
0100
0000
0000
0000
,
0100
0000
0000
0000
,
0010
0000
0000
0000
,
1001
0000
0000
0000
,
0010
0000
0000
0000
,
0100
0000
0000
0000
,
0000
0000
0000
0000
,
0010
0000
0000
0000
,
0000
1000
0000
0000
,
1000
0000
0000
0000
,
0001
0000
0000
0000
,
0001
0000
0000
0000
,
1000
0000
0000
0000
,
0010
0000
0000
0000
,
1000
0000
0000
0000
,
0000
0000
0001
0000
,
0000
0000
0000
0000
,
0000
0000
1000
0000
,
0000
0000
0000
0000
,
1000
0000
0000
0000
,
0000
0000
1000
0000
,
0000
0000
0000
0100
,
0000
0000
0000
0000
,
0000
0000
0010
0000
,
0000
0000
0001
0000
,
0000
0000
0001
0000
,
0000
0000
1000
0000
,
0000
0000
0010
0000
,
0000
0000
0100
0000
,
0000
0000
0001
0000
,
0000
0000
0000
0000
,
0000
0000
0010
0000
,
0000
0000
0000
0000
,
0000
0000
0100
0000
,
0000
0000
0000
0000
,
0000
0000
1001
0000
,
0000
0000
0000
0000
,
0010
0000
0000
0000
,
0200
0000
0000
0000
,
0000
0300
0000
0000
,
0000
0000
0010
0000
,
0000
0000
0100
0000
,
0000
0000
0000
0000
,
0000
0000
1001
0000
,
0000
0000
0000
0000
,
0000
0000
2002
0000
,
0000
0000
0000
0000
,
0000
0000
3003
0000
;

//---------------dance-single - ----------------
#NOTES:
     dance-single:
     :
     Easy:
     5:
     0.284075,0.407012,0.172520,0.181600,0.000000,219.000000,200.000000,19.000000,20.000000,0.000000,0.000000,0.284075,0.407012,0.172520,0.181600,0.000000,219.000000,200.000000,19.000000,20.000000,0.000000,0.000000:
0000
0000
0000
0000
,
0000
0000
0000
0000
,
0000
0000
0000
0000
,
0000
0000
0000
0000
,
0000
0000
0000
0000
,
0002
0000
0000
0000
,
0000
0000
0000
0003
,
0200
0000
0000
0000
,
0300
0000
0010
0100
,
0110
0000
0001
0010
,
0100
0001
0000
0001
,
0100
0001
0010
0001
,
0100
0000
0000
0010
,
1000
0010
0100
0000
,
1000
0001
1000
0000
,
0100
1000
0010
0000
,
0001
0000
0001
0010
,
0100
0000
0001
0010
,
0100
0000
0001
0100
,
0000
0000
0020
0000
,
2000
0000
3030
0000
,
0200
0000
0000
0000
,
0002
0000
0303
0001
,
0011
0000
0100
1100
,
0000
2002
0000
3003
,
0001
1000
0100
0010
,
1000
0100
1000
0000
,
0011
0000
0010
0001
,
0010
0100
1000
0000
,
0110
0000
1000
1000
,
0010
0100
0001
0000
,
1001
0000
0100
0100
,
0010
0010
0001
0001
,
0101
0000
0010
1000
,
0101
0000
1010
0000
,
0110
0000
1001
0000
,
0110
0000
0000
0002
,
1003
0000
0001
0010
,
0100
0001
0100
0000
,
0200
0000
0000
0000
,
0010
0010
0310
0110
,
0000
0001
1000
0010
,
0000
1000
0010
0100
,
0000
0001
0010
0100
,
0000
1000
0100
0010
,
0000
0001
0001
1000
,
0000
0010
0010
0100
,
0000
0001
0001
0100
,
0000
0001
1000
0001
,
0100
0001
0001
0000
,
0000
0100
1000
0001
,
0001
0100
0000
0010
,
0001
1000
1000
0010
,
0010
0100
0000
0001
,
0010
0100
1000
0100
,
0010
0000
0000
0100
,
0001
0100
0001
0010
,
0100
0010
0110
0000
,
0100
0000
0002
0003
,
0200
0300
0002
0003
,
0020
0000
0030
2000
,
3000
0000
0001
0100
,
0001
0000
0010
0100
,
0010
0001
0002
0000
,
0000
0000
0003
0000
,
0000
0100
0010
1000
,
0000
0001
0100
0010
,
0001
0100
0200
0000
,
0000
0000
0300
0000
,
0010
0100
1001
0000
,
0001
0001
0010
0010
,
0100
0100
1000
1000
,
0200
0000
0000
0000
,
0000
0300
0001
0100
,
0001
0100
0001
0100
,
0001
0100
0101
1000
,
0010
1000
0010
1000
,
0001
1000
1001
0000
,
0100
0000
1000
0100
,
0010
0001
2002
0000
,
0000
0000
0000
0000
,
0000
0000
3003
0000
;

//---------------dance-single - ----------------
#NOTES:
     dance-single:
     :
     Medium:
     7:
     0.402115,0.481014,0.208840,0.281480,0.000000,310.000000,287.000000,23.000000,31.000000,0.000000,0.000000,0.402115,0.481014,0.208840,0.281480,0.000000,310.000000,287.000000,23.000000,31.000000,0.000000,0.000000:
0000
0000
0000
0000
,
0000
0000
0000
0000
,
0000
0000
0000
0000
,
0000
0000
0000
0000
,
0000
0000
0000
0000
,
0001
0001
0001
0001
,
0001
1001
1000
1000
,
1000
1000
2000
3001
,
0100
0001
1000
0000
1000
0000
1001
0000
,
0100
0000
0001
0000
0100
0000
1000
0010
,
1000
0000
0001
0000
0100
0000
0001
0010
,
0100
0001
0010
0001
,
0100
0010
1000
1001
,
0001
0000
0100
0000
0001
0000
0010
1000
,
0010
0000
0001
0000
1000
0000
0100
0010
,
0001
1000
0001
2000
,
3001
0000
0001
0000
1001
0000
0010
0001
,
0100
0100
0010
0010
,
0010
1000
0100
0000
0001
0000
0100
0000
,
0101
0000
1010
0000
,
1001
0000
0001
0100
,
0101
0000
0110
0000
,
1100
0000
0000
0000
0100
0000
0001
0100
,
0001
0000
0000
0100
0010
0100
0000
0000
,
0010
0220
0000
0330
,
0002
0000
0000
0000
1003
0100
1000
0000
,
0100
1000
0020
1030
,
2000
0000
0000
0000
3010
0001
0010
0000
,
0001
0100
2000
3001
,
1001
0000
0001
0000
0010
0001
0100
0000
,
0010
0100
0001
0100
,
0101
0000
0001
0000
0000
1000
0010
1000
,
0010
0100
0010
0100
,
0110
0000
0010
0000
0000
0010
0100
0100
,
0200
0000
0320
0000
,
0032
0000
2003
0000
,
0002
0000
3003
0020
,
0130
0000
0001
0000
0100
0000
0010
0001
,
0100
1000
0010
1000
,
0002
0010
0100
1003
,
0001
1000
0001
1001
,
0100
0100
0100
0100
,
0100
0110
0010
0010
,
0010
0010
0010
0010
,
0011
0001
0001
0001
,
1001
1000
1000
1000
,
1000
1000
1000
1100
,
0100
0100
0100
0100
,
0010
0001
1000
0001
,
0100
0001
0001
0000
,
0001
0000
0100
0000
1000
0100
0001
0000
,
0001
0100
0000
0010
,
0001
0010
0001
0000
0100
0000
0010
0000
,
1000
0100
0000
0010
,
0100
0001
0100
0000
1000
0000
0100
0000
,
0010
0010
0000
0001
,
0010
0100
1000
0000
0001
0000
0010
0000
,
0100
0010
0110
0100
,
0010
0000
0010
0001
0020
0000
0130
0000
,
0200
1300
2000
3001
,
0002
1003
2000
0000
,
3010
0100
0001
0100
,
0001
0000
0000
0000
0010
0000
0100
0001
,
0010
0001
0002
0000
,
0023
0000
0230
0000
,
2300
0000
3100
1000
,
0010
0000
1000
0100
0010
0000
0010
0000
,
0001
0100
2000
0000
,
3200
0000
0320
0000
,
0032
0010
1003
0000
,
0100
0001
0010
0100
,
1000
0000
0100
0000
1000
0000
0000
1000
,
0020
0000
0000
0000
,
0000
0030
0001
0001
,
0001
0010
0010
0010
,
0100
0100
1001
1000
,
1000
1000
0010
0010
,
0010
0100
1001
0000
,
0100
0000
0010
0000
1000
0100
0010
0001
,
0010
0100
1000
0000
2002
0000
0000
0000
,
0000
0000
0000
0000
,
0000
0000
3003
0000
;

//---------------dance-single - ----------------
#NOTES:
     dance-single:
     :
     Hard:
     9:
     0.530532,0.629018,0.508481,0.163440,0.000000,409.000000,353.000000,56.000000,18.000000,0.000000,0.000000,0.530532,0.629018,0.508481,0.163440,0.000000,409.000000,353.000000,56.000000,18.000000,0.000000,0.000000:
// measure 0
0000
0000
0000
0000
,  // measure 1
0000
0000
0000
0000
,  // measure 2
0000
0000
0000
0000
,  // measure 3
0000
0000
0000
0000
,  // measure 4
0000
0000
0000
0000
,  // measure 5
1000
1001
0001
0101
,  // measure 6
0001
0000
0001
0010
0001
0000
0011
0000
,  // measure 7
0010
1010
1000
1001
,  // measure 8
1000
0100
0010
0000
0100
0000
1001
0000
,  // measure 9
0010
1000
0010
1000
0000
0000
0001
0100
,  // measure 10
0010
1000
0100
0000
0100
0000
0001
0010
,  // measure 11
0100
0000
0001
0000
0010
0000
1000
0010
,  // measure 12
0000
0010
1000
1001
,  // measure 13
1000
0100
0010
0000
0001
0000
0100
1000
,  // measure 14
0100
1000
0100
0000
1000
0000
0100
0010
,  // measure 15
0001
0000
0100
0000
0010
0000
0100
0100
,  // measure 16
0000
0000
0001
0000
1001
0000
0010
0001
,  // measure 17
0100
0000
0010
0001
0100
0000
0010
0000
,  // measure 18
0010
0001
0100
0010
0000
0100
0000
0001
,  // measure 19
0010
1010
1100
0101
,  // measure 20
1001
0000
1000
1000
0001
0000
0100
0000
,  // measure 21
0101
0000
0000
1100
0000
0000
1000
2000
,  // measure 22
0000
0000
3000
0000
0100
0000
1000
0010
,  // measure 23
1000
0000
0000
0001
0100
0001
0001
0000
,  // measure 24
0001
2002
0000
3003
,  // measure 25
0020
0000
0000
0000
0130
1000
0100
1000
,  // measure 26
0100
1000
0010
0100
,  // measure 27
0001
0100
0001
0100
0000
0100
0001
0100
,  // measure 28
0010
1000
1000
0001
,  // measure 29
1001
0000
0001
0000
0100
0000
0100
0001
,  // measure 30
0010
0100
0001
0101
,  // measure 31
1100
0000
0010
0000
0000
0001
0100
0001
,  // measure 32
0100
0001
0010
0100
,  // measure 33
0110
0000
0010
0000
0000
0100
1000
0100
,  // measure 34
2000
0010
3200
0001
,  // measure 35
0320
0100
2030
0001
,  // measure 36
0200
0000
0000
0000
3300
0000
0001
0001
,  // measure 37
0101
0000
0001
0000
0100
0000
0010
0001
,  // measure 38
0100
0000
1000
0010
0000
0010
0100
0000
,  // measure 39
1020
1000
0000
1030
,  // measure 40
0100
0001
0100
0000
0010
0000
1001
0000
,  // measure 41
0100
0110
0010
0011
,  // measure 42
0001
0000
0101
0000
0001
1000
0001
0000
,  // measure 43
1001
1000
1100
0010
,  // measure 44
0011
0000
0010
1000
0010
0000
1010
0000
,  // measure 45
1000
1100
0100
0101
,  // measure 46
0001
0000
0011
0000
0010
0100
0010
0000
,  // measure 47
0110
0100
1100
1000
,  // measure 48
1010
0001
1000
0001
,  // measure 49
0100
0010
0100
0010
1000
0000
0001
0000
,  // measure 50
0001
0000
1000
0010
0001
0000
0100
0000
,  // measure 51
0010
0000
0100
0000
0001
0010
0100
0000
,  // measure 52
0100
0001
0100
0001
0100
0000
0010
0000
,  // measure 53
0011
0000
1010
0000
0000
0010
0001
0000
,  // measure 54
0001
0010
0100
1000
1000
0000
0100
0000
,  // measure 55
0110
0000
1001
0000
0100
0010
0000
0010
,  // measure 56
1000
0100
1000
0100
1000
0000
0001
0000
,  // measure 57
0100
0101
1100
0100
,  // measure 58
0001
0000
0100
0001
0020
0000
1000
0000
,  // measure 59
0230
0001
2300
0010
,  // measure 60
3002
1000
2003
0001
,  // measure 61
3000
0010
0100
0010
0100
0000
0001
0000
,  // measure 62
1000
0000
0010
0000
0100
0000
0001
0100
,  // measure 63
1000
0000
0010
0000
0001
0010
0100
0000
,  // measure 64
1000
0010
1000
0000
1000
0100
0010
0000
,  // measure 65
0001
0001
0010
1000
,  // measure 66
0010
0100
0001
0100
0010
0000
0010
0000
,  // measure 67
0001
0010
0100
0000
1000
0010
1000
0000
,  // measure 68
0100
0010
0001
0000
0100
0010
0100
0000
,  // measure 69
0010
0100
0110
0001
,  // measure 70
0000
0101
1100
0011
,  // measure 71
1010
0000
0010
0000
0100
0000
0000
0100
,  // measure 72
0002
0000
0000
0000
0003
0000
0100
0010
,  // measure 73
0100
0010
0100
0010
0100
0000
0101
0000
,  // measure 74
0001
0000
0011
0000
0001
0000
0100
0001
,  // measure 75
0100
0101
1100
1000
,  // measure 76
1010
0010
0110
0010
,  // measure 77
0011
0000
0110
0000
1001
0000
0001
0100
,  // measure 78
0010
0010
0010
0000
1000
0100
1000
0100
,  // measure 79
0010
0001
0010
0100
2002
0000
0000
0000
,  // measure 80
0000
0000
0000
0000
,  // measure 81
0000
0000
3003
0000
;
