#TITLE:Catch My Breath;
#SUBTITLE:;
#ARTIST:Kelly Clarkson;
#TITLETRANSLIT:;
#SUBTITLETRANSLIT:;
#ARTISTTRANSLIT:;
#GENRE:;
#CREDIT:;
#BANNER:banner.png;
#BACKGROUND:background.png;
#LYRICSPATH:;
#CDTITLE:Cdtitle.png;
#MUSIC:Catch My Breath.mp3;
#OFFSET:-0.148354;
#SAMPLESTART:76.339996;
#SAMPLELENGTH:15.340000;
#SELECTABLE:YES;
#BPMS:0.000000=124.000000
;
#STOPS:
;
#BGCHANGES:16.000=Catch My Breath.avi=1.000=1=0=0=StretchNoLoop==CrossFade==,
99999=-nosongbg-=1.000=0=0=0 // don't automatically add -songbackground-
;
#KEYSOUNDS:;
#ATTACKS:;

//---------------dance-single - ----------------
#NOTES:
     dance-single:
     :
     Beginner:
     2:
     0.104721,0.188964,0.081450,0.008145,0.000000,90.000000,80.000000,10.000000,1.000000,0.000000,0.000000,0.104721,0.188964,0.081450,0.008145,0.000000,90.000000,80.000000,10.000000,1.000000,0.000000,0.000000:
0000
0000
0000
0000
,
0000
0000
0000
0000
,
0000
0000
0000
0000
,
0000
0000
0000
0000
,
0000
0000
0000
0000
,
0000
0000
0000
0000
,
0000
0000
0000
0000
,
0000
0000
0000
0000
,
0001
0000
0000
0000
,
0000
0000
0000
0000
,
1000
0000
0000
0000
,
1000
0000
0000
0000
,
0010
0000
0000
0000
,
0010
0000
0010
0000
,
0100
0000
0100
0000
,
0100
0000
0001
0000
,
0001
0000
0000
0000
,
1000
0000
0000
0000
,
0010
0000
0000
0000
,
0010
0000
0000
0000
,
0100
0000
0000
0000
,
0001
0000
0001
0000
,
1000
0000
1000
0000
,
1000
0000
0000
0000
,
0010
0000
0000
0000
,
1001
0000
0100
0000
,
0110
0000
0010
0000
,
1001
0000
0000
0000
,
0010
0010
0010
0000
,
0100
0100
0100
0000
,
0001
0000
0001
0000
,
0100
0010
0100
0000
,
1001
0000
0000
0000
,
1000
0000
1000
0000
,
0010
0000
0100
0000
,
0010
0010
0010
0000
,
0110
0000
0000
0000
,
0100
0000
0000
0000
,
1001
0000
0000
0010
,
0000
0100
0100
0100
,
0000
0000
0001
0001
,
0001
0000
0010
0000
,
0010
0000
0100
0000
,
0100
0000
0001
0000
,
0001
0000
1000
0000
,
1000
0000
0010
0000
,
0010
0000
0000
0000
,
0010
0000
0000
0000
,
0110
0000
0000
1001
,
0000
0010
0000
0010
,
0000
0100
0000
0100
,
0000
0000
0000
0000
,
1001
0000
0000
1001
,
0000
0010
0000
0010
,
0000
0100
0000
0100
,
0000
0001
0000
0000
,
0020
0000
0000
0000
,
0000
0000
0000
0000
,
0030
0000
0000
0000
;

//---------------dance-single - ----------------
#NOTES:
     dance-single:
     :
     Easy:
     3:
     0.187335,0.236204,0.081450,0.048870,0.000000,161.000000,151.000000,10.000000,6.000000,0.000000,0.000000,0.187335,0.236204,0.081450,0.048870,0.000000,161.000000,151.000000,10.000000,6.000000,0.000000,0.000000:
0000
0000
0000
0000
,
0000
0000
0000
0000
,
0000
0000
0000
0000
,
0000
0000
0000
0000
,
0000
0000
0000
0000
,
0000
0000
0000
0000
,
0000
0000
0000
0000
,
0000
0000
0000
0000
,
0001
0000
0100
0001
,
0100
0000
0010
0000
,
1000
0001
1000
0000
,
0010
0000
0100
0010
,
0100
0000
0000
0000
,
0001
0000
0001
0000
,
1000
1000
0010
0010
,
1000
0100
1000
0100
,
0001
0101
0000
0000
,
0010
0100
1000
0100
,
0010
1010
0000
0000
,
0001
0000
0001
0000
,
1000
1000
0000
0000
,
0010
0000
0010
0000
,
0100
0100
0100
0200
,
0000
0000
0000
0001
,
0301
0000
0010
0100
,
0110
0000
0001
0100
,
0001
0010
0100
1000
,
1100
0000
0001
0001
,
1000
0000
0100
0100
,
0001
0000
0010
0010
,
0001
0001
0100
0100
,
0010
0010
1000
1000
,
1010
0000
0200
0301
,
0001
0010
0100
0100
,
0000
1000
0100
0010
,
0010
0100
0100
0001
,
1001
0000
2000
3010
,
0100
0010
0001
0001
,
0000
0010
0100
1000
,
1000
0001
0010
0100
,
0101
0000
0010
0100
,
1100
0000
0001
0100
,
0001
0100
0010
1000
,
0100
0000
0001
0100
,
0100
0000
1000
0010
,
0010
0000
0010
0100
,
0010
0001
0100
0010
,
1000
1000
0010
0010
,
0110
0000
0020
0130
,
0010
0001
0100
0100
,
0000
0010
0100
0100
,
0000
0100
0100
0001
,
0011
0000
0200
0301
,
0100
0010
0001
0001
,
0000
0010
0100
1000
,
1000
0100
0010
0001
,
0200
0000
0000
0000
,
0000
0000
0000
0000
,
0300
0000
0000
0000
;

//---------------dance-single - ----------------
#NOTES:
     dance-single:
     :
     Medium:
     5:
     0.232714,0.283445,0.081450,0.260639,0.000000,200.000000,190.000000,10.000000,32.000000,0.000000,0.000000,0.232714,0.283445,0.081450,0.260639,0.000000,200.000000,190.000000,10.000000,32.000000,0.000000,0.000000:
0000
0000
0000
0000
,
0000
0000
0000
0000
,
0000
0000
0000
0000
,
0000
0000
0000
0000
,
0000
0000
0000
0000
,
0000
0000
0000
0000
,
0000
0000
0000
0000
,
0000
0000
0000
0000
,
0010
0000
0000
0000
0100
0000
0001
0100
,
0001
0000
0010
0010
,
1000
0000
0010
1000
0010
0000
0001
0000
,
0100
0001
0100
0001
,
0100
0000
0001
0100
0001
0000
0000
0000
,
0010
0000
0000
0100
0000
0001
0000
0000
,
0100
0000
0001
0000
0000
0100
0000
0001
,
1000
0100
1000
0001
,
0100
0010
0010
0000
0001
0000
0100
0000
,
0001
0000
0010
0000
1000
0000
0100
0001
,
0001
0000
0100
0000
0001
0100
0001
0000
,
0010
1000
0010
0000
0001
0000
0010
0000
,
1000
1001
0000
0000
,
0002
0013
0001
0000
,
0002
0000
0000
0023
0000
0230
0000
2300
,
0000
0000
3000
0001
,
1001
0000
0000
0000
0010
0100
0100
0000
,
0100
0000
0001
0010
,
1000
0000
0010
0000
0001
0000
0001
1000
,
1000
0000
0201
0001
,
0301
0000
1020
1000
,
1030
0100
0001
0001
,
1000
1000
0100
0100
,
0020
2030
3002
0203
,
0301
0000
0012
1003
,
0001
0010
2000
3001
,
0000
0000
1000
0000
0100
0010
0100
0000
,
0002
2003
3020
0230
,
0301
0000
0102
1003
,
0010
0000
0100
0000
0010
1000
0010
0000
,
0100
0000
0001
0000
0100
1000
1000
0000
,
0100
0000
0001
0000
0010
0010
0100
0000
,
0100
0000
0000
0000
0010
0010
0100
0000
,
0001
0010
1000
0010
,
1000
0000
0100
0000
0010
0010
0100
0000
,
0100
0000
0120
0100
,
0130
0000
1002
1000
,
1003
0000
0000
0000
1000
0010
0100
0000
,
0001
0100
0001
0000
0100
0000
0010
0000
,
2000
3200
0320
0032
,
0103
0000
0120
1030
,
0010
0001
2000
3100
,
0010
0000
0100
0000
1000
0100
1000
0000
,
0020
0230
2300
3002
,
0103
0000
2100
3001
,
0100
0000
0010
0000
0010
0100
0010
0000
,
0000
0000
0001
0000
0010
1000
1000
0000
,
0010
0000
0100
0000
0001
0010
0100
0000
,
2000
0000
0000
0000
,
0000
0000
0000
0000
,
3000
0000
0000
0000
;

//---------------dance-single - ----------------
#NOTES:
     dance-single:
     :
     Hard:
     6:
     0.333944,0.425168,0.154755,0.097740,0.000000,287.000000,268.000000,19.000000,12.000000,0.000000,0.000000,0.333944,0.425168,0.154755,0.097740,0.000000,287.000000,268.000000,19.000000,12.000000,0.000000,0.000000:
// measure 0
0000
0000
0000
0000
,  // measure 1
0000
0000
0000
0000
,  // measure 2
0000
0000
0000
0000
,  // measure 3
0000
0000
0000
0000
,  // measure 4
0000
0000
0000
0000
,  // measure 5
0000
0000
0000
0000
,  // measure 6
0000
0000
0000
0000
,  // measure 7
0000
0000
0000
0000
,  // measure 8
0020
0000
1030
0000
0100
0001
0100
0010
,  // measure 9
0001
0000
0002
0000
0013
0000
0001
0010
,  // measure 10
0000
0010
0100
1000
1000
0000
0010
0000
,  // measure 11
0100
0000
0100
1000
1000
0001
0010
0100
,  // measure 12
2000
0000
3001
0010
0010
0000
0100
0000
,  // measure 13
0020
0000
0000
0130
0000
0001
0000
0000
,  // measure 14
0200
0000
0000
0302
0000
0103
0000
0001
,  // measure 15
1000
0100
1000
0100
0010
0010
0100
0001
,  // measure 16
0010
0000
0010
0000
0001
0010
0100
0010
,  // measure 17
0001
0000
0100
0000
0001
0000
0100
0010
,  // measure 18
0100
1000
1000
0000
0010
0100
0001
0000
,  // measure 19
0010
0100
1000
0000
0010
0000
0010
0000
,  // measure 20
0100
0100
1100
0000
,  // measure 21
0001
0000
0100
0000
0001
0100
0010
0000
,  // measure 22
0011
0000
0000
0110
0000
1100
0000
2002
,  // measure 23
0000
0000
3003
0000
0010
0010
0100
0000
,  // measure 24
0110
0000
1000
0000
0001
0100
0001
0000
,  // measure 25
0101
0000
0100
0000
1000
0100
0010
0000
,  // measure 26
0100
0000
0010
0000
0100
1000
0010
0100
,  // measure 27
0100
0000
0001
0000
0100
0100
0001
0000
,  // measure 28
0002
0000
1003
0000
1000
1000
0020
0000
,  // measure 29
0130
0000
0100
0000
0010
0100
0010
0000
,  // measure 30
1000
0100
1000
0010
0100
0001
0010
0100
,  // measure 31
1000
1000
0010
0010
0100
0100
0001
0001
,  // measure 32
1001
0000
0001
1001
,  // measure 33
0000
0001
0100
0010
1000
1000
0100
0000
,  // measure 34
0001
0010
0100
1000
0100
0010
0010
0000
,  // measure 35
0100
0100
0010
0010
1000
1000
0001
0001
,  // measure 36
0011
0000
0001
0011
,  // measure 37
0000
0100
1000
0001
0010
0100
0100
0000
,  // measure 38
0000
0010
0100
0001
0010
1000
1000
0000
,  // measure 39
0100
0001
0100
0001
1000
0010
0100
0100
,  // measure 40
0110
0000
0001
0000
1000
0010
1000
0000
,  // measure 41
1010
0000
0010
0000
1000
0100
0010
0000
,  // measure 42
0001
0000
0100
1000
0100
0010
0010
0000
,  // measure 43
1010
0000
0001
0000
1000
0010
0100
0000
,  // measure 44
0100
0000
0001
0000
0010
1000
0100
0000
,  // measure 45
1000
0000
0010
0000
1000
0010
0100
0000
,  // measure 46
0010
1000
0010
0000
1000
0100
1000
0010
,  // measure 47
1000
1000
0100
0100
0010
0010
0001
0001
,  // measure 48
0101
0000
0100
0101
,  // measure 49
0000
0100
0001
0100
0010
0010
0010
0000
,  // measure 50
0000
1000
0100
0010
0001
0001
0001
0000
,  // measure 51
0001
0001
0010
0010
0100
0100
1000
1000
,  // measure 52
1100
0000
0100
1100
,  // measure 53
0100
0001
0010
0001
0100
1000
1000
0000
,  // measure 54
0000
1000
0010
1000
0100
0001
0001
0000
,  // measure 55
0100
0010
0100
0010
1000
0010
0010
0100
,  // measure 56
2002
0000
0000
0000
,  // measure 57
0000
0000
0000
0000
,  // measure 58
3003
0000
0000
0000
;
