#TITLE:Caramelldansen;
#SUBTITLE:(Christmas Version);
#ARTIST:Caramell;
#TITLETRANSLIT:;
#SUBTITLETRANSLIT:;
#ARTISTTRANSLIT:;
#CREDIT:;
#BANNER:banner.png;
#BACKGROUND:background.png;
#LYRICSPATH:;
#CDTITLE:Cdtitle.png;
#MUSIC:Caramelldansen (Christmas Version).mp3;
#OFFSET:0.040;
#SAMPLESTART:52.900;
#SAMPLELENGTH:12.780;
#SELECTABLE:YES;
#BPMS:0.000=164.000;
#STOPS:205.000=0.020
;
#BGCHANGES:6.000=Caramelldansen christmas.avi=1.000=1=0=0,
99999=-nosongbg-=1.000=0=0=0 // don't automatically add -songbackground-
;

//---------------dance-single - ----------------
#NOTES:
     dance-single:
     :
     Beginner:
     3:
     0.110,0.161,0.047,0.019,0.000:
0000
0000
0000
0000
,
0000
0000
0000
0000
,
0000
0000
0000
0000
,
0000
0000
0000
0000
,
0000
0000
0000
0000
,
0000
0000
0000
0000
,
0000
0100
0000
0000
,
0000
0000
0000
0000
,
0000
0010
0000
0000
,
0000
0000
0000
0000
,
0020
0000
0000
0000
,
0000
0000
0030
0000
,
0000
1000
0000
0000
,
0000
0001
0000
0000
,
0000
1000
0000
0000
,
0000
0010
0000
0000
,
0000
0010
0000
0000
,
0000
0100
0000
0010
,
0000
0010
0000
0000
,
0000
1000
0000
0000
,
0000
0010
0000
0000
,
0000
0100
0000
0000
,
0000
0100
0000
0000
,
0000
0001
0000
0000
,
0000
0001
0000
0000
,
0000
1000
0000
0000
,
0000
1000
0000
0000
,
0000
0100
0000
0000
,
0000
0100
0000
0000
,
0000
0010
0000
0000
,
0000
0010
0000
0000
,
0000
1000
0000
0000
,
0000
0001
0000
0000
,
0000
0001
0000
0000
,
0000
0100
0000
0000
,
0000
0010
0000
0010
,
0010
0100
0000
0000
,
0000
1000
0000
1000
,
0000
0001
0000
0001
,
0000
0010
0000
0010
,
0000
0100
0000
0100
,
0000
1000
0000
1000
,
0000
0010
0000
0000
,
0000
0100
0000
0000
,
0000
1001
0000
0000
,
0000
0010
0000
0000
,
0000
0110
0000
0000
,
0000
1000
0000
0000
,
0000
0110
0000
0000
,
0000
0010
0000
0000
,
0000
1001
0000
0000
,
0000
0100
0000
0000
,
0000
0010
0000
0000
,
0000
1000
0000
0000
,
0000
1000
0000
1000
,
0000
0010
0000
0010
,
0000
0100
0000
0100
,
0000
0001
0000
0001
,
0000
0100
0000
0100
,
0000
0010
0000
0000
,
0000
1001
0000
1000
,
0000
1000
0000
0010
,
0000
0010
0000
0100
,
0000
0100
0000
0001
,
0000
0001
0000
0000
,
0000
0010
0000
0000
,
0000
0200
0000
0000
,
0000
0000
0000
0000
,
0000
0300
0000
0000
;

//---------------dance-single - ----------------
#NOTES:
     dance-single:
     :
     Easy:
     6:
     0.293,0.417,0.141,0.113,0.000:
0000
0000
0000
0000
,
0000
0000
0000
0000
,
0000
0000
0000
0000
,
0000
0000
0000
0000
,
0000
0000
0000
0000
,
0000
0000
0000
0000
,
0000
2000
0000
0000
,
0000
0000
0000
0000
,
3000
0200
0000
0000
,
0000
0000
0000
0300
,
0000
0020
1000
0000
,
1000
0000
1000
0030
,
1001
1000
0100
1000
,
0000
0001
0100
0001
,
0000
0010
0100
0010
,
0000
0001
0010
0100
,
0000
1000
0100
0010
,
0000
0010
1000
0100
,
0000
0010
0001
0100
,
0000
2002
0000
0000
,
3003
0100
0000
0100
,
0000
0100
0001
0100
,
0000
1000
0000
1000
,
0000
0001
1000
0001
,
0000
0001
0000
0001
,
0000
0001
1000
0001
,
0000
0100
0000
0100
,
0000
0100
0010
0100
,
0000
0100
0000
0100
,
0000
0100
1000
0100
,
0000
0001
0000
0001
,
0000
0001
0100
0001
,
0000
0010
0010
0010
,
0010
0100
0100
0100
,
0100
1000
0010
0100
,
0010
0002
0000
0100
,
0103
0001
0010
0100
,
0000
0010
0100
0010
,
1001
0001
0010
0100
,
0001
0010
0100
1000
,
1100
0100
0000
0100
,
0000
0001
0100
0001
,
0010
1000
1000
1000
,
0001
0001
0001
0101
,
1001
0010
0010
1000
,
0001
1000
2000
0000
,
3000
0100
0100
0010
,
0100
0010
0020
0000
,
0030
0001
0001
0001
,
0100
0001
0002
0000
,
0003
0100
0100
0100
,
0001
0100
0002
0023
,
0230
1300
0010
1000
,
0000
0100
0010
0100
,
0110
1000
0100
0010
,
1000
0100
0010
0001
,
0101
0100
0010
0100
,
0000
0010
1000
0010
,
1000
0100
0100
0100
,
0001
0001
0001
0011
,
1010
1001
1000
1010
,
0001
1000
0001
1000
,
1001
0100
0010
0001
,
0100
0010
0001
1000
,
0001
0100
0001
0100
,
0000
0001
0010
0100
,
1000
0001
0001
0001
,
1000
1000
1000
0010
,
1001
1001
0000
0000
;

//---------------dance-single - ----------------
#NOTES:
     dance-single:
     :
     Medium:
     8:
     0.386,0.482,0.179,0.254,0.033:
0000
0000
0000
0000
,
0000
0000
0000
0000
,
0000
0000
0000
0000
,
0000
0000
0000
0000
,
0000
0000
0000
0000
,
0000
0000
0000
0000
,
0000
0020
0000
0000
,
0000
0000
0000
0000
,
0000
0230
0000
0000
,
0000
0000
0000
0300
,
1000
0000
1000
0000
,
0001
0000
0001
0001
,
1001
0000
0000
0000
1000
0000
0000
1000
0000
0000
1000
0000
0000
0000
0000
0000
,
0100
0000
0000
0000
0001
0000
0000
0001
0000
0000
0001
0000
0000
0000
0000
0000
,
0010
0000
0000
0000
0100
0000
0000
0100
0000
0000
0100
0000
0000
0000
0000
0000
,
0001
0000
0000
0000
0010
0000
0000
0010
0000
0000
0010
0000
0000
0000
0000
0000
,
0001
0000
0000
0000
1000
0000
0000
1000
0000
0000
1000
0000
0000
0000
0000
0000
,
0100
0000
0000
0000
0100
0000
0000
0100
0000
0000
0100
0000
0000
0000
0000
0000
,
0010
0000
0000
0000
0010
0000
0000
0010
0000
0000
0010
0000
0000
0000
0000
0000
,
0001
2002
0000
0000
,
3003
0010
0000
1000
,
0000
0000
0010
0000
0001
0000
0001
0010
,
0100
0001
1000
1000
,
0100
0000
0001
0010
0001
0010
0100
0000
,
0010
0010
0010
0010
,
0100
0100
0100
0100
,
0100
0000
0100
0000
0010
0100
0000
0000
,
0001
0010
1000
0010
,
0100
0001
1000
0001
,
0100
0001
0100
0000
0100
0000
0010
0000
,
0010
0001
0010
0100
,
0001
0010
0100
1000
,
0100
0001
0001
0001
,
0001
1000
1000
1000
,
1000
0002
0023
0230
,
2300
3001
0010
1100
,
0101
0001
0010
0100
,
0000
0000
0010
0000
0100
0001
0200
0000
,
0301
0101
0001
0001
,
0100
0020
0230
0302
,
2003
0000
3001
0000
0100
0010
0100
0000
,
1000
0010
0001
1000
,
0010
0001
1000
1000
,
0010
0000
0010
0100
0010
0000
0110
0000
,
1001
0010
0010
1000
,
2000
3001
0100
0100
,
1001
0010
0010
0020
,
0031
0010
0011
0100
,
0100
0010
0010
0001
,
0100
0002
1003
1000
,
1001
0010
0010
0010
,
0001
0100
0101
1100
,
1010
1001
1000
0001
,
0001
0000
0100
0001
0100
0000
0020
0000
,
1030
0001
0001
0010
,
0002
0203
0320
2030
,
3010
0100
0010
0100
,
0001
0000
0010
0100
1000
0000
0020
0000
,
0130
0001
0100
0001
,
0010
0000
0100
0010
0100
0000
0110
0000
,
1001
0010
1000
1000
,
0001
0000
0010
0000
0001
0100
0002
0000
,
0103
0010
1000
0010
,
0200
0302
0023
2030
,
3010
0100
0001
0101
,
0010
0000
0001
0100
0010
0000
0100
0001
,
1000
0001
0010
0100
,
1000
0000
0010
1000
0010
0000
0100
0000
,
0110
1001
0000
0000
;

//---------------dance-single - ----------------
#NOTES:
     dance-single:
     :
     Hard:
     9:
     0.476,0.514,0.282,0.075,0.033: // measure 1
0000
0000
0000
0000
,  // measure 2
0000
0000
0000
0000
,  // measure 3
0000
0000
0000
0000
,  // measure 4
0000
0000
0000
0000
,  // measure 5
0000
0000
0000
0000
,  // measure 6
0000
0000
0000
0000
,  // measure 7
0000
2000
0001
0000
,  // measure 8
0001
0000
0001
0000
,  // measure 9
3001
0020
1000
0000
,  // measure 10
1000
0000
1000
0030
,  // measure 11
1000
0000
0000
1000
0000
0010
0000
0100
,  // measure 12
0000
0001
0000
1000
0000
0100
0000
0010
,  // measure 13
1001
0000
0000
0000
1000
0000
0000
0100
0000
0000
1000
0000
0000
0000
0010
0000
,  // measure 14
0001
0000
0010
0000
0100
0000
0000
1000
0000
0000
1000
0000
0000
0000
0100
0000
,  // measure 15
0001
0000
1000
0000
0010
0000
0000
0010
0000
0000
0010
0000
0000
0000
0100
0000
,  // measure 16
0001
0000
0100
0000
0001
0000
0000
0001
0000
0000
0001
0000
0000
0000
1000
0000
,  // measure 17
0100
0000
0010
0000
0001
0000
0000
0001
0000
0000
0001
0000
0000
0000
0010
0000
,  // measure 18
1000
0000
0010
0000
1000
0000
0000
1000
0000
0000
1000
0000
0000
0000
0001
0000
,  // measure 19
0010
0000
0001
0000
0100
0000
0000
0100
0000
0000
0100
0000
0001
0000
0100
0000
,  // measure 20
0010
0220
0000
0000
,  // measure 21
0330
0001
0001
0001
,  // measure 22
0001
0000
0100
0001
0000
0001
0100
0001
,  // measure 23
0100
0001
1000
1000
,  // measure 24
1000
0000
0010
0100
0000
0100
0001
0000
,  // measure 25
0001
0100
0001
0000
0010
0000
0010
0000
,  // measure 26
0100
0100
1000
1000
,  // measure 27
0001
0100
0000
0100
0001
0000
0010
0000
,  // measure 28
0100
0001
1000
0010
,  // measure 29
0100
0001
1000
0001
,  // measure 30
0100
0001
0100
0000
0010
0000
1001
0000
,  // measure 31
0100
0000
1000
0000
0100
0000
1000
0100
,  // measure 32
0001
0100
0001
0000
0001
0001
0000
0001
,  // measure 33
0100
0000
0010
0100
0001
0000
0001
0100
,  // measure 34
0001
0000
1000
0010
0100
0000
0001
1000
,  // measure 35
0001
2000
3020
0230
,  // measure 36
0302
1003
0110
1001
,  // measure 37
0110
0000
1000
0100
0010
0100
1000
0000
,  // measure 38
0001
0010
0100
0001
0100
0000
1100
0000
,  // measure 39
0101
0000
0010
0000
0100
0010
1000
0000
,  // measure 40
0001
0100
0001
0000
0001
0000
1000
0000
,  // measure 41
1001
0000
0010
0000
1000
0010
0100
0000
,  // measure 42
1000
0010
1000
0100
0010
0000
1010
0000
,  // measure 43
0010
0000
0001
0100
0000
0100
0001
0100
,  // measure 44
0010
0000
0001
0100
0100
0000
1100
0000
,  // measure 45
0101
0000
0010
0000
0010
0000
1000
0001
,  // measure 46
1000
0001
0000
0000
0010
0000
0010
1000
,  // measure 47
1100
0000
0010
0000
0010
0000
0100
0010
,  // measure 48
0100
0010
0000
0100
0101
0000
0001
0000
,  // measure 49
0001
0000
1000
0000
1000
0000
0010
1000
,  // measure 50
0010
1000
0000
1000
0000
0010
0000
1000
,  // measure 51
1100
0000
0010
0000
0010
0000
1000
0100
,  // measure 52
0010
0100
0010
0000
0011
0000
1010
0000
,  // measure 53
1001
0000
0001
0100
0010
1000
0001
0000
,  // measure 54
1000
0100
0010
0100
0100
0000
0101
0000
,  // measure 55
1100
0000
0001
0000
0001
0100
0001
0100
,  // measure 56
0001
0001
1000
1001
,  // measure 57
0010
0000
0100
0010
0001
1000
1000
0000
,  // measure 58
0001
0100
0001
0010
0011
0000
1010
0000
,  // measure 59
0100
0000
0001
0010
0100
1000
0001
0000
,  // measure 60
0010
1000
1000
0001
0001
0000
1100
0000
,  // measure 61
0101
0000
0010
0000
0010
0100
1000
0000
,  // measure 62
1000
0100
0010
0100
0001
0100
0101
0000
,  // measure 63
1100
0000
0001
0000
1000
0100
0010
0000
,  // measure 64
0010
0010
0100
0100
,  // measure 65
1001
0000
0100
0000
0001
0100
0001
0000
,  // measure 66
0001
0010
0100
0010
1000
0000
0100
0001
,  // measure 67
1000
0000
0001
0001
0010
0100
0010
0000
,  // measure 68
1000
0100
1000
0010
0010
0001
0100
0100
,  // measure 69
0110
1001
0000
0000
;
