#TITLE:CAN'T STOP THE FEELING!;
#SUBTITLE:;
#ARTIST:Justin Timberlake;
#TITLETRANSLIT:;
#SUBTITLETRANSLIT:;
#ARTISTTRANSLIT:;
#GENRE:;
#CREDIT:;
#BANNER:;
#BACKGROUND:;
#LYRICSPATH:;
#CDTITLE:;
#MUSIC:Can't Stop the Feeling!.mp3;
#OFFSET:-0.089614;
#SAMPLESTART:59.455585;
#SAMPLELENGTH:16.239998;
#SELECTABLE:YES;
#BPMS:0.000000=113.000000
,196.000000=113.319946
;
#STOPS:
;
#BGCHANGES:3.500=Can't Stop the Feeling!.avi=1.000=1=0=0=StretchNoLoop==CrossFade==,
99999=-nosongbg-=1.000=0=0=0 // don't automatically add -songbackground-
;
#KEYSOUNDS:;
#ATTACKS:;

//---------------dance-single - ----------------
#NOTES:
     dance-single:
     :
     Beginner:
     1:
     0.107354,0.184514,0.100644,0.026838,0.000000,112.000000,97.000000,15.000000,4.000000,0.000000,0.000000,0.107354,0.184514,0.100644,0.026838,0.000000,112.000000,97.000000,15.000000,4.000000,0.000000,0.000000:
0000
0000
0000
0000
,
0000
0000
0000
0000
,
0000
0000
0000
0000
,
0000
0000
0000
0000
,
0010
0000
0000
0000
,
0010
0000
0000
0000
,
1000
0000
0000
0000
,
1000
0000
0000
0000
,
0001
0000
0000
0000
,
0001
0000
0000
0000
,
0010
0000
0000
0000
,
0010
0000
0000
0000
,
1000
0000
1000
0000
,
0010
0000
0010
0000
,
0001
0000
0001
0000
,
0100
0000
0000
0000
,
1000
0000
1000
0000
,
0010
0000
0010
0000
,
0100
0000
0100
0000
,
1001
0000
0000
0000
,
0010
0000
0000
0000
,
0010
0000
0000
0000
,
0100
0000
0000
0000
,
0100
0000
0000
0000
,
0100
0000
0000
0000
,
0010
0000
0000
0000
,
0010
0000
0000
0000
,
0010
0000
0000
0000
,
1001
0000
0000
0000
,
0100
0100
0100
0000
,
0110
0000
0000
0000
,
0001
0001
0001
0000
,
1001
0000
0000
0000
,
0010
0010
0010
0000
,
1001
0000
0000
0000
,
1000
0000
0000
0000
,
0110
0000
0000
0000
,
1000
1000
1000
0000
,
0110
0000
0000
0000
,
0001
0001
0001
0000
,
0110
0000
0000
0000
,
0100
0100
0100
0000
,
0110
0000
0000
0000
,
1001
0000
0000
0000
,
0010
0000
0000
0000
,
0010
0000
0000
0000
,
0100
0000
0000
0000
,
0100
0000
0000
0000
,
0010
0000
0000
0000
,
0100
0000
0100
0000
,
0001
0001
0001
0000
,
1001
0000
0000
0000
,
0010
0010
0010
0000
,
1001
0000
0100
0000
,
0010
0010
0010
0000
,
1001
0000
0000
0000
,
1000
0000
1000
0000
,
0010
0000
0100
0000
,
0200
0000
0300
0000
,
0001
0000
0010
0000
,
0020
0000
0000
0030
,
0001
0000
0000
0000
,
2000
0000
3000
0000
,
0100
0000
0000
0000
,
0020
0000
0030
0000
,
1001
0000
0000
0000
,
0100
0000
0100
0000
,
0010
0000
0010
0000
,
0010
0000
0000
1001
;

//---------------dance-single - ----------------
#NOTES:
     dance-single:
     :
     Easy:
     3:
     0.156238,0.230643,0.114063,0.100644,0.000000,163.000000,146.000000,17.000000,15.000000,0.000000,0.000000,0.156238,0.230643,0.114063,0.100644,0.000000,163.000000,146.000000,17.000000,15.000000,0.000000,0.000000:
0000
0000
0000
0000
,
0000
0000
0000
0000
,
0000
0000
0000
0000
,
0000
0000
0000
0000
,
0001
0000
0001
0000
,
0001
0000
0000
0000
,
0010
0000
1000
0000
,
0010
0000
0010
0000
,
1000
0000
1000
0000
,
1000
0000
0000
0000
,
0001
0000
0100
0000
,
0101
0000
0001
0001
,
0010
1000
0010
0000
,
0100
0010
0001
0000
,
0001
0010
0100
0100
,
1001
0000
0010
0000
,
1000
1000
0010
0000
,
0001
0100
0101
0000
,
0010
0001
0010
0001
,
0011
0000
0100
0000
,
0020
0000
0000
0000
,
0000
0000
0030
0000
,
0200
0000
0000
0000
,
0000
0300
0000
0000
,
0002
0000
0000
0000
,
0000
0000
0003
0000
,
1001
0000
0010
0000
,
2002
0000
0000
0000
,
3003
0000
0001
0000
,
0001
0100
0001
0100
,
0000
0001
0000
0000
,
1000
0010
1000
0010
,
0100
0000
0100
0000
,
0100
0010
0100
0000
,
1001
0000
0001
0000
,
1000
1000
0010
0001
,
0100
0000
0100
0000
,
0100
1000
0100
0000
,
1001
0000
1000
0000
,
0001
0010
0100
0000
,
1001
0000
1000
0000
,
0100
0001
0100
0000
,
1001
0000
0010
0000
,
1000
0100
0010
0001
,
2000
0000
0000
3000
,
0002
0000
0000
0003
,
0020
0000
0000
0030
,
0200
0000
0000
0300
,
1001
0000
1001
0000
,
0010
1000
0010
0000
,
0001
0010
0001
0000
,
1001
0000
0100
0000
,
0001
0100
0001
0100
,
0101
0000
0010
0000
,
0100
1000
0100
1000
,
1010
0000
0001
0000
,
0010
0010
0100
1000
,
0010
1000
1000
1000
,
0020
0000
0030
0000
,
0000
0100
0100
0100
,
0002
0000
0000
0003
,
0001
0010
0010
0010
,
0200
0000
0000
0300
,
0100
0010
0010
0010
,
0002
0000
0003
0000
,
1001
0000
1000
0100
,
2000
0000
3100
0000
,
0000
0001
0100
0001
,
0200
0000
0300
0110
;

//---------------dance-single - ----------------
#NOTES:
     dance-single:
     :
     Medium:
     5:
     0.248256,0.322900,0.080515,0.369028,0.000000,259.000000,247.000000,12.000000,55.000000,0.000000,0.000000,0.248256,0.322900,0.080515,0.369028,0.000000,259.000000,247.000000,12.000000,55.000000,0.000000,0.000000:
0000
0000
0000
0000
,
0000
0000
0000
0000
,
0000
0000
0000
0000
,
0000
0000
0000
0000
,
0010
0000
0010
0000
,
0010
0000
0000
0100
,
0001
0000
0100
0000
0001
0010
0100
0000
,
0001
0000
0100
1000
,
1000
0000
0010
0001
,
0001
0000
0010
0100
,
0010
0000
0010
0000
0100
0000
0100
0100
,
0001
0000
0002
2003
,
3010
1000
1000
0100
,
0001
0000
0010
0010
0001
0000
0010
0000
,
0100
0010
1000
1000
,
1001
0000
0000
0010
,
0100
0100
0010
0000
,
0010
0000
1000
1000
1000
0000
1001
0000
,
0100
0000
1000
1000
0010
0000
0010
0000
,
1001
0000
0000
0000
0001
0000
0010
0010
,
0200
0001
0000
0001
,
0000
0001
0000
0320
,
0000
1000
0000
1000
,
0000
1000
0000
2030
,
0000
0001
0000
0001
,
0000
0001
3000
0001
,
0002
1003
0200
0310
,
0001
0020
0200
0330
,
0010
0000
0010
1000
0010
0000
0100
0000
,
0002
0023
0230
0301
,
0100
0000
0010
1000
0010
0000
1000
0000
,
2000
3020
0230
0301
,
0100
0000
0001
0100
0100
0000
0001
0000
,
0020
0230
0302
1003
,
0010
0000
0100
0100
0001
0000
0010
0000
,
2000
3001
0100
0010
,
0110
0100
0000
0100
,
0102
0000
0010
0000
1003
0000
0010
0100
,
0200
0000
0301
0010
,
2010
0100
3001
1000
,
1001
0000
0001
0000
0010
0000
0000
0010
,
0020
0032
2003
3001
,
0200
0000
0000
0301
,
0020
0230
0302
2003
,
3200
0000
0010
0000
0010
0000
0310
0001
,
2000
0000
0100
0000
0100
0000
3100
0010
,
0002
1000
1000
1003
,
0020
0000
0100
0000
0000
0100
0130
0100
,
0000
1000
1000
1000
0000
0001
0001
0001
,
1001
0000
1000
0100
0010
0000
0000
0100
,
2000
3200
0320
0031
,
0100
0000
0001
0000
0010
1000
0010
0000
,
0200
0302
0023
0130
,
1001
0000
1000
0000
0010
0100
1000
0000
,
2000
3020
2030
3001
,
1001
0000
1000
0000
0010
0000
0100
0010
,
0100
0001
0010
0100
,
1000
0000
0010
1000
0010
0000
2000
0000
,
0000
0020
0000
0000
3030
0000
0001
0000
,
0001
0100
0100
0000
0100
0001
0100
0000
,
0020
0000
0000
2000
0000
0000
3030
0000
,
0100
0010
0001
0000
0010
0001
0100
0000
,
2000
0000
0000
0200
0000
0000
3300
0000
,
0001
0000
0100
0001
0100
0000
0010
0000
,
0020
0000
0000
0200
0000
0000
0330
0000
,
0110
0000
0000
0000
1000
1000
0100
0000
,
0200
0000
0000
0020
0000
0000
0330
0000
,
0000
0000
0010
0010
1000
0000
0001
0000
,
2000
0000
0000
0020
3030
0000
1001
0000
;

//---------------dance-single - ----------------
#NOTES:
     dance-single:
     :
     Hard:
     7:
     0.347941,0.392093,0.389157,0.201288,0.000000,363.000000,305.000000,58.000000,30.000000,0.000000,0.000000,0.347941,0.392093,0.389157,0.201288,0.000000,363.000000,305.000000,58.000000,30.000000,0.000000,0.000000:
// measure 0
0000
0000
0000
0000
,  // measure 1
0000
0000
0000
0000
,  // measure 2
0000
0000
0000
0000
,  // measure 3
0000
0000
0000
0000
,  // measure 4
0001
0000
0000
0000
0001
0000
0100
0100
,  // measure 5
0001
0000
0001
0000
0010
0000
0010
0100
,  // measure 6
1000
0000
0010
1000
0010
0000
0100
0001
,  // measure 7
0100
0000
0101
0000
0000
0000
0001
0001
,  // measure 8
2000
0000
0010
0000
3000
0000
0100
0100
,  // measure 9
0020
1000
0030
1000
,  // measure 10
0100
0001
0001
0000
0001
0100
0001
0010
,  // measure 11
0100
0100
0101
1100
,  // measure 12
0010
0000
1000
1000
1000
0000
0001
0100
,  // measure 13
0010
1000
1000
0000
1001
0000
0010
0100
,  // measure 14
1000
0000
0010
0100
1000
0000
1000
0000
,  // measure 15
1001
0000
0100
0001
,  // measure 16
0010
0100
0010
0000
1000
0000
0100
0000
,  // measure 17
0001
0100
1000
1000
0100
0000
1100
0000
,  // measure 18
0100
0000
0010
1000
0010
0000
0100
0000
,  // measure 19
0101
0000
0010
0001
0010
0001
0010
0001
,  // measure 20
0020
0001
0000
0100
,  // measure 21
0000
1000
0000
0230
,  // measure 22
0000
1000
0000
0010
,  // measure 23
0000
0000
0001
0000
0000
0000
0300
1000
,  // measure 24
2000
0100
0000
0001
,  // measure 25
0000
0000
0010
0000
0000
0000
3000
0001
,  // measure 26
0002
0000
0010
0010
0203
0000
0001
0001
,  // measure 27
0300
2002
0000
3003
,  // measure 28
0010
1000
1000
0000
0010
1000
0010
0000
,  // measure 29
0011
1010
1100
1001
,  // measure 30
0100
0100
0010
0100
0001
0000
0010
0100
,  // measure 31
0101
0011
1010
1001
,  // measure 32
0100
0000
0001
0010
0001
0100
0000
0000
,  // measure 33
0110
1001
1100
0101
,  // measure 34
0001
0010
0100
0000
0001
0000
0100
1000
,  // measure 35
1100
0000
0101
0000
0100
0100
0010
0010
,  // measure 36
0110
0000
0100
0000
0000
0000
0001
0100
,  // measure 37
0101
1010
0110
1001
,  // measure 38
0010
0020
0000
0000
1030
0000
0100
0100
,  // measure 39
0110
1001
0011
1010
,  // measure 40
0001
0002
0000
0000
0013
0000
0100
0010
,  // measure 41
0110
1001
0110
1001
,  // measure 42
1000
2000
0000
0000
0000
0000
3001
0000
,  // measure 43
0010
0001
0010
0001
0100
0010
0100
0010
,  // measure 44
1000
0000
0010
0000
0010
0000
0010
0001
,  // measure 45
0000
0100
0001
0100
0100
0000
0100
0010
,  // measure 46
0001
0010
0010
1000
,  // measure 47
0000
0001
0100
0001
0000
0001
0100
0101
,  // measure 48
0000
1000
0010
1010
0000
0001
0001
0100
,  // measure 49
0100
0010
0100
1000
0100
0000
0000
0100
,  // measure 50
1100
0110
0011
1001
,  // measure 51
0100
0100
0001
0010
0100
1000
0100
0000
,  // measure 52
0110
0011
1010
1100
,  // measure 53
1001
0000
1000
0100
0010
0000
1000
0001
,  // measure 54
1001
0110
1001
0110
,  // measure 55
0001
0100
0001
0000
0001
0010
0100
0000
,  // measure 56
0100
0000
0001
0010
0100
1000
0010
0100
,  // measure 57
1000
0000
0010
1000
0010
1000
0010
0000
,  // measure 58
2020
0000
0030
0002
3003
0000
0001
0100
,  // measure 59
0100
0000
1000
0010
1000
0010
1000
0000
,  // measure 60
0022
0000
0030
0200
0000
0000
0303
0000
,  // measure 61
1000
0100
0001
0000
0001
0100
1000
0100
,  // measure 62
2200
0000
0300
0020
0000
0000
3030
0000
,  // measure 63
0001
0000
0010
0001
0001
0100
0010
0010
,  // measure 64
0022
0000
0003
0200
0000
0000
0330
0000
,  // measure 65
1001
0000
0010
0100
1000
1000
0100
0100
,  // measure 66
0220
0000
0300
2000
0000
0000
3030
0000
,  // measure 67
0001
0000
0010
1000
0100
1000
0100
0000
,  // measure 68
2200
0000
3000
0020
0330
0000
1001
0000
;
