#TITLE:Burn;
#SUBTITLE:;
#ARTIST:Ellie Goulding;
#TITLETRANSLIT:;
#SUBTITLETRANSLIT:;
#ARTISTTRANSLIT:;
#CREDIT:;
#BANNER:banner.png;
#BACKGROUND:background.png;
#LYRICSPATH:;
#CDTITLE:Cdtitle.png;
#MUSIC:Burn.mp3;
#OFFSET:-0.220;
#SAMPLESTART:48.720;
#SAMPLELENGTH:15.000;
#SELECTABLE:YES;
#BPMS:0.000=174.000;
#STOPS:;
#BGCHANGES:0.000=Burn.avi=1.000=1=0=0,
99999=-nosongbg-=1.000=0=0=0 // don't automatically add -songbackground-
;

//---------------dance-single - ----------------
#NOTES:
     dance-single:
     :
     Beginner:
     2:
     0.117,0.178,0.000,0.007,0.000:
0000
0000
0000
0000
,
0000
0000
0000
0000
,
0000
0000
0000
0000
,
0000
0000
0000
0000
,
1000
0000
0000
0000
,
0000
0000
0000
0000
,
0010
0000
0000
0000
,
0000
0000
0000
0000
,
0100
0000
0000
0000
,
0000
0000
0000
0000
,
0001
0000
0000
0000
,
0000
0000
0000
0000
,
0010
0000
0000
0000
,
0000
0000
0000
0000
,
0000
1000
0000
0000
,
0000
0100
0000
0000
,
0100
0000
0000
0000
,
0000
0000
0010
0000
,
0000
0000
0000
0000
,
0000
0010
0000
0000
,
0100
0000
0000
0000
,
0100
0000
0000
0000
,
0010
0000
0000
0000
,
0010
0000
0000
0000
,
1000
0000
0000
0000
,
1000
0000
0000
0000
,
0001
0000
0000
0000
,
0001
0000
0000
0000
,
0010
0000
0000
0000
,
0010
0000
0000
0000
,
0100
0000
0000
0000
,
0000
0000
0000
0000
,
0010
0000
0010
0010
,
0000
0000
0000
0000
,
0100
0000
0100
0100
,
0000
0000
0000
0000
,
0010
0000
0010
0010
,
0010
0000
0000
0000
,
1000
0000
1000
1000
,
0000
1000
0000
0000
,
1000
0000
1000
1000
,
0000
1000
0000
0000
,
0001
0000
0001
0001
,
0000
0001
0000
0000
,
0010
0000
0000
0000
,
0010
0000
0000
0000
,
0100
0000
0000
0000
,
0100
0000
0000
0000
,
0010
0000
0000
0000
,
1000
0000
0000
0000
,
1000
0000
0000
0000
,
0001
0000
0000
0000
,
0010
0010
0000
0000
,
0100
0100
0000
0000
,
0001
0001
0000
0000
,
0100
0100
0000
0000
,
1000
0000
0000
0000
,
1000
0000
0000
0000
,
0010
0000
0000
0000
,
0010
0000
0010
0000
,
1000
0000
0000
0000
,
1000
0000
0000
0000
,
0010
0000
0000
0000
,
0010
0000
0000
0000
,
0100
0000
0000
0000
,
0100
0000
0000
0000
,
0001
0000
0000
0000
,
0001
0000
0000
0000
,
0010
0000
0000
0000
,
0010
0000
0000
0000
,
0100
0000
0000
0000
,
0100
0000
0000
0000
,
0010
0000
0010
0010
,
0000
0010
0000
0000
,
1000
0000
1000
1000
,
0000
0000
0000
0000
,
0001
0000
0001
0001
,
0000
0001
0000
0000
,
0100
0000
0100
0100
,
0000
0100
0000
0000
,
0010
0000
0010
0010
,
0000
0010
0000
0000
,
1000
0000
1000
1000
,
1000
0000
0000
0000
,
0010
0000
0000
0000
,
0100
0000
0000
0000
,
0100
0000
0000
0000
,
1000
0000
0000
0000
,
1000
0000
0000
0000
,
0010
0000
0000
0000
,
0010
0000
0000
0000
,
0100
0000
0000
0000
,
0010
0000
0000
0000
,
0010
0000
0000
0000
,
0001
0000
0000
0000
,
0001
0000
0000
0000
,
0010
0000
0010
0010
,
0000
0010
0000
0000
,
1000
0000
1000
1000
,
0000
0000
0000
0000
,
0020
0000
0000
0000
,
0000
0000
0000
0000
,
0000
0000
0000
0000
,
0000
0000
0000
0000
,
0030
0000
0000
0000
;

//---------------dance-single - ----------------
#NOTES:
     dance-single:
     :
     Easy:
     5:
     0.201,0.284,0.130,0.191,0.000:
0000
0000
0000
0000
,
0000
0000
0000
0000
,
0000
0000
0000
0000
,
0000
0000
0000
0000
,
0002
0000
0000
0000
,
0003
0100
0000
0000
,
2000
0000
0000
0000
,
3000
0000
0000
0000
,
0020
0000
0000
0000
,
0000
0030
0000
0000
,
0200
0000
0000
0000
,
0300
0000
0000
0000
,
2000
0000
0000
3000
,
0000
0001
0000
0200
,
0000
0300
0000
0200
,
0000
0300
0000
0000
,
0020
0000
0000
0030
,
0000
0000
0100
0000
,
0002
0000
0000
0003
,
0000
0002
0003
0000
,
0100
0000
0100
0000
,
0100
0000
0000
0000
,
0010
0000
0010
0000
,
0010
0000
0000
0000
,
1000
0000
1000
0000
,
1000
0000
0010
0000
,
0100
0000
0100
0000
,
0100
0000
0001
0000
,
0001
0000
0001
0000
,
0010
0000
0010
0000
,
0100
0000
0100
0000
,
1000
0000
1000
0000
,
0001
0000
0100
0001
,
0000
0001
0000
0000
,
0010
0000
0010
1000
,
0000
0010
0000
0000
,
0100
0000
0001
0001
,
0000
0101
0000
0000
,
0010
0000
1000
1000
,
0000
1010
0000
0000
,
0100
0000
0010
0010
,
0000
0110
0000
0000
,
0001
0000
1000
1000
,
0000
1001
0000
0000
,
0100
0000
0001
0000
,
0100
0000
0010
0000
,
0100
0000
1000
0000
,
0100
0000
0001
0000
,
0010
0000
0100
0000
,
1000
0000
0010
0010
,
0100
0100
1000
1000
,
0001
0001
0000
0000
,
0100
0110
0000
0000
,
0001
1001
0000
0000
,
0100
0101
0000
0000
,
0010
1010
0000
0000
,
0100
0110
0000
0000
,
1000
1010
0000
0000
,
0100
0101
0000
0000
,
0100
0001
0100
0001
,
0010
0000
0100
0000
,
0100
0000
0100
0000
,
0002
0000
0000
0000
,
0003
0000
1000
0000
,
0020
0000
0000
0000
,
0030
0000
2000
0000
,
0000
0000
3000
0000
,
0002
0000
0003
0000
,
0020
0000
0000
0000
,
0030
0000
0200
0000
,
0000
0000
0300
0000
,
1000
0000
0000
0010
,
0100
0000
0001
1000
,
1001
0000
0000
0000
,
0100
0100
0010
0110
,
0000
0000
0000
0000
,
0001
0000
0001
0100
,
0001
0101
0000
0000
,
0010
0100
1000
0100
,
0000
0110
0000
0000
,
1000
0000
0010
1000
,
1010
0000
0000
0000
,
0010
0000
0010
0100
,
0010
0110
0000
0000
,
0002
0000
0000
0003
,
0020
0000
0000
0030
,
2000
0000
0000
3000
,
0200
0000
0000
0300
,
0020
0000
0000
0030
,
0000
0001
0000
0002
,
0000
0000
0003
0000
,
0200
0000
0000
0300
,
0020
0000
0000
0030
,
2000
0000
0000
3000
,
0020
0000
0000
0000
,
0030
0200
0000
0300
,
0001
0000
0001
0001
,
0000
0101
0000
0000
,
0010
0000
0100
0100
,
0110
0000
0001
1000
,
0002
0000
0000
0000
,
0000
0000
0000
0000
,
0000
0000
0000
0000
,
0000
0000
0000
0000
,
0003
0000
0000
0000
;

//---------------dance-single - ----------------
#NOTES:
     dance-single:
     :
     Medium:
     8:
     0.295,0.462,0.089,0.055,0.000:
0000
0000
0000
0000
,
0000
0000
0000
0000
,
0000
0000
0000
0000
,
0000
0000
0000
0000
,
0020
0000
0000
0000
,
0030
0000
0100
0000
0000
0000
0000
1000
,
0000
2000
0000
0000
0000
0000
0000
0000
,
3000
0000
0000
0000
0000
0100
0010
0002
,
0000
0000
0000
0003
,
0000
0000
0000
0000
0010
1000
0010
2000
,
0000
0000
0000
0000
,
3000
0000
0000
0000
,
0200
0000
0000
0300
,
0000
0000
0001
0000
0000
1000
0001
0000
,
0100
0010
0100
0000
0000
0000
0100
0010
,
0000
0010
0002
0000
0000
0003
0010
0000
,
0020
0000
0000
0030
,
0010
0100
1000
0000
0100
0010
0000
0010
,
0001
0010
0100
0000
0100
0000
0001
0000
,
0000
1000
0010
0000
0000
0000
0000
0000
,
1000
0000
1000
0000
,
1000
0000
0000
0000
1000
0100
0000
0000
,
0010
0000
0010
0000
,
0010
0000
0001
0000
0001
0000
0000
0100
,
1000
0100
0000
0000
1000
0000
0000
0000
,
1000
0000
0000
0000
0010
0000
0000
0001
,
0100
0000
0100
0000
,
0100
0000
0000
0000
0001
0000
0000
0100
,
0001
0000
0001
0000
,
0010
0000
0010
0000
,
0010
0000
0100
0000
,
0100
0000
0100
0000
,
0001
0000
0100
0001
,
0000
0000
0001
0000
0000
0100
0000
0000
,
0001
0000
0001
1001
,
0000
0010
0000
0000
,
0100
0000
0001
0001
,
0000
0000
0101
0000
0000
0000
0000
1000
,
0010
1000
0000
0000
0010
0000
0100
0000
,
0000
0000
0100
0000
0000
0001
0000
0000
,
0100
0001
0000
0000
0100
0000
0100
0000
,
0000
0000
0101
0000
0000
0001
0010
0000
,
0010
0000
0100
0100
,
0000
1001
0000
0000
,
0100
0010
0001
0000
,
0100
0001
0010
0000
,
0001
0100
0000
0100
,
0100
1001
0001
0000
,
0010
0000
0100
0000
,
1000
0000
0000
0000
0001
0010
0001
0000
,
0100
1000
0100
0000
0010
0001
0010
0000
,
0001
0000
0001
0010
0100
0010
0001
0000
,
0100
0000
0000
0001
1000
0000
0010
0000
,
0001
0100
0000
0000
0000
0000
0010
0000
,
0100
1000
0000
0000
0000
0000
0100
0000
,
0010
0001
0000
0000
0100
0000
0000
0000
,
0010
0000
1000
0010
0000
0000
0000
0000
,
0001
0000
0010
1000
0000
0000
0000
0000
,
0100
0000
0010
0010
0000
0000
0001
0100
,
0100
0001
0100
0001
,
0010
0000
0100
0000
,
0100
0000
0000
0000
0100
0010
0001
0000
,
0000
0001
0000
0001
,
0000
0000
0001
0000
0010
0100
1000
0000
,
0010
0000
0010
0000
,
0010
0000
1000
0000
,
0001
0100
0001
0000
0100
0000
0000
0000
,
0001
0000
0000
0000
0001
0000
0000
1000
,
0100
0000
0100
0000
,
0010
0000
0010
0000
,
0100
0000
0100
0000
,
1000
0000
0000
0000
0001
0000
0010
0001
,
0100
0000
1000
1000
,
1010
0000
0000
0000
0001
0010
0100
0000
,
1000
1000
0100
1100
,
0000
0000
0000
0000
,
0001
0000
0001
0100
,
0001
0011
0000
0000
,
0010
0100
1000
0100
,
0000
0110
0000
0100
,
0010
0000
0001
1000
,
1001
0000
0000
0000
0001
1000
0001
0100
,
0010
0000
0010
0100
,
0010
0000
0110
0000
0000
0001
0010
0100
,
0100
0000
0000
0000
0100
0000
0001
0100
,
0010
0000
0000
0000
0010
0000
0000
0001
,
0010
0100
0000
0000
0100
0000
0000
0000
,
0100
0000
0000
0000
0001
0100
0010
0000
,
1000
0000
1000
0000
,
1000
0000
0001
0000
0000
0000
0001
0100
,
0001
0100
0000
0100
,
0000
0000
0100
0000
0000
0100
0010
0100
,
1000
0000
1000
0000
,
1000
0000
0000
0000
0100
0010
0001
0000
,
0000
0001
0000
0001
,
0000
0001
0000
0100
,
0001
1000
0010
0010
,
0110
0000
0000
0000
0010
0100
0000
0000
,
0001
1000
0000
1001
,
0000
0000
0100
0010
0001
0010
0100
1000
,
2000
0000
0000
0000
,
0000
0000
0000
0000
,
0000
0000
0000
0000
,
0000
0000
0000
0000
,
3000
0000
0000
0000
;

//---------------dance-single - ----------------
#NOTES:
     dance-single:
     :
     Hard:
     9:
     0.468,0.569,0.444,0.294,0.000: // measure 1
0000
0000
0000
0000
,  // measure 2
0000
0000
0000
0000
,  // measure 3
0000
0000
0000
0000
,  // measure 4
0000
0000
0000
0000
,  // measure 5
2000
0000
0000
0000
,  // measure 6
3000
0000
0100
0000
0000
0001
0010
0100
,  // measure 7
0000
0200
0000
0000
0300
0000
0000
0000
,  // measure 8
0000
0000
0000
0000
0000
0100
0010
0002
,  // measure 9
0000
0000
0003
0000
0000
0010
0100
0000
,  // measure 10
1000
0100
0010
0001
0010
0001
0000
0010
,  // measure 11
0000
0020
0000
0000
0000
0000
0030
0000
,  // measure 12
0000
0010
0000
0000
,  // measure 13
0200
0000
0000
0300
0000
0000
0000
0000
,  // measure 14
0000
0000
0001
0010
0001
0000
0100
0001
,  // measure 15
0010
0100
0010
0100
0000
0000
0001
0010
,  // measure 16
0000
0010
0001
0000
0000
0000
0100
0100
,  // measure 17
0200
0000
0000
0300
,  // measure 18
0001
0100
0001
0010
0100
1000
0000
0100
,  // measure 19
0001
0100
0001
0000
0100
0000
0001
0000
,  // measure 20
0000
1000
0010
0000
0000
0001
0010
0200
,  // measure 21
0000
0000
0000
0300
0000
0010
0001
0020
,  // measure 22
0000
0000
0000
0000
0000
0130
0100
2000
,  // measure 23
0000
0000
0000
0000
3100
0001
0200
0000
,  // measure 24
0000
0300
0000
0000
0010
0010
0000
0002
,  // measure 25
0000
0000
1000
0003
0010
0100
1000
2000
,  // measure 26
0000
0000
0000
3100
0010
0001
0002
0000
,  // measure 27
0000
0000
0000
0003
1000
0100
2000
0000
,  // measure 28
0000
3000
0000
0000
0010
0100
0020
0000
,  // measure 29
0000
0000
0000
0000
0031
0010
0100
2000
,  // measure 30
0000
0000
0000
0000
3010
0100
0002
0000
,  // measure 31
0000
0000
0000
0000
0013
0100
0020
0000
,  // measure 32
0000
0000
0000
0000
0130
1000
0100
0000
,  // measure 33
0101
0000
1100
0000
0000
0011
0000
0000
,  // measure 34
1001
0000
0000
0001
0100
0010
1000
0000
,  // measure 35
1010
0000
0011
0000
0000
0110
0000
1001
,  // measure 36
0000
0000
0000
0000
,  // measure 37
0011
0000
1100
0000
0000
1001
0000
0000
,  // measure 38
1001
0000
0010
0100
1000
0100
0010
0001
,  // measure 39
0011
0000
0110
0000
0000
1100
0000
0000
,  // measure 40
1001
0000
0010
0001
0100
0001
0010
0110
,  // measure 41
0000
0000
0011
0000
0000
1100
0000
0000
,  // measure 42
1010
0000
1000
0100
1000
0100
0010
0000
,  // measure 43
0011
0000
0000
0110
0000
1100
0000
0000
,  // measure 44
1001
0000
0000
0010
0100
1000
0100
1000
,  // measure 45
0100
0001
0100
0001
,  // measure 46
0100
0000
0001
0000
0010
0001
0100
0000
,  // measure 47
0001
0000
0100
0000
0010
1000
0010
0000
,  // measure 48
0100
0000
0110
0000
0001
0000
0001
0100
,  // measure 49
0010
0001
0000
0000
0100
0000
0000
0000
,  // measure 50
1000
0100
0010
0001
0100
0010
0001
0100
,  // measure 51
1000
0100
0001
0010
0100
0001
0010
0010
,  // measure 52
0100
0001
0001
0000
0101
0000
0001
0010
,  // measure 53
0000
0011
0000
0000
1000
0000
0000
0100
,  // measure 54
0010
0000
0110
0000
0000
0001
0010
0000
,  // measure 55
0100
1100
0000
0000
0000
0010
0010
0100
,  // measure 56
0000
0101
0000
0000
0010
0100
1000
0000
,  // measure 57
0000
0100
1100
0000
0000
0100
1000
0000
,  // measure 58
0001
1001
0000
0000
0100
0001
0000
0001
,  // measure 59
0101
0000
0000
0010
0010
0000
0001
0000
,  // measure 60
1000
1000
0000
0100
0100
0010
0001
0002
,  // measure 61
0000
0000
0000
0000
0013
0100
2000
0000
,  // measure 62
0000
0000
0000
0000
3001
0100
0020
0000
,  // measure 63
0000
0000
0000
0000
0031
1000
0200
0000
,  // measure 64
0000
0000
0301
0000
1000
0100
0020
0000
,  // measure 65
0000
0000
0000
0000
0031
0010
0002
0000
,  // measure 66
0000
0000
0000
0000
1003
1000
0200
0000
,  // measure 67
0000
0000
0000
0310
0001
2000
0000
0000
,  // measure 68
3001
0000
0000
0000
1000
0010
0002
0000
,  // measure 69
0000
0000
0000
0103
0010
0100
0020
0000
,  // measure 70
0000
0000
0030
0100
0001
1000
2000
0000
,  // measure 71
0000
0000
0000
0000
3100
0010
0002
0000
,  // measure 72
0000
0000
0003
0000
1000
0100
0010
0001
,  // measure 73
0101
0000
1010
0000
0000
1100
0000
0000
,  // measure 74
1001
0000
0100
0010
0001
0100
0010
0001
,  // measure 75
0011
0000
1010
0000
0000
0110
0000
0000
,  // measure 76
0000
0000
0000
0000
0000
0000
0000
0011
,  // measure 77
0000
0000
1100
0000
0000
0101
0000
0000
,  // measure 78
1010
0000
0001
0010
0100
0001
0010
0100
,  // measure 79
1100
0000
0000
0101
0000
0110
0000
0000
,  // measure 80
1001
0000
0010
0100
1000
0100
0101
0000
,  // measure 81
0011
0000
1010
0000
0000
1100
0000
0000
,  // measure 82
1001
0000
1000
0100
1000
0100
0010
0011
,  // measure 83
0000
0000
0101
0000
0000
1100
0000
0000
,  // measure 84
1010
0000
0000
0110
0000
1000
0010
0100
,  // measure 85
0002
0000
0000
0000
0000
0013
0100
0200
,  // measure 86
0000
0000
0000
0000
0310
0001
2000
0000
,  // measure 87
0000
0000
0000
0000
3010
0100
0020
0000
,  // measure 88
0000
0000
0000
0000
0031
0100
2000
0000
,  // measure 89
0000
0000
0000
0000
3100
0010
0200
0000
,  // measure 90
0000
0000
0000
0000
0301
0001
0020
0000
,  // measure 91
0000
0000
0000
0000
0130
1000
2000
0000
,  // measure 92
0000
0000
3100
0000
0000
0100
0010
0002
,  // measure 93
0000
0000
0000
0000
1003
0010
0020
0000
,  // measure 94
0000
0000
0000
0130
0100
0002
0000
0000
,  // measure 95
0000
0000
0000
0000
1003
0100
0020
0000
,  // measure 96
0000
0000
0030
0001
0010
0100
1000
0000
,  // measure 97
1001
0000
1100
0000
0000
0110
0000
0000
,  // measure 98
0101
0000
0000
0000
0001
0100
0001
0100
,  // measure 99
0101
0000
1010
0000
0000
1001
0000
0000
,  // measure 100
0000
1000
0100
0010
0001
1000
0100
0010
,  // measure 101
0002
0000
0000
0000
,  // measure 102
0000
0000
0000
0000
,  // measure 103
0000
0000
0000
0000
,  // measure 104
0000
0000
0000
0000
,  // measure 105
0003
0000
0000
0000
;
