#TITLE:Best Day of My Life;
#SUBTITLE:;
#ARTIST:American Authors;
#TITLETRANSLIT:;
#SUBTITLETRANSLIT:;
#ARTISTTRANSLIT:;
#GENRE:;
#CREDIT:;
#BANNER:banner.png;
#BACKGROUND:background.png;
#LYRICSPATH:;
#CDTITLE:Cdtitle.png;
#MUSIC:Best Day of My Life.mp3;
#OFFSET:-0.080126;
#SAMPLESTART:96.059998;
#SAMPLELENGTH:17.840000;
#SELECTABLE:YES;
#BPMS:0.000000=100.000000
;
#STOPS:
;
#BGCHANGES:8.000=Best Day of My Life.avi=1.000=1=0=0=StretchNoLoop==CrossFade==,
99999=-nosongbg-=1.000=0=0=0 // don't automatically add -songbackground-
;
#KEYSOUNDS:;
#ATTACKS:;

//---------------dance-single - ----------------
#NOTES:
     dance-single:
     :
     Beginner:
     1:
     0.089244,0.163440,0.058112,0.043584,0.000000,86.000000,78.000000,8.000000,6.000000,0.000000,0.000000,0.089244,0.163440,0.058112,0.043584,0.000000,86.000000,78.000000,8.000000,6.000000,0.000000,0.000000:
0000
0000
0000
0000
,
0000
0000
0000
0000
,
0000
0000
0000
0000
,
0000
0000
0000
0000
,
0001
0000
0000
0000
,
0001
0000
0000
0000
,
0200
0000
0000
0000
,
0300
0000
0000
0000
,
0010
0000
0010
0000
,
1000
0000
1000
0000
,
0002
0000
0000
0000
,
0003
0000
0000
0000
,
0100
0100
0100
0000
,
0001
0001
0001
0000
,
1001
0000
0000
0000
,
1001
0000
0000
0000
,
0010
0000
0000
0000
,
0001
0000
0000
0000
,
0001
0000
0000
0000
,
0010
0010
0010
0010
,
0100
0000
0000
0000
,
0001
0000
1000
1000
,
1000
1000
0000
0000
,
2002
0000
0000
0000
,
3003
0000
0000
0001
,
0000
1000
0000
0000
,
0010
0000
0000
0000
,
0001
0000
0000
0000
,
1000
0000
0000
0000
,
1000
0000
0000
0000
,
1000
0000
0000
0000
,
0010
0000
0010
0000
,
0001
0000
0001
0000
,
0100
0000
0100
0000
,
1000
0000
0000
0000
,
0010
0000
0010
0000
,
1001
0000
0000
0000
,
1001
0000
0000
0000
,
0010
0000
0000
0000
,
0100
0000
0000
0000
,
1001
0000
0000
0000
,
0010
0000
0000
0000
,
0100
0000
0000
0000
,
0001
0001
0001
0001
,
1000
0000
0010
0000
,
0010
0000
0100
0100
,
0100
0100
1000
0000
,
0001
0000
0000
0000
,
1001
0000
0100
0000
,
0010
0000
0010
0000
,
0100
0000
0000
0000
,
0001
0000
1000
0000
,
1000
0000
0000
0000
,
0010
0000
0000
0100
,
0010
0000
0000
0000
,
2002
0000
0000
0000
,
0000
3003
0000
0000
;

//---------------dance-single - ----------------
#NOTES:
     dance-single:
     :
     Easy:
     3:
     0.159808,0.183870,0.116224,0.145280,0.000000,154.000000,138.000000,16.000000,20.000000,0.000000,0.000000,0.159808,0.183870,0.116224,0.145280,0.000000,154.000000,138.000000,16.000000,20.000000,0.000000,0.000000:
0000
0000
0000
0000
,
0000
0000
0000
0000
,
0000
0000
0000
0000
,
0000
0000
0000
0000
,
0001
1000
0001
0100
,
0010
0010
1000
0010
,
2000
0000
0001
3001
,
0020
0000
0100
0130
,
0010
1000
0010
0001
,
0001
0010
1000
0100
,
0002
0000
1000
1003
,
0200
0000
0000
0300
,
1001
0000
0100
0000
,
0110
0000
1000
0000
,
0010
0010
0100
0100
,
0200
0000
0000
0300
,
0010
0001
0010
0000
,
0100
1000
0010
0100
,
0002
0000
0003
0000
,
0100
0010
0100
0010
,
1001
0000
0100
0010
,
1000
0000
1000
0100
,
0020
0000
0000
0030
,
2100
0001
0100
0001
,
3100
0001
0100
0000
,
0010
0100
1000
0000
,
1000
0010
0001
0000
,
1001
0000
0000
0000
,
0100
0100
0020
0030
,
0001
0001
2000
3000
,
0010
0010
0200
0300
,
1100
0000
0101
0000
,
1000
1000
0020
0030
,
0010
0010
0002
0003
,
0100
0100
2000
3000
,
0110
0000
1010
0000
,
1000
0010
0100
0000
,
0001
0010
0100
0000
,
1001
0000
0000
0000
,
1001
0000
0000
0000
,
1001
0000
0000
0000
,
0000
0010
0100
1000
,
0200
0000
0300
0000
,
1000
0001
1000
0001
,
1001
0000
0110
0000
,
0001
0000
1000
0100
,
0020
0000
0030
0000
,
0012
1000
0010
1000
,
0013
0000
0100
0001
,
0010
0000
0100
1000
,
0200
0000
0300
0000
,
0001
0010
0100
1000
,
0010
0100
1000
0000
,
0010
0000
0001
0010
,
1000
0000
0010
0100
,
0220
0000
0000
0000
,
0000
0330
0000
0000
;

//---------------dance-single - ----------------
#NOTES:
     dance-single:
     :
     Medium:
     6:
     0.237637,0.305088,0.058112,0.392257,0.000000,229.000000,221.000000,8.000000,54.000000,0.000000,0.000000,0.237637,0.305088,0.058112,0.392257,0.000000,229.000000,221.000000,8.000000,54.000000,0.000000,0.000000:
0000
0000
0000
0000
,
0000
0000
0000
0000
,
0000
0000
0000
0000
,
0000
0000
0000
0000
,
0200
0000
0301
0000
1000
0100
0010
0000
,
0002
0000
0103
0000
0001
0100
0001
0000
,
0100
0100
0010
0010
1000
1000
0001
0000
,
0010
0010
1000
1000
0100
0100
0001
0000
,
0020
0000
0130
0000
0001
0100
0010
0000
,
2000
0000
3001
0000
0001
0010
1000
0000
,
0001
0001
0100
0100
0010
0010
1000
0000
,
1000
1000
0100
0100
0010
0010
0001
0000
,
1000
0000
0010
0010
0000
0200
0000
0300
,
0001
0010
0001
0000
0000
2000
0000
3000
,
0002
0000
0200
0003
0320
0000
1030
2000
,
0000
0000
3000
0000
,
1000
0000
0001
0000
0010
0000
0001
0010
,
0100
0000
0001
0000
0010
0010
0100
0000
,
2000
0200
3300
0000
,
2000
3200
0320
0032
,
1003
0000
0000
0000
0010
0000
0001
0100
,
1000
0000
0010
0000
0001
1000
1000
0000
,
0200
0020
0330
0000
,
2000
3020
2030
3002
,
0103
0000
0010
1000
0100
0000
0001
0000
,
0100
0000
0010
0001
0100
0000
0010
0000
,
0100
1000
0100
0000
0010
0000
0100
0000
,
0220
0000
0330
0000
,
0001
0001
0020
1030
,
0010
0100
0200
0301
,
0010
0010
0200
0310
,
0220
0030
0002
0303
,
0001
0001
0200
0301
,
1000
1000
0020
1030
,
0001
0100
2000
3010
,
0220
0300
2000
3030
,
0100
0001
0010
0000
0000
0100
0001
0000
,
0001
1000
0100
0000
0000
0001
0100
0000
,
0001
0010
0100
0000
0000
1000
0010
0000
,
0001
0100
0001
0000
0000
0100
0010
0000
,
0110
0000
0001
0000
0100
0010
0001
0000
,
0010
0000
1000
0000
0100
0100
0010
0000
,
2000
0002
3003
0000
,
0020
2030
3200
0301
,
1001
0000
0100
0000
0010
1000
0001
0000
,
0001
0000
0010
0000
0001
1000
0010
0000
,
2000
0020
3030
0000
,
0002
0203
0320
2030
,
3010
0000
0000
0000
0100
0100
1000
0000
,
0010
0000
1000
0000
0100
0001
0010
0000
,
0020
2000
3030
0000
,
0001
0011
0100
1100
,
0001
0000
0010
0001
0010
0000
0100
0000
,
0010
0000
1000
0000
1000
0100
0010
0000
,
0002
0200
0303
0100
,
0002
0203
0320
1030
,
1001
0000
0000
0000
;

//---------------dance-single - ----------------
#NOTES:
     dance-single:
     :
     Hard:
     8:
     0.391219,0.508481,0.479425,0.246976,0.083536,377.000000,311.000000,66.000000,34.000000,0.000000,0.000000,0.391219,0.508481,0.479425,0.246976,0.083536,377.000000,311.000000,66.000000,34.000000,0.000000,0.000000:
// measure 0
0000
0000
0000
0000
,  // measure 1
0000
0000
0000
0000
,  // measure 2
0000
0000
0000
0000
,  // measure 3
0000
0000
0000
0000
,  // measure 4
0010
1000
0010
0010
0001
0100
0010
0000
,  // measure 5
1000
1000
0010
0100
0001
0100
0001
0000
,  // measure 6
1100
0110
0011
0101
1100
0000
0001
0100
,  // measure 7
0101
0110
1100
1010
1001
0100
0001
0000
,  // measure 8
1000
0010
1000
0001
0001
0100
0010
0000
,  // measure 9
1000
0010
1000
0001
0001
0100
0010
0000
,  // measure 10
1001
1100
0101
0110
1001
0010
1000
0000
,  // measure 11
1100
0110
0011
1010
0011
0100
0001
0000
,  // measure 12
1000
0100
1000
0000
0100
0000
0100
0000
0000
0000
0010
0000
0020
0000
0030
0000
,  // measure 13
0001
0100
0001
0000
0100
0000
0100
0000
0000
0000
1000
0000
2000
0000
3000
0000
,  // measure 14
0101
0000
1100
0000
1010
0000
0002
2000
,  // measure 15
0000
0000
3003
0000
,  // measure 16
0200
0000
0000
0000
0301
0000
0000
0000
0100
1000
0100
0000
0010
0000
0001
0000
,  // measure 17
0010
0000
0001
0100
0001
0100
1000
0100
,  // measure 18
2100
0000
0020
0000
3030
0000
0000
0001
,  // measure 19
1001
1100
0101
0011
1010
0001
1001
0000
,  // measure 20
2000
0000
0000
0000
3100
0000
0001
0000
0010
0001
0010
0000
0100
0000
1000
0000
,  // measure 21
1000
0000
0010
0100
0001
1000
1000
0010
,  // measure 22
0210
0000
0002
0000
0303
0000
0000
0010
,  // measure 23
1010
1100
0101
0011
1010
0010
0100
0010
,  // measure 24
0110
0000
1000
0010
0001
0100
0001
0010
,  // measure 25
0100
0000
1000
0010
0100
0001
0001
0000
,  // measure 26
0100
1000
0100
0001
0010
0100
1000
0000
,  // measure 27
2002
0000
3003
0000
,  // measure 28
1000
0100
0000
1000
0100
0000
0000
0000
2000
0000
0000
0000
3100
0000
0000
0000
,  // measure 29
0010
0100
0000
0010
0100
0000
0000
0000
0200
0000
0000
0000
0310
0000
0000
0000
,  // measure 30
0001
0010
0000
0001
0010
0000
0000
0000
0200
0000
0000
0000
0310
0000
0000
0000
,  // measure 31
2200
3300
0202
0303
,  // measure 32
0001
0100
0000
0001
0100
0000
0000
0000
0002
0000
0000
0000
0103
0000
0000
0000
,  // measure 33
0010
1000
0000
0010
1000
0000
0000
0000
2000
0000
0000
0000
3010
0000
0000
0000
,  // measure 34
0001
1000
0000
0001
1000
0000
0000
0000
0002
0000
0000
0000
1003
0000
0000
0000
,  // measure 35
0220
0330
2002
3003
,  // measure 36
0001
0100
0001
0000
0010
0000
0010
0000
0000
0000
1000
0000
0010
0000
0000
0000
,  // measure 37
0100
0010
0100
0000
1000
0000
1000
0000
0000
0000
0010
0000
0100
0000
0000
0000
,  // measure 38
0001
1000
0001
0000
0010
0000
0010
0000
0000
0000
0010
0000
1000
0000
0000
0000
,  // measure 39
0010
1000
0010
0000
1000
0000
1000
0000
0000
0000
0001
0000
0100
0000
0000
0000
,  // measure 40
0110
0000
0000
0000
0001
0000
0000
0000
0001
0100
0001
0000
0010
0000
0100
0000
,  // measure 41
1000
0000
1000
0010
1000
0010
0100
0001
,  // measure 42
0102
0000
0200
0000
0303
0000
0000
0100
,  // measure 43
0110
1100
0101
0011
1001
1000
0010
1000
,  // measure 44
1001
0000
0000
0000
0100
0000
0000
0000
0100
0010
0100
0000
0010
0000
0100
0000
,  // measure 45
1000
0000
1000
0100
0010
0001
0010
1000
,  // measure 46
1020
0000
2000
0000
3030
0000
0000
0010
,  // measure 47
0011
1010
1100
0101
1001
0001
1000
0001
,  // measure 48
0011
0000
0001
0010
0100
0000
1000
0100
,  // measure 49
0010
0000
1000
0000
0010
1000
0100
0100
,  // measure 50
0210
0020
0330
0000
,  // measure 51
0001
0000
0010
0000
0010
0000
1000
0000
0100
0010
0100
0000
0001
0000
0001
0000
,  // measure 52
0101
0000
0100
0010
0001
0000
1000
0100
,  // measure 53
0010
0000
1000
0000
1000
0100
0010
0000
,  // measure 54
0120
0000
2000
0000
3030
0000
0100
0001
,  // measure 55
0110
1100
1001
0011
0101
0001
0010
0100
,  // measure 56
1001
0000
0000
0000
;
