#TITLE:ANIMAL;
#SUBTITLE:;
#ARTIST:KE$HA;
#TITLETRANSLIT:;
#SUBTITLETRANSLIT:;
#ARTISTTRANSLIT:;
#CREDIT:;
#BANNER:banner.png;
#BACKGROUND:background.png;
#LYRICSPATH:;
#CDTITLE:Cdtitle.png;
#MUSIC:Animal.mp3;
#OFFSET:-0.120;
#SAMPLESTART:102.200;
#SAMPLELENGTH:14.500;
#SELECTABLE:YES;
#BPMS:0.000=139.000;
#STOPS:143.000=0.020
;
#BGCHANGES:16.000=Animal.avi=1.000=1=0=0,
99999=-nosongbg-=1.000=0=0=0 // don't automatically add -songbackground-
;

//---------------dance-single - ----------------
#NOTES:
     dance-single:
     :
     Beginner:
     1:
     0.106,0.141,0.000,0.068,0.000:
0000
0000
0000
0000
,
0000
0000
0000
0000
,
0000
0000
0000
0000
,
0000
0000
0000
0000
,
0000
0000
0000
0000
,
0000
0000
0000
0000
,
0010
0000
0000
0000
,
0100
0000
0000
0000
,
1000
0000
0000
0000
,
1000
0000
0000
0000
,
0010
0000
0000
0000
,
0010
0000
0000
0000
,
0100
0000
0000
0000
,
0100
0000
0000
0000
,
0001
0000
0000
0000
,
0001
0000
0000
0000
,
0010
0000
0000
0000
,
0100
0000
0000
0000
,
0001
0000
0000
0000
,
0010
0000
0000
0000
,
1000
0000
0000
1000
,
0010
0000
0000
0000
,
0010
0100
0000
0000
,
0100
0001
0000
0000
,
0100
1000
0000
0000
,
0001
1000
0000
0000
,
0100
0001
0000
0000
,
0000
0000
1000
1000
,
1000
0000
0000
0000
,
0010
0100
0000
0000
,
0010
1000
0000
0000
,
0100
0001
0000
0000
,
1000
0010
0000
0000
,
0010
0100
0000
0000
,
0200
0000
0000
0000
,
0300
0000
0000
0000
,
0020
0000
0000
0030
,
1000
0000
0000
0000
,
2000
0000
0000
3000
,
0001
0000
0000
0000
,
0010
0000
0010
0000
,
0100
0000
0100
0000
,
1000
0000
1000
0000
,
0001
0000
0001
0000
,
0200
0000
0000
0300
,
0010
0000
1000
0000
,
2000
0000
0000
3000
,
0001
0000
0000
0000
,
1000
0000
1000
0000
,
0001
0000
0001
0000
,
0100
0000
0000
0000
,
0010
0000
0000
0000
,
1000
0000
0000
0000
,
0010
0000
0000
0000
,
0010
0000
0000
0000
,
0100
0000
0000
0000
,
0100
0000
0000
0000
,
0001
0000
0000
0001
,
0000
0000
0000
0000
,
0000
0000
0000
0000
,
2000
0000
0000
3000
,
0010
0000
0000
0000
,
0200
0000
0000
0300
,
0010
0000
0000
0000
,
1000
0000
1000
0000
,
0001
0000
0001
0000
,
0100
0000
0100
0000
,
0010
0000
0010
0000
,
2000
0000
0000
3000
,
0001
0000
0000
0000
,
0020
0000
0000
0030
,
1000
0000
0000
0000
,
0100
0000
0100
0000
,
0001
0000
0001
0000
,
0010
0000
0010
0000
,
1000
0000
0000
0000
,
1000
0000
0000
0000
,
0000
0000
0000
0000
,
0100
0000
0000
0000
,
0010
0000
0000
0000
,
0001
0000
0000
0000
,
0010
0000
0000
0200
,
0000
0000
0000
0000
,
0300
0000
0000
0000
;

//---------------dance-single - ----------------
#NOTES:
     dance-single:
     :
     Easy:
     4:
     0.181,0.253,0.095,0.108,0.000:
0000
0000
0000
0000
,
0000
0000
0000
0000
,
0000
0000
0000
0000
,
0000
0000
0000
0000
,
0000
0000
0000
0000
,
0000
0000
0000
0000
,
0001
0000
0000
0000
,
0100
0000
0010
0000
,
1000
0000
0000
0000
,
1000
0100
0100
0100
,
0010
0000
0100
0000
,
0010
0000
0000
0010
,
0100
0000
0001
0000
,
0100
0001
0000
0001
,
1000
0000
0100
0000
,
0001
0010
0000
0000
,
0010
0100
0000
0000
,
0100
0001
0000
0000
,
0001
1000
0000
0010
,
0010
0010
0000
0000
,
1000
0001
0000
1000
,
0010
0010
0010
0010
,
0010
0100
0000
0000
,
0100
0001
0000
0000
,
0100
1000
1000
1000
,
0100
0010
0000
0000
,
0100
0001
0000
0001
,
0100
0010
0100
0100
,
0100
0000
0000
0000
,
0010
0100
0000
0000
,
0010
1000
1000
1000
,
1000
0010
0100
0000
,
1000
0010
0010
0000
,
0010
0100
0000
0001
,
0200
0000
0000
0000
,
0300
0000
0000
0000
,
0002
0000
0000
0003
,
0100
0000
0100
0100
,
0002
0000
0000
0003
,
0100
0000
0010
1000
,
1010
0000
1000
0000
,
0101
0000
0100
0000
,
1001
0000
1000
0000
,
0001
0100
0001
0010
,
2000
0000
0000
3000
,
0001
0000
0100
0100
,
0002
0000
0000
0003
,
0100
0000
0000
0000
,
1001
0000
0010
0000
,
0110
0000
0010
0000
,
0101
0000
1000
1000
,
0010
0000
0001
1000
,
2000
0000
0000
0000
,
0010
0000
0000
0000
,
3002
0000
0000
0000
,
0100
0000
0000
0000
,
0023
0000
0000
0000
,
0001
0000
0000
0230
,
0000
0000
0000
0000
,
0300
0000
0000
0000
,
0020
0000
0000
0030
,
1000
0000
0001
0001
,
0200
0000
0000
0300
,
0010
0000
0100
0100
,
1100
0000
0010
0000
,
1001
0000
0100
0000
,
0110
0000
0001
0000
,
0011
0100
0010
1000
,
0200
0000
0000
0300
,
0001
0000
0100
1000
,
0002
0000
0000
0003
,
0100
0000
0000
0000
,
0110
0000
1000
0000
,
1001
0000
0010
0000
,
1010
0000
0010
0000
,
0110
0000
0001
0001
,
0100
0000
0000
0000
,
0010
0000
0000
0100
0000
0000
1000
0000
,
0020
0000
0000
0030
,
0001
0000
0000
1000
0000
0000
0010
0000
,
0200
0000
0300
0000
,
0010
0000
0000
1000
0000
0000
2000
0000
,
0000
0000
0000
0000
,
3000
0000
0000
0000
;

//---------------dance-single - ----------------
#NOTES:
     dance-single:
     :
     Medium:
     6:
     0.286,0.394,0.020,0.169,0.000:
0000
0000
0000
0000
,
0000
0000
0000
0000
,
0000
0000
0000
0000
,
0000
0000
0000
0000
,
0000
0000
0000
0000
,
0000
0000
0000
0000
,
0010
0000
0000
0000
,
0100
0000
0001
0100
,
0010
0000
0000
0000
,
0001
0100
0001
0010
,
1000
0000
0001
0000
,
0010
0100
0001
1000
,
0010
0000
0001
0000
,
0100
0010
0000
0010
,
0100
0000
0100
0000
,
0001
0100
0001
0100
,
1000
0100
0000
0000
,
0010
1000
0010
0100
,
0001
0010
1000
0100
,
0001
0000
0101
0000
0000
0000
0000
0010
,
0100
0100
0100
0100
,
0001
0000
0001
0000
0001
0000
0001
1000
,
0010
0010
0010
0010
,
0010
0000
0010
0000
0010
0100
1000
0000
,
1000
1000
1000
1000
,
0001
0000
0100
0001
0010
0000
1000
0000
,
1000
0001
0010
0100
,
0010
0000
1000
0000
0100
0000
0001
0100
,
0001
0010
0010
0010
,
0010
0000
0010
0000
0010
0100
0001
0000
,
0001
0001
0001
0001
,
0001
0000
0010
0000
0100
0010
0100
0000
,
0100
0100
0100
0000
,
0010
0000
0100
0000
0100
0000
0001
1000
,
0002
0000
0000
0000
,
0003
0000
0000
0000
,
0001
0000
0100
0000
0010
0000
1000
0001
,
0100
0000
0001
0000
0100
0001
0000
0000
,
0001
0000
1000
0000
0001
0000
0100
1000
,
0010
0000
0000
1000
0010
0000
1000
0000
,
0002
1003
2000
3100
,
0020
0031
0002
0103
,
1001
0100
0010
0001
,
0100
0000
0000
0010
0001
0000
0100
0000
,
0010
0000
1000
0000
0001
0010
0100
0000
,
0001
0000
0100
0000
0000
0010
0100
0000
,
1000
0000
0001
0010
0100
0000
0001
0000
,
0010
0100
1000
0000
0010
0100
0000
0000
,
0002
0013
0200
0310
,
0020
1030
0200
0301
,
0002
0010
1000
0010
,
1000
0010
1000
1003
,
0020
0000
0000
0000
,
0100
0001
1030
0100
,
2000
0000
0000
0000
,
0010
0100
3001
0100
,
0002
0000
0000
0000
,
0010
1000
0100
2003
,
0000
0000
0000
0000
,
3000
0000
0000
0000
,
0100
0000
0010
0000
1000
0010
1000
0000
,
0100
0000
0010
0000
0001
0010
0000
0000
,
1000
0000
0001
0000
0100
0010
0001
0000
,
0100
0000
0001
0000
0100
0010
0000
0000
,
0200
1300
0020
0130
,
2000
3001
0002
0013
,
0200
0310
0101
0010
,
1000
0000
0001
0010
0000
0000
1000
0000
,
0010
0000
1000
0001
0100
0000
0010
0000
,
0010
1000
0010
0000
0100
0010
1000
0000
,
0001
0000
0100
0000
1000
0010
0100
0000
,
0001
0000
0010
0000
0010
0001
0000
0000
,
0020
0130
2000
3010
,
0200
0301
0020
1030
,
0200
0010
0001
0010
,
0001
0000
0010
0310
,
0100
0000
0000
0000
,
0010
0000
0000
0001
0000
0000
1000
0000
,
0100
0000
0000
0000
,
1000
0000
0000
0100
0000
0000
0010
0000
,
0001
0000
0000
0000
,
0010
0000
0000
0100
0000
0000
0002
0000
,
0000
0000
0000
0000
,
0003
0000
0000
0000
;

//---------------dance-single - ----------------
#NOTES:
     dance-single:
     :
     Hard:
     8:
     0.326,0.394,0.027,0.129,0.000: // measure 1
0000
0000
0000
0000
,  // measure 2
0000
0000
0000
0000
,  // measure 3
0000
0000
0000
0000
,  // measure 4
0000
0000
0000
0000
,  // measure 5
0000
0000
0000
0000
,  // measure 6
0000
0000
0000
0000
,  // measure 7
0002
0000
0003
0000
,  // measure 8
1000
0000
0010
0001
,  // measure 9
0200
0000
0300
0000
,  // measure 10
0001
0000
0100
1000
,  // measure 11
1000
1000
0010
0100
,  // measure 12
0010
0100
0001
0100
,  // measure 13
0001
0000
0001
0000
,  // measure 14
0001
1000
0010
0100
,  // measure 15
0002
0000
0003
0100
,  // measure 16
0001
0010
0100
1000
,  // measure 17
2000
0000
3000
0000
,  // measure 18
0010
1000
0010
0100
,  // measure 19
0001
0000
0010
0000
1000
0001
0100
0001
,  // measure 20
0010
0100
0001
0000
0000
0000
0000
0001
,  // measure 21
0010
0010
0010
0010
,  // measure 22
0100
0000
0100
0000
1000
0100
0010
0001
,  // measure 23
0001
0001
0001
0001
,  // measure 24
0001
0000
0001
0000
0100
0000
0100
0001
,  // measure 25
0010
0010
0010
0010
,  // measure 26
0001
0000
0001
0000
0001
0100
0010
0000
,  // measure 27
0010
0010
1000
1000
,  // measure 28
1000
0000
1000
0010
1000
0010
1000
0100
,  // measure 29
0001
0001
0001
0001
,  // measure 30
0001
0000
0100
0000
0100
1000
0010
0000
,  // measure 31
0010
0010
0010
0001
,  // measure 32
0001
0000
0001
0000
0001
0000
0001
0010
,  // measure 33
1000
1000
1000
1000
,  // measure 34
0010
0000
0100
0000
0100
0010
0001
0010
,  // measure 35
0200
0000
0000
0000
,  // measure 36
0300
0000
0000
0000
,  // measure 37
0001
0000
0010
1000
0010
1000
0001
0000
,  // measure 38
0100
0001
0100
0000
0010
0100
0000
0000
,  // measure 39
0001
0100
0010
0001
0000
0010
0100
1000
,  // measure 40
0100
0010
0000
1000
0010
1000
0001
0000
,  // measure 41
0001
0010
0001
0000
1000
0100
1000
0000
,  // measure 42
0010
0100
0010
0000
0001
1000
0001
0000
,  // measure 43
0110
1000
0100
0001
,  // measure 44
0010
0000
0100
0001
0000
0001
1001
0000
,  // measure 45
0010
0000
1000
0100
0010
0100
0001
0000
,  // measure 46
0001
0000
0100
0001
1000
0100
0010
0000
,  // measure 47
0001
0000
1000
0100
0000
0100
0010
0000
,  // measure 48
0010
0100
0001
0000
1000
0100
0000
0000
,  // measure 49
0001
1000
0001
0000
0100
0010
0100
0000
,  // measure 50
0010
1000
0010
0000
0100
0001
0100
0010
,  // measure 51
0002
1000
0023
0001
,  // measure 52
0230
0010
1300
1001
,  // measure 53
0200
0000
0000
0000
,  // measure 54
0010
0000
0000
1000
0000
0000
0301
0000
,  // measure 55
0020
0000
0000
0000
,  // measure 56
0001
0000
0000
0100
0000
0000
1030
0000
,  // measure 57
2000
0000
0000
0000
,  // measure 58
0010
0000
0000
0100
0000
0000
3002
0000
,  // measure 59
0000
0000
0000
0000
,  // measure 60
0003
0000
0000
0000
,  // measure 61
0001
0000
1000
0010
0100
0010
0001
0000
,  // measure 62
0100
0000
0001
0100
0001
0010
1000
0000
,  // measure 63
1000
0100
0010
0001
0000
0010
0100
1000
,  // measure 64
0100
0000
0010
0000
0001
0010
1000
0000
,  // measure 65
0100
0001
0100
0000
0010
1000
0010
0000
,  // measure 66
0001
1000
0001
0000
0010
0001
0010
0000
,  // measure 67
0100
1000
0100
0000
0001
0000
0100
0000
,  // measure 68
0010
0000
0001
0010
0000
0010
1000
0000
,  // measure 69
0001
0000
0100
0001
0100
0010
1000
0000
,  // measure 70
0010
1000
0010
0000
0100
0010
1000
0000
,  // measure 71
0001
0010
0001
0100
0000
0001
0010
0100
,  // measure 72
0001
0100
1000
0000
0010
0001
0000
0000
,  // measure 73
0100
0001
0100
0000
0001
1000
0001
0000
,  // measure 74
0010
1000
0010
0000
1000
0010
1000
0100
,  // measure 75
0002
0010
0203
1000
,  // measure 76
0320
0001
1030
1001
,  // measure 77
0002
0000
0000
0000
,  // measure 78
0010
0000
0000
0100
0000
0000
1000
0000
,  // measure 79
0023
0000
0000
0000
,  // measure 80
0001
0000
0000
0100
0000
0000
1000
0000
,  // measure 81
0230
0000
0000
0000
,  // measure 82
0010
0000
0000
0001
0000
0000
2000
0000
,  // measure 83
0000
0000
0000
0000
,  // measure 84
3300
0000
0000
0000
;
