#TITLE:All Star;
#SUBTITLE:;
#ARTIST:SMASH MOUTH;
#TITLETRANSLIT:;
#SUBTITLETRANSLIT:;
#ARTISTTRANSLIT:;
#CREDIT:;
#BANNER:banner.png;
#BACKGROUND:background.png;
#LYRICSPATH:;
#CDTITLE:Cdtitle.png;
#MUSIC:All Star.mp3;
#OFFSET:-0.200;
#SAMPLESTART:111.400;
#SAMPLELENGTH:17.000;
#SELECTABLE:YES;
#BPMS:0.000=104.000;
#STOPS:;
#BGCHANGES:0.000=All Star.avi=1.000=1=0=0,
99999=-nosongbg-=1.000=0=0=0 // don't automatically add -songbackground-
;

//---------------dance-single - ----------------
#NOTES:
     dance-single:
     :
     Beginner:
     2:
     0.114,0.166,0.068,0.007,0.000:
0000
0000
0000
0000
,
0000
0000
0000
0000
,
0000
0000
0000
0000
,
0000
0000
0000
0000
,
0000
0000
1000
0000
,
1000
0000
0010
0000
,
0010
0000
0100
0000
,
0100
0000
0000
0000
,
0000
0001
0000
0001
,
0010
0000
0010
0000
,
0010
0000
0100
0000
,
0100
0000
0100
1000
,
0001
0000
0001
0000
,
0001
0000
0010
0100
,
0001
0010
0000
0010
,
0000
1000
0000
0000
,
0000
1001
0000
0000
,
0000
0010
0000
0100
,
0100
0110
0000
0010
,
0000
0011
0000
0100
,
0100
1000
0000
1000
,
0000
0010
0000
0100
,
0000
0100
0000
0001
,
0000
0001
0000
0000
,
0000
0000
0100
0000
,
0100
0000
1000
0000
,
1000
0000
0010
0000
,
0000
0010
0000
0100
,
0000
0100
0000
0001
,
0000
0001
0000
1000
,
0000
1000
0000
0000
,
0010
0000
0000
0100
,
0000
1001
0000
0010
,
0000
0100
0100
0000
,
0010
1001
0000
0100
,
0000
0100
0000
0010
,
0011
0010
0000
0100
,
0000
0100
0000
1000
,
1000
1000
0000
0001
,
0001
0001
0000
0000
,
0000
0010
0000
0000
,
0000
0010
0000
0000
,
0000
0100
0000
0000
,
0100
0000
0000
1000
,
0000
1000
0000
1000
,
0000
0001
0000
0000
,
0001
0000
0000
0010
,
0000
0000
0000
0000
,
0000
1001
0000
0100
,
0000
0010
0000
0010
,
0010
0101
0000
0100
,
0000
0100
0100
0000
,
0010
1010
0000
0000
,
0000
1001
0000
0100
,
0000
0100
0000
0000
,
0000
0010
0000
0000
,
0000
0100
0100
0100
,
0000
0001
0001
0001
,
0000
0010
0000
0000
,
0000
0200
0000
0000
,
0000
0000
0000
0300
;

//---------------dance-single - ----------------
#NOTES:
     dance-single:
     :
     Easy:
     4:
     0.191,0.249,0.109,0.075,0.000:
0000
0000
0000
0000
,
0000
0000
0000
0000
,
0000
0000
0000
0000
,
0000
0000
0000
0000
,
0000
0000
0100
0000
,
0100
0000
0001
0000
,
0001
0000
0010
0000
,
0010
1000
1000
1000
,
0000
0001
1001
1000
,
1100
1000
0100
0001
,
0001
0000
0100
0010
,
0100
0000
1000
0100
,
1000
0000
0010
1000
,
0010
0000
0010
0100
,
0001
0100
0100
0100
,
0000
0001
0001
0001
,
0000
0002
0103
0100
,
0110
0001
1001
0010
,
0010
0200
0301
0010
,
0110
0010
0011
0100
,
0100
2000
0000
0020
,
0000
3030
0000
0001
,
1000
0001
0000
1000
,
0100
0010
0010
0010
,
0010
1000
1100
0100
,
0101
0100
1000
1000
,
0100
0001
0010
0001
,
0100
0100
0000
0000
,
0100
0001
0100
0010
,
1000
0010
0001
0001
,
0100
0010
0000
0001
,
0010
1000
0100
1000
,
0000
1001
0001
0011
,
1000
1000
0100
0001
,
0010
1001
1000
1100
,
0010
0001
0001
0100
,
0000
0200
0000
0002
,
0000
0303
0000
0100
,
0100
0100
0000
0010
,
0010
0010
0000
0000
,
0000
0010
0100
0001
,
0000
0010
0100
1000
,
0000
0100
0010
1000
,
0000
0001
0100
0010
,
0000
1000
0001
0100
,
0000
0001
0010
0100
,
0000
0100
0010
0001
,
0000
1000
0010
0100
,
0000
1001
0001
0101
,
0100
0010
0100
1000
,
1000
0101
0001
1001
,
1000
0100
0100
0001
,
0001
2000
0000
0020
,
0000
0000
3030
0001
,
0001
0001
0000
0100
,
0100
0100
0000
0000
,
0000
0200
0000
0020
,
0330
0000
0000
1000
,
1000
1000
0000
0010
,
0010
0020
0000
0000
,
0000
0000
0000
0030
;

//---------------dance-single - ----------------
#NOTES:
     dance-single:
     :
     Medium:
     5:
     0.255,0.269,0.027,0.048,0.000:
0000
0000
0000
0000
,
0000
0000
0000
0000
,
0000
0000
0000
0000
,
0000
0000
0000
0000
,
0000
0000
0001
0000
,
0001
0000
0100
0000
,
0100
0000
1000
0000
,
1000
0100
0100
0100
,
0000
0000
0001
0010
0010
0000
1000
0100
,
0100
0000
0010
0000
0001
0000
1000
0100
,
0010
0000
1000
0000
0001
0000
0010
0010
,
0010
0000
0100
0100
0100
0000
0010
0010
,
1000
0002
1003
2000
,
3010
0200
0310
0020
,
1030
0001
0101
0100
,
1100
0001
0010
0100
,
0000
0000
0001
0001
0000
1000
0100
1000
,
1000
0000
0001
0000
0100
0100
0001
0000
,
0001
0000
0100
0100
0000
0001
0010
0001
,
0001
0000
0010
0100
1000
0000
0100
0000
,
0100
0000
1000
0010
0010
0000
0001
0100
,
0100
0000
0100
0010
0010
0000
0001
0000
,
0010
0011
0001
1000
,
0100
0210
0001
0001
,
0301
0000
1000
0100
0000
0001
0010
0010
,
0010
0000
0100
0000
1000
0000
0001
0010
,
0100
0000
0100
0000
0010
0000
0001
1000
,
0100
0000
0010
0001
0010
0000
0100
0000
,
1000
1000
0001
0000
0010
0010
0100
0000
,
1000
0000
0010
0000
1000
0001
1000
0000
,
0100
0000
0010
0000
0100
0100
0001
0000
,
0010
0000
0100
1000
0001
1000
0100
0000
,
0100
0000
0001
0100
0000
0001
0010
0001
,
1000
0000
0010
0010
0100
0000
0001
0000
,
0000
0000
1000
0001
0000
0100
0001
0100
,
0010
0000
0001
0001
0000
0000
0100
0000
,
0001
0000
0100
0100
0001
0000
0010
0010
,
1000
0000
0001
0001
0100
0000
0010
0000
,
0010
0010
0000
0001
,
1000
0200
0001
0001
,
0301
1000
0010
0100
,
0000
0001
0010
0100
,
0000
0001
0100
0010
,
0000
1000
0001
0100
,
0000
1000
0001
0100
,
0000
0001
0010
0100
,
0000
0100
0010
0001
,
0000
0001
0100
0001
,
0000
0000
0100
0010
0000
0001
0100
0001
,
0000
1000
0100
0010
0000
0000
1000
0000
,
0010
0000
0010
0100
0000
0001
1000
0001
,
0000
0010
0010
0000
0100
0000
0010
0000
,
1000
0000
1000
1000
0010
0000
0100
0100
,
0001
0000
0001
0001
1000
0000
0010
0100
,
0010
0100
0100
0001
,
0001
1000
0001
0000
1000
0000
1000
0000
,
1000
0001
0001
0010
0000
0000
0010
0010
,
1000
0000
0100
0100
0001
0000
0001
0100
,
0001
0100
0010
0000
0100
0000
0001
0000
,
0001
0002
0000
0000
,
0000
0000
0000
0003
;

//---------------dance-single - ----------------
#NOTES:
     dance-single:
     :
     Hard:
     7:
     0.362,0.394,0.157,0.014,0.096: // measure 1
0000
0000
0000
0000
,  // measure 2
0000
0000
0000
0000
,  // measure 3
0000
0000
0000
0000
,  // measure 4
0000
0000
0000
0000
,  // measure 5
0000
0000
1000
0000
,  // measure 6
1000
0000
0100
0000
,  // measure 7
0100
0000
0010
0000
,  // measure 8
0010
0101
0101
0101
,  // measure 9
0000
0000
0000
0000
0001
0000
0100
0000
0001
0000
0010
0100
1000
0000
0100
0000
,  // measure 10
0100
0000
0000
0000
0010
0000
0010
0100
1000
0000
0000
0100
0010
0000
0100
0000
,  // measure 11
0100
0000
0000
0000
0001
0000
0010
0000
0100
0000
0001
0100
1000
0000
0100
0000
,  // measure 12
0100
0000
0000
0000
0010
0000
1000
0000
0010
0000
0010
0100
1000
0000
0010
0000
,  // measure 13
0010
0000
0000
0000
0001
0100
0001
0000
0101
0000
0000
0000
1000
0100
1000
0000
,  // measure 14
1100
0000
0000
0000
0100
0000
0010
0000
0001
0000
0100
0010
0100
0000
0001
0000
,  // measure 15
0001
0000
0000
0000
0001
1000
0001
0000
0100
0010
0100
0000
0100
0000
0000
0000
,  // measure 16
1000
0100
0001
0000
0010
1000
0100
0001
,  // measure 17
0000
0000
0000
0000
0010
0000
0110
0000
0000
0000
1000
0100
1000
0000
1100
0000
,  // measure 18
0000
0010
0001
0010
0000
0001
0000
1001
,  // measure 19
0000
0000
0000
0000
0100
0000
1100
0000
0000
0000
0010
0001
0010
0000
0011
0000
,  // measure 20
0000
0000
0100
0001
0010
0000
0100
0000
0000
0000
0001
0000
0000
0000
0001
0000
,  // measure 21
0100
0000
1000
0001
1000
0000
0001
0100
,  // measure 22
0001
0010
0100
1000
1000
0000
0001
0010
,  // measure 23
0100
0010
0001
0000
0001
0000
1000
0100
,  // measure 24
0010
0100
1000
0000
1001
0000
1001
0000
,  // measure 25
1001
0000
0000
0000
0010
0100
1000
0000
0000
0000
0001
1000
0100
0000
0010
0000
,  // measure 26
0010
0000
0000
0000
0100
0001
0100
0000
0010
0000
1000
0000
1000
0000
0100
0000
,  // measure 27
0010
0000
0001
0100
0010
0001
0010
0000
,  // measure 28
0100
0000
1000
0000
0001
0000
0001
0010
0100
0000
0010
0000
1000
0000
0000
0000
,  // measure 29
0010
0000
1000
0000
0010
0000
0000
0000
1000
0100
1000
0000
0010
0000
0000
0000
,  // measure 30
0001
0000
1000
0000
0001
0000
0000
0100
1000
0000
0001
0000
0001
0000
0000
0010
,  // measure 31
0100
1000
1000
0000
0001
0100
0001
0000
,  // measure 32
1000
0100
0001
0000
0100
0000
1000
0000
0001
1000
0100
0000
0001
0000
0010
0000
,  // measure 33
0100
0000
0100
0101
0000
1000
0100
1100
,  // measure 34
0000
0000
0010
0001
0010
0000
0011
0000
0000
0000
0010
0000
0000
0000
1000
0000
,  // measure 35
0000
0000
0000
0000
0010
0000
0110
0000
0000
0000
0100
0010
0100
0000
0101
0000
,  // measure 36
0000
0000
0000
0010
0100
0000
0100
0000
0000
0000
0001
0000
0000
0000
0100
0000
,  // measure 37
0001
0000
0100
0001
0100
0000
0001
0100
,  // measure 38
0001
0010
0100
1000
0100
0000
0010
0100
,  // measure 39
0010
0000
1000
0001
1000
0000
0001
0010
,  // measure 40
0100
0100
0001
0001
,  // measure 41
0001
0000
1000
0000
0100
0000
0010
0001
,  // measure 42
0000
0100
0000
0001
0010
0000
0100
0001
,  // measure 43
0100
0010
0001
0000
1000
0000
0100
0010
,  // measure 44
0000
0010
1000
0100
1000
0000
0100
0001
,  // measure 45
0100
0010
1000
0000
0010
0000
0100
0001
,  // measure 46
0000
0000
0001
0010
0100
0001
0010
0100
,  // measure 47
0001
0100
0100
0000
0010
0000
0001
0010
,  // measure 48
0000
0000
1000
0100
0010
0000
1000
0010
,  // measure 49
0100
0000
0001
0000
1000
0000
1100
0000
0000
0000
0001
1000
0001
0000
1001
0000
,  // measure 50
0000
0010
0100
0001
0000
0010
0000
0100
,  // measure 51
0010
0000
0000
0000
0010
0000
0110
0000
0000
0000
0001
0100
0001
0000
0101
0000
,  // measure 52
0000
0000
0010
1000
0010
0000
1010
0000
0000
0000
0001
0000
0000
0000
0100
0000
,  // measure 53
1000
0000
0010
0100
0010
0000
0100
0001
,  // measure 54
0100
0010
0001
0010
0100
0000
0001
0100
,  // measure 55
0001
0001
0100
0000
0010
0100
1000
0100
,  // measure 56
0010
0010
0001
0100
1000
0000
1000
0000
,  // measure 57
0010
0100
0001
1000
0001
0000
0010
1000
,  // measure 58
0010
0000
0100
0100
0001
0000
0001
0010
,  // measure 59
0100
1000
1000
0010
0001
1000
0010
0100
,  // measure 60
0001
2000
0002
0000
,  // measure 61
0000
0000
0000
3003
;
