#TITLE:According to You;
#SUBTITLE:;
#ARTIST:Orianthi;
#TITLETRANSLIT:;
#SUBTITLETRANSLIT:;
#ARTISTTRANSLIT:;
#CREDIT:;
#BANNER:banner.png;
#BACKGROUND:background.png;
#LYRICSPATH:;
#CDTITLE:Cdtitle.png;
#MUSIC:According to You.mp3;
#OFFSET:-0.060;
#SAMPLESTART:93.980;
#SAMPLELENGTH:15.480;
#SELECTABLE:YES;
#BPMS:0.000=131.000;
#STOPS:;
#BGCHANGES:0.000=According to You.avi=1.000=1=0=0,
99999=-nosongbg-=1.000=0=0=0 // don't automatically add -songbackground-
;

//---------------dance-single - ----------------
#NOTES:
     dance-single:
     :
     Beginner:
     2:
     0.113,0.159,0.036,0.007,0.000:
0000
0000
0000
0000
,
0000
0000
0000
0000
,
1000
0000
0000
0000
,
1000
0000
1000
0000
,
0010
0000
0010
0000
,
0010
0000
0000
0000
,
0100
0000
0000
0000
,
0100
0000
0100
0000
,
0001
0000
0001
0000
,
0001
0000
0000
0000
,
0010
0000
0010
0000
,
0010
0000
0100
0000
,
0100
0000
1000
0000
,
1000
0000
0000
0000
,
0010
0000
0000
0000
,
0010
0000
0000
0000
,
0100
0000
0000
0000
,
0000
0010
0000
0000
,
1000
0000
0000
0000
,
1000
0000
1000
0000
,
0001
0000
0001
0000
,
0100
0000
0010
0000
,
0010
0000
0000
0000
,
0010
0000
0000
0000
,
0010
0000
1000
0000
,
1000
0000
0000
0000
,
0100
0000
0100
0000
,
0001
0000
0001
0000
,
1000
0000
1000
0000
,
0000
0000
0000
0000
,
0010
0010
0100
0100
,
0100
0000
0000
0000
,
0100
0000
0000
0000
,
0010
0000
0000
0000
,
0010
0000
0010
0000
,
1000
0000
1000
0000
,
0001
0000
0001
0000
,
0010
0000
0000
0000
,
0000
0100
0000
0000
,
1001
0000
0000
0000
,
1001
0000
0000
0000
,
0010
0000
0000
0000
,
0100
0000
0000
0000
,
0010
0000
0000
0000
,
0110
0000
0000
0000
,
0110
0000
0000
0000
,
0110
0000
0000
0000
,
0010
0000
0010
0000
,
0100
0000
0000
0000
,
1000
0000
1000
0000
,
0001
0000
0000
0000
,
0000
0010
0000
0000
,
0100
0000
0000
0000
,
0001
0000
0001
0000
,
1000
0000
0000
1000
,
0000
0000
0010
0000
,
0010
0000
0100
0000
,
0100
0000
1000
0000
,
1000
0000
1000
0000
,
0010
0000
0000
0000
,
0100
0000
0100
0000
,
1000
0000
1000
0000
,
0010
0000
0010
0000
,
0001
0000
0001
0000
,
0001
0001
1000
1000
,
0010
0000
0000
0000
,
0100
0000
0000
0000
,
0100
0000
0000
0000
,
0010
0000
0000
0000
,
0010
0000
0000
0000
,
0001
0000
0000
0000
,
0000
0010
0000
0000
,
0000
0200
0000
0000
,
0000
0000
0000
0000
,
0300
0000
0000
0000
;

//---------------dance-single - ----------------
#NOTES:
     dance-single:
     :
     Easy:
     4:
     0.173,0.239,0.065,0.151,0.000:
0000
0000
0000
0000
,
0000
0000
0000
0000
,
0001
0000
0000
0000
,
0010
0000
0010
0000
,
0100
0000
0010
0000
,
0010
0000
0000
0000
,
0100
1000
1000
0000
,
0010
0000
0010
0000
,
1000
0000
1000
0000
,
0001
0100
0001
0000
,
0010
2000
3000
0010
,
0200
0300
0001
0020
,
0030
0100
0002
0003
,
1000
0020
0030
0001
,
1000
0001
1000
0000
,
0010
0000
0010
1000
,
0001
0200
0000
0000
,
0300
1001
0000
0000
,
0020
0000
0000
0030
,
0100
0000
0100
0000
,
0010
0000
0010
0000
,
1000
0000
0010
0000
,
0002
0000
0000
0003
,
0100
0000
0100
0000
,
0001
0000
0001
0000
,
2000
0000
0000
3000
,
0010
0000
1001
0000
,
0100
0000
0101
0000
,
1000
0000
1010
0000
,
0100
0000
0100
0000
,
0001
1000
0001
1000
,
0002
0000
0000
0100
,
0103
0010
0000
0010
,
0000
0010
0000
1000
,
0000
1000
0000
1000
,
0000
0001
0000
0001
,
0010
0000
0010
0000
,
0010
0000
0100
0000
,
1000
0000
0000
0010
,
0010
0100
0100
0000
,
0020
0000
0000
0030
,
2000
0000
0000
3000
,
0002
0000
0000
0000
,
0000
0000
0000
0003
,
2000
0000
0000
3000
,
0002
0000
0000
0003
,
2000
0000
0000
3000
,
0020
0000
0000
0030
,
0100
0000
0000
0000
,
0100
0000
0100
0000
,
0002
0000
0000
0000
,
0003
0110
0000
0000
,
2000
0000
0000
3000
,
0001
0000
0001
0000
,
0100
0000
0100
0000
,
1000
1000
0010
0000
,
0020
0000
0000
0030
,
0100
0000
0100
0000
,
0001
0000
0001
0000
,
0010
1000
0010
0100
,
0001
0000
0101
0000
,
0100
0000
1100
0000
,
0010
0000
0110
0000
,
1000
0000
1001
0000
,
0010
0100
0010
0100
,
0010
0000
0100
0000
,
0100
0000
0001
1000
,
0100
0000
0100
0000
,
0010
0001
0100
0000
,
0010
0000
0100
0000
,
0100
0000
0010
0000
,
0000
1000
0000
1000
,
0000
0020
0000
0000
,
0000
0000
0000
0000
,
0030
0000
0000
0000
;

//---------------dance-single - ----------------
#NOTES:
     dance-single:
     :
     Medium:
     6:
     0.344,0.398,0.122,0.086,0.011:
0000
0000
0000
0000
,
0000
0000
0000
0000
,
1000
1000
1000
0010
,
0001
0010
1000
0100
,
1000
0001
0001
0001
,
0001
1000
0010
0100
,
0100
1000
1000
0001
,
0010
0010
0100
0000
0010
0001
0001
0000
,
0010
1000
0001
1000
,
0001
0010
0100
0000
1000
0100
0010
0000
,
0100
0000
1000
1000
1000
0000
0001
0001
,
0001
0010
0100
0010
,
1000
0000
0100
0100
0100
0000
0010
0010
,
0010
0000
0010
0001
,
1000
0100
0001
0000
0010
1000
0010
0000
,
0001
0100
0010
0000
0001
1000
0001
0000
,
0100
0010
0001
0000
1000
0010
0100
0001
,
1000
1000
1100
0000
0000
0000
0000
0000
,
0020
0130
0001
1000
,
0100
0010
0001
0000
0100
0010
1000
0000
,
0100
0100
0100
0000
0010
0000
1000
0100
,
0000
0010
1000
0001
,
0200
0000
0301
0000
0010
0000
0010
0100
,
1000
0000
0001
0100
0010
0000
1000
0000
,
0001
0001
0001
0000
1000
0000
0001
0010
,
0000
0100
0100
0100
,
0010
0000
0010
0000
0001
1000
0001
0000
,
1000
0000
1000
0000
0010
0100
0010
0000
,
0001
0000
0001
0100
0001
0000
0010
0000
,
0100
1000
0100
0001
,
1001
0110
1001
0110
,
2002
0000
3003
0000
0001
1000
0010
0000
,
0000
0100
0000
0001
,
0000
0001
0000
0100
,
0010
0010
1000
0000
,
1000
0001
0000
0001
,
0010
0000
0100
0010
,
0000
0100
1000
0000
,
1000
0001
0001
0010
,
0101
1100
0011
1010
,
0200
0000
0000
0000
0000
0000
0310
0001
,
2000
0000
0000
3000
,
0001
1000
0001
1000
0000
0000
0010
0000
,
0100
0010
0002
0003
,
1000
0100
1000
0000
0100
0100
0100
0000
,
0010
0001
0010
0000
1000
1000
1000
0000
,
0010
0100
0010
1000
0001
0001
0001
0000
,
0010
0100
1000
0100
0010
0100
1000
0000
,
0001
0000
0001
0000
1000
0000
0000
0100
,
0100
0000
0000
0010
0010
0000
0000
0000
,
2002
0000
0000
0000
,
3003
0110
0000
0000
,
2000
3001
0100
0010
,
0001
0010
0100
0000
1000
0010
0100
0000
,
0010
0010
0010
0000
0100
0000
0000
0001
,
1000
0001
0100
0010
,
0002
1003
0010
0100
,
0010
0001
1000
0000
0100
0010
1000
0000
,
0001
0001
0001
0000
0001
0000
1000
0010
,
0000
1000
0010
0100
,
0001
0000
0001
0000
0001
0100
0001
0000
,
0010
0000
0010
0000
0010
1000
0010
0000
,
1000
0000
1000
0000
1000
0010
1000
0000
,
0100
0001
0100
0000
,
0011
1100
0011
1100
,
0011
0000
0100
0000
0100
0001
1000
0000
,
0100
0100
0001
1000
,
0010
0000
0001
0000
0100
0000
0001
1000
,
0010
0001
0100
0010
,
0010
0000
1000
0000
0001
0000
1000
0001
,
0100
0000
0010
0000
,
0100
0000
0000
0100
0000
0000
0000
0001
0000
0000
0001
0000
0000
0000
1000
0000
,
0000
0000
0000
0000
0100
0000
0000
0100
0000
0000
0000
0000
0001
0000
0001
0000
,
0000
2000
0000
0000
,
3000
0000
0000
0000
;

//---------------dance-single - ----------------
#NOTES:
     dance-single:
     :
     Hard:
     7:
     0.439,0.451,0.122,0.100,0.022: // measure 1
0000
0000
0000
0000
,  // measure 2
0000
0000
0000
0000
,  // measure 3
0100
0000
0100
0000
0100
0000
0001
0100
,  // measure 4
0010
0000
0010
0100
1000
0000
0100
0000
,  // measure 5
1000
0001
0100
0010
,  // measure 6
0100
1000
0010
0100
,  // measure 7
0200
1300
2000
3001
,  // measure 8
0010
1000
0100
0000
0010
1000
0001
0000
,  // measure 9
0010
0100
0001
0010
0100
0010
1000
0000
,  // measure 10
0001
0010
0100
0010
0100
0001
1000
0000
,  // measure 11
0100
0000
1000
0100
0020
0000
0031
0010
,  // measure 12
0200
0000
0310
0000
0100
0000
0010
0100
,  // measure 13
1100
0000
0010
0100
2000
0000
3010
0100
,  // measure 14
0002
0000
0010
0013
0000
0000
0001
0000
,  // measure 15
1000
0100
0001
1000
0010
1000
0010
0100
,  // measure 16
0010
0001
0010
0001
1000
0100
0010
0001
,  // measure 17
0100
0010
0001
1000
0010
0100
0001
0100
,  // measure 18
0010
0010
1001
0000
0000
0000
0000
0000
,  // measure 19
0110
0000
0100
1000
0010
0001
0001
0000
,  // measure 20
0100
0010
0001
0010
0001
1000
1000
0000
,  // measure 21
0001
0100
0001
0100
0001
0010
0001
0100
,  // measure 22
0101
0000
0001
1000
1000
0001
0001
0000
,  // measure 23
0101
0000
1000
0001
0010
0010
0010
0001
,  // measure 24
0100
1000
0100
0010
0010
1000
0000
0100
,  // measure 25
0001
0010
0001
0010
0100
1000
1000
0010
,  // measure 26
0000
0002
0100
1003
,  // measure 27
0001
1000
0001
1000
0010
1000
0101
0000
,  // measure 28
0010
1000
0010
1000
0001
0010
1001
0000
,  // measure 29
0100
0001
0100
0001
0100
1000
0011
0000
,  // measure 30
0100
0001
1000
0000
0100
0000
0100
0000
,  // measure 31
1000
0100
0010
0001
1000
0010
0100
0001
,  // measure 32
1001
0000
0000
0000
0100
0100
0100
0010
,  // measure 33
0010
0010
0000
0010
,  // measure 34
0000
0000
0001
0000
1000
1000
0100
0000
,  // measure 35
0010
0000
0010
0000
,  // measure 36
0001
0000
0000
0100
0000
1000
0001
0001
,  // measure 37
0000
0100
0000
0100
,  // measure 38
0000
0010
0000
0010
,  // measure 39
0000
1100
0101
0100
,  // measure 40
0001
0010
0100
1000
0001
0100
0010
1000
,  // measure 41
0020
0000
0000
0000
0000
0000
0130
0001
,  // measure 42
2000
0000
0000
0000
3001
0100
0000
0000
,  // measure 43
0001
1000
0001
1000
0010
0100
0010
0100
,  // measure 44
0001
0100
0010
0010
0200
0000
0300
0000
,  // measure 45
0100
1000
0100
1000
0100
0100
0100
0000
,  // measure 46
1000
0001
1000
0001
1000
1000
1000
0000
,  // measure 47
0010
0100
0010
0100
0010
0100
0001
1000
,  // measure 48
0001
1000
0001
1000
0001
1000
0001
0000
,  // measure 49
0001
0000
0001
0000
1000
0000
0001
0100
,  // measure 50
0100
0000
0001
0010
0010
0000
0000
0000
,  // measure 51
2200
0000
0300
0002
,  // measure 52
3003
0110
0000
0000
,  // measure 53
0001
0100
0010
1000
0100
0100
0010
0000
,  // measure 54
0001
0010
0001
0010
0100
0100
0001
0000
,  // measure 55
1000
0100
1000
0010
1000
0010
1000
0100
,  // measure 56
1100
0000
0001
0100
0100
0000
0010
0000
,  // measure 57
0001
0010
0100
0010
0001
0100
0100
0000
,  // measure 58
0010
0001
1000
0001
0001
0001
0000
0000
,  // measure 59
0001
0100
0001
0100
0001
0010
1000
0010
,  // measure 60
1000
1000
0010
0100
,  // measure 61
0010
0001
0010
0001
0010
0100
0011
0000
,  // measure 62
0010
1000
0010
1000
0100
0010
1100
0000
,  // measure 63
0100
0001
0100
0001
1000
0010
1100
0000
,  // measure 64
0010
0010
1000
0100
,  // measure 65
0001
0010
0100
1000
0001
0100
0010
1000
,  // measure 66
0001
0000
0000
1000
1000
1000
0001
1000
,  // measure 67
0100
0000
0100
0000
0001
0000
1000
0100
,  // measure 68
0010
0000
0001
0000
0100
0010
0001
0100
,  // measure 69
0010
1000
1000
0000
0100
0000
0010
0000
,  // measure 70
0010
0000
1000
0000
0001
0000
1000
0001
,  // measure 71
0100
0000
0000
0000
1000
0000
0000
0001
0000
1000
0000
0000
0100
0000
0000
0000
,  // measure 72
0001
0000
0000
0010
0000
0000
0000
1000
0000
0000
0100
0000
0000
0000
0100
0000
,  // measure 73
0000
0000
0000
0000
0100
0000
0000
0100
0000
0000
0010
0000
0000
0001
0000
0000
,  // measure 74
1000
0002
0000
0000
,  // measure 75
0003
0000
0000
0000
;
